<?xml version="1.0" standalone="no"?>
<!DOCTYPE svg PUBLIC "-//W3C//DTD SVG 1.1//EN" "http://www.w3.org/Graphics/SVG/1.1/DTD/svg11.dtd" >
<svg xmlns="http://www.w3.org/2000/svg" xmlns:xlink="http://www.w3.org/1999/xlink" version="1.1">
<metadata>
Created by FontForge 20190801 at Fri Dec  2 09:32:37 2016
 By Unknown
Digitized data copyright 2012-2016, The Mozilla Foundation and Telefonica S.A.
</metadata>
<defs>
<font id="FiraSansCondensed-SemiBoldItalic" horiz-adv-x="504" >
  <font-face 
    font-family="Fira Sans Condensed SemiBold"
    font-weight="600"
    font-style="italic"
    font-stretch="condensed"
    units-per-em="1000"
    panose-1="2 11 7 3 5 0 0 2 0 4"
    ascent="800"
    descent="-200"
    x-height="530"
    cap-height="692"
    bbox="-708 -354 1417 1159"
    underline-thickness="50"
    underline-position="-100"
    slope="-8"
    unicode-range="U+000D-FEFF"
  />
<missing-glyph horiz-adv-x="657" 
d="M646 1050l-197 -1400h-414l197 1400h414zM586 998h-306l-183 -1296h306zM417.5 425.5q23.5 -25.5 23.5 -66.5q0 -9 -2 -27q-7 -52 -32.5 -79.5t-75.5 -34.5l-8 -47q-1 -11 -8.5 -16.5t-16.5 -5.5q-11 0 -18 7.5t-6 18.5l10 82q53 3 75 21t28 60q2 14 2 20q0 22 -11 33.5
t-39 11.5q-29 0 -54 -13l-12 -1q-12 0 -18.5 8t-4.5 19q2 17 31 26t62 9q51 0 74.5 -25.5zM313.5 109q9.5 -11 7.5 -28q-2 -14 -12.5 -23.5t-24.5 -9.5q-16 0 -25 12t-6 29q1 13 11 22t24 9q16 0 25.5 -11z" />
    <glyph glyph-name="fi" unicode="fi" horiz-adv-x="532" 
d="M436 0h-134l60 433h-127l-54 -387q-11 -81 -40.5 -131t-72 -78.5t-108.5 -55.5l-33 99q38 17 61 35t37.5 48.5t21.5 81.5l54 388h-72l14 97h71l8 57q11 75 65.5 122t141.5 47q45 0 82 -11t73 -33l-48 -86q-51 27 -96 27q-40 0 -60 -17.5t-25 -56.5l-7 -49h262z" />
    <glyph glyph-name="fl" unicode="fl" horiz-adv-x="558" 
d="M506 98l15 -95q-39 -18 -86 -18q-52 0 -80.5 28.5t-28.5 81.5q0 10 2 30l74 521q-33 11 -69 11q-37 0 -55 -19t-23 -59l-7 -49h91l-28 -97h-76l-54 -387q-11 -81 -40.5 -131t-72 -78.5t-108.5 -55.5l-33 99q38 17 61 35t37.5 48.5t21.5 81.5l54 388h-72l13 97h72l8 57
q11 76 63 122.5t136 46.5q64 0 115 -20l113 13l-87 -621l-1 -11q0 -12 5 -17.5t16 -5.5q6 0 24 4z" />
    <glyph glyph-name=".notdef" horiz-adv-x="657" 
d="M646 1050l-197 -1400h-414l197 1400h414zM586 998h-306l-183 -1296h306zM417.5 425.5q23.5 -25.5 23.5 -66.5q0 -9 -2 -27q-7 -52 -32.5 -79.5t-75.5 -34.5l-8 -47q-1 -11 -8.5 -16.5t-16.5 -5.5q-11 0 -18 7.5t-6 18.5l10 82q53 3 75 21t28 60q2 14 2 20q0 22 -11 33.5
t-39 11.5q-29 0 -54 -13l-12 -1q-12 0 -18.5 8t-4.5 19q2 17 31 26t62 9q51 0 74.5 -25.5zM313.5 109q9.5 -11 7.5 -28q-2 -14 -12.5 -23.5t-24.5 -9.5q-16 0 -25 12t-6 29q1 13 11 22t24 9q16 0 25.5 -11z" />
    <glyph glyph-name="nonmarkingreturn" unicode="&#xd;" horiz-adv-x="207" 
 />
    <glyph glyph-name="space" unicode=" " horiz-adv-x="207" 
 />
    <glyph glyph-name="A" unicode="A" horiz-adv-x="530" 
d="M354 0l-12 157h-186l-55 -157h-145l284 692h169l90 -692h-145zM193 262h141l-26 330z" />
    <glyph glyph-name="Aacute" unicode="&#xc1;" horiz-adv-x="530" 
d="M354 0l-12 157h-186l-55 -157h-145l284 692h169l90 -692h-145zM193 262h141l-26 330zM430 933l45 -102l-219 -82l-31 67z" />
    <glyph glyph-name="Abreve" unicode="&#x102;" horiz-adv-x="530" 
d="M354 0l-12 157h-186l-55 -157h-145l284 692h169l90 -692h-145zM193 262h141l-26 330zM232.5 796.5q-34.5 43.5 -30.5 107.5l74 12q7 -66 64 -66q31 0 52.5 18.5t34.5 50.5l75 -19q-14 -65 -58 -106t-110 -41q-67 0 -101.5 43.5z" />
    <glyph glyph-name="uni1EAE" unicode="&#x1eae;" horiz-adv-x="530" 
d="M511 1029l-158 -139l-48 45l139 165zM393.5 853.5q21.5 18.5 34.5 50.5l75 -19q-14 -65 -58 -106t-110 -41q-67 0 -101.5 43.5t-30.5 107.5l74 12q7 -66 64 -66q31 0 52.5 18.5zM240 692h169l90 -692h-145l-12 157h-186l-55 -157h-145zM193 262h141l-26 330z" />
    <glyph glyph-name="uni1EB6" unicode="&#x1eb6;" horiz-adv-x="530" 
d="M354 0l-12 157h-186l-55 -157h-145l284 692h169l90 -692h-145zM193 262h141l-26 330zM232.5 796.5q-34.5 43.5 -30.5 107.5l74 12q7 -66 64 -66q31 0 52.5 18.5t34.5 50.5l75 -19q-14 -65 -58 -106t-110 -41q-67 0 -101.5 43.5zM267.5 -85q19.5 -20 19.5 -51
q0 -39 -25.5 -64.5t-64.5 -25.5q-33 0 -52.5 19.5t-19.5 51.5q0 39 26 64.5t64 25.5q33 0 52.5 -20z" />
    <glyph glyph-name="uni1EB0" unicode="&#x1eb0;" horiz-adv-x="530" 
d="M396 931l-56 -41l-120 144l83 64zM232.5 781.5q-34.5 43.5 -30.5 107.5l74 12q7 -66 64 -66q31 0 52.5 18.5t34.5 50.5l75 -19q-14 -65 -58 -106t-110 -41q-67 0 -101.5 43.5zM240 692h169l90 -692h-145l-12 157h-186l-55 -157h-145zM193 262h141l-26 330z" />
    <glyph glyph-name="uni1EB2" unicode="&#x1eb2;" horiz-adv-x="530" 
d="M354 0l-12 157h-186l-55 -157h-145l284 692h169l90 -692h-145zM193 262h141l-26 330zM234.5 781.5q-34.5 43.5 -30.5 107.5l74 12q7 -66 64 -66q31 0 52.5 18.5t34.5 50.5l75 -19q-14 -65 -58 -106t-110 -41q-67 0 -101.5 43.5zM320 976q35 3 52.5 13.5t17.5 33.5
q0 26 -31 26q-25 0 -53 -14l-18 63q43 24 93 24q49 0 76 -25.5t27 -66.5q0 -81 -88 -97l-6 -44h-80z" />
    <glyph glyph-name="uni1EB4" unicode="&#x1eb4;" horiz-adv-x="530" 
d="M284 964.5q-12 -10.5 -26 -32.5l-63 35q25 46 56.5 74t66.5 28q20 0 33.5 -6.5t30.5 -19.5q22 -18 36 -18t25.5 10t26.5 32l62 -35q-24 -47 -55.5 -74t-65.5 -27q-17 0 -30.5 6.5t-31.5 19.5q-9 7 -19 12.5t-19 5.5q-15 0 -27 -10.5zM392.5 853.5q21.5 18.5 34.5 50.5
l75 -19q-14 -65 -58 -106t-110 -41q-67 0 -101.5 43.5t-30.5 107.5l74 12q7 -66 64 -66q31 0 52.5 18.5zM240 692h169l90 -692h-145l-12 157h-186l-55 -157h-145zM193 262h141l-26 330z" />
    <glyph glyph-name="uni01CD" unicode="&#x1cd;" horiz-adv-x="530" 
d="M354 0l-12 157h-186l-55 -157h-145l284 692h169l90 -692h-145zM193 262h141l-26 330zM470 932l48 -57l-144 -124h-82l-110 128l54 53l107 -84z" />
    <glyph glyph-name="Acircumflex" unicode="&#xc2;" horiz-adv-x="530" 
d="M354 0l-12 157h-186l-55 -157h-145l284 692h169l90 -692h-145zM193 262h141l-26 330zM216 757l-48 56l144 125h82l110 -128l-54 -53l-107 83z" />
    <glyph glyph-name="uni1EA4" unicode="&#x1ea4;" horiz-adv-x="530" 
d="M638 998l-158 -139l-48 45l139 165zM308 902h82l110 -128l-54 -53l-107 83l-127 -83l-48 56zM240 692h169l90 -692h-145l-12 157h-186l-55 -157h-145zM193 262h141l-26 330z" />
    <glyph glyph-name="uni1EAC" unicode="&#x1eac;" horiz-adv-x="530" 
d="M354 0l-12 157h-186l-55 -157h-145l284 692h169l90 -692h-145zM193 262h141l-26 330zM216 757l-48 56l144 125h82l110 -128l-54 -53l-107 83zM267.5 -85q19.5 -20 19.5 -51q0 -39 -25.5 -64.5t-64.5 -25.5q-33 0 -52.5 19.5t-19.5 51.5q0 39 26 64.5t64 25.5
q33 0 52.5 -20z" />
    <glyph glyph-name="uni1EA6" unicode="&#x1ea6;" horiz-adv-x="530" 
d="M259 900l-56 -41l-120 144l83 64zM210 721l-48 56l144 125h82l110 -128l-54 -53l-107 83zM354 0l-12 157h-186l-55 -157h-145l284 692h169l90 -692h-145zM193 262h141l-26 330z" />
    <glyph glyph-name="uni1EA8" unicode="&#x1ea8;" horiz-adv-x="530" 
d="M354 0l-12 157h-186l-55 -157h-145l284 692h169l90 -692h-145zM193 262h141l-26 330zM210 721l-48 56l144 125h82l110 -128l-54 -53l-107 83zM460 931q35 3 52.5 13.5t17.5 33.5q0 26 -31 26q-25 0 -53 -14l-18 63q43 24 93 24q49 0 76 -25.5t27 -66.5q0 -81 -88 -97
l-6 -44h-80z" />
    <glyph glyph-name="uni1EAA" unicode="&#x1eaa;" horiz-adv-x="530" 
d="M284 962.5q-12 -10.5 -26 -32.5l-63 35q25 46 56.5 74t66.5 28q20 0 33.5 -6.5t30.5 -19.5q22 -18 36 -18t25.5 10t26.5 32l62 -35q-24 -47 -55.5 -74t-65.5 -27q-17 0 -30.5 6.5t-31.5 19.5q-9 7 -19 12.5t-19 5.5q-15 0 -27 -10.5zM307 902h82l110 -128l-54 -53
l-107 83l-127 -83l-48 56zM240 692h169l90 -692h-145l-12 157h-186l-55 -157h-145zM193 262h141l-26 330z" />
    <glyph glyph-name="uni0200" unicode="&#x200;" horiz-adv-x="530" 
d="M354 0l-12 157h-186l-55 -157h-145l284 692h169l90 -692h-145zM193 262h141l-26 330zM246 977l61 -191l-77 -32l-85 178zM399 976l53 -189l-77 -28l-78 175z" />
    <glyph glyph-name="Adieresis" unicode="&#xc4;" horiz-adv-x="530" 
d="M354 0l-12 157h-186l-55 -157h-145l284 692h169l90 -692h-145zM193 262h141l-26 330zM188.5 789.5q-17.5 17.5 -17.5 44.5q0 34 23 57t56 23q29 0 46.5 -17t17.5 -45q0 -35 -23 -57.5t-56 -22.5q-29 0 -46.5 17.5zM393.5 789.5q-17.5 17.5 -17.5 44.5q0 34 23 57t56 23
q29 0 46.5 -17.5t17.5 -44.5q0 -34 -23 -57t-56 -23q-29 0 -46.5 17.5z" />
    <glyph glyph-name="uni01DE" unicode="&#x1de;" horiz-adv-x="530" 
d="M354 0l-12 157h-186l-55 -157h-145l284 692h169l90 -692h-145zM193 262h141l-26 330zM181.5 763.5q-17.5 17.5 -17.5 44.5q0 34 23 57t56 23q29 0 46.5 -17t17.5 -45q0 -35 -23 -57.5t-56 -22.5q-29 0 -46.5 17.5zM386.5 763.5q-17.5 17.5 -17.5 44.5q0 34 23 57t56 23
q29 0 46.5 -17.5t17.5 -44.5q0 -34 -23 -57t-56 -23q-29 0 -46.5 17.5zM484 930h-267l14 96h267z" />
    <glyph glyph-name="uni0226" unicode="&#x226;" horiz-adv-x="530" 
d="M354 0l-12 157h-186l-55 -157h-145l284 692h169l90 -692h-145zM193 262h141l-26 330zM286.5 785q-19.5 20 -19.5 51q0 39 25.5 64.5t64.5 25.5q33 0 52.5 -19.5t19.5 -51.5q0 -39 -26 -64.5t-64 -25.5q-33 0 -52.5 20z" />
    <glyph glyph-name="uni1EA0" unicode="&#x1ea0;" horiz-adv-x="530" 
d="M354 0l-12 157h-186l-55 -157h-145l284 692h169l90 -692h-145zM193 262h141l-26 330zM267.5 -85q19.5 -20 19.5 -51q0 -39 -25.5 -64.5t-64.5 -25.5q-33 0 -52.5 19.5t-19.5 51.5q0 39 26 64.5t64 25.5q33 0 52.5 -20z" />
    <glyph glyph-name="uni01E0" unicode="&#x1e0;" horiz-adv-x="530" 
d="M354 0l-12 157h-186l-55 -157h-145l284 692h169l90 -692h-145zM193 262h141l-26 330zM278.5 758q-19.5 20 -19.5 51q0 39 25.5 64.5t64.5 25.5q33 0 52.5 -19.5t19.5 -51.5q0 -39 -26 -64.5t-64 -25.5q-33 0 -52.5 20zM490 931h-267l14 96h267z" />
    <glyph glyph-name="Agrave" unicode="&#xc0;" horiz-adv-x="530" 
d="M354 0l-12 157h-186l-55 -157h-145l284 692h169l90 -692h-145zM193 262h141l-26 330zM291 931l178 -116l-39 -65l-197 80z" />
    <glyph glyph-name="uni1EA2" unicode="&#x1ea2;" horiz-adv-x="530" 
d="M354 0l-12 157h-186l-55 -157h-145l284 692h169l90 -692h-145zM193 262h141l-26 330zM306 851q35 3 52.5 13.5t17.5 33.5q0 26 -31 26q-25 0 -53 -14l-18 63q43 24 93 24q49 0 76 -25.5t27 -66.5q0 -81 -88 -97l-6 -44h-80z" />
    <glyph glyph-name="uni0202" unicode="&#x202;" horiz-adv-x="530" 
d="M354 0l-12 157h-186l-55 -157h-145l284 692h169l90 -692h-145zM193 262h141l-26 330zM184 784q17 71 62 114t111 43q68 0 102 -45t31 -116l-77 -11q-6 76 -65 76q-31 0 -53.5 -20.5t-35.5 -58.5z" />
    <glyph glyph-name="uni2C6D" unicode="&#x2c6d;" horiz-adv-x="616" 
d="M530 119q0 -16 5.5 -26t19.5 -16l-40 -91q-86 8 -112 77q-32 -38 -69 -58t-85 -20q-97 0 -153 69t-56 194q0 124 38.5 229t107 167.5t156.5 62.5q44 0 74.5 -18t54.5 -52l19 55h119l-78 -552q-1 -8 -1 -21zM394 149l54 396q-18 28 -39 42t-51 14q-54 0 -93.5 -50.5
t-60 -132t-20.5 -173.5q0 -156 99 -156q62 0 111 60z" />
    <glyph glyph-name="Amacron" unicode="&#x100;" horiz-adv-x="530" 
d="M354 0l-12 157h-186l-55 -157h-145l284 692h169l90 -692h-145zM193 262h141l-26 330zM471 785h-267l14 96h267z" />
    <glyph glyph-name="Aogonek" unicode="&#x104;" horiz-adv-x="530" 
d="M338.5 -59.5q-25.5 -29.5 -25.5 -58.5q0 -34 42 -34q24 0 54 6l-20 -87q-27 -7 -61 -7q-51 0 -83 28t-32 74q0 49 33 89t106 71l-10 135h-186l-55 -157h-145l284 692h169l90 -692h-63q-72 -30 -97.5 -59.5zM193 262h141l-26 330z" />
    <glyph glyph-name="Aring" unicode="&#xc5;" horiz-adv-x="530" 
d="M354 0l-12 157h-186l-55 -157h-145l284 692h169l90 -692h-145zM193 262h141l-26 330zM442.5 951q29.5 -31 29.5 -79q0 -36 -17.5 -67t-48.5 -49t-71 -18q-49 0 -78.5 30.5t-29.5 78.5q0 36 17.5 67t48.5 49.5t70 18.5q50 0 79.5 -31zM320 894.5q-14 -18.5 -14 -44.5
q0 -21 9 -32t26 -11q24 0 38 18.5t14 44.5q0 21 -9 32t-26 11q-24 0 -38 -18.5z" />
    <glyph glyph-name="Aringacute" unicode="&#x1fa;" horiz-adv-x="530" 
d="M354 0l-12 157h-186l-55 -157h-145l284 692h169l90 -692h-145zM193 262h141l-26 330zM435.5 941q29.5 -31 29.5 -79q0 -36 -17.5 -67t-48.5 -49t-71 -18q-49 0 -78.5 30.5t-29.5 78.5q0 36 17.5 67t48.5 49.5t70 18.5q50 0 79.5 -31zM313 884.5q-14 -18.5 -14 -44.5
q0 -21 9 -32t26 -11q24 0 38 18.5t14 44.5q0 21 -9 32t-26 11q-24 0 -38 -18.5zM437 1159l45 -102l-219 -82l-31 67z" />
    <glyph glyph-name="uni023A" unicode="&#x23a;" horiz-adv-x="530" 
d="M369 0l-15 157h-105l-87 -230l-49 13l82 217h-49l-57 -157h-133l284 692h158l23 61l49 -12l-50 -133l79 -608h-130zM183 256h50l88 234l-11 114zM286 256h58l-12 121z" />
    <glyph glyph-name="Atilde" unicode="&#xc3;" horiz-adv-x="530" 
d="M354 0l-12 157h-186l-55 -157h-145l284 692h169l90 -692h-145zM193 262h141l-26 330zM361.5 775q-14.5 7 -31.5 20q-12 10 -20.5 14.5t-17.5 4.5q-15 0 -27 -11t-27 -34l-63 36q25 48 57 77.5t67 29.5q20 0 33 -7t32 -21q13 -10 20 -14t16 -4q14 0 25.5 10.5t26.5 33.5
l63 -37q-24 -49 -56 -77t-66 -28q-17 0 -31.5 7z" />
    <glyph glyph-name="AE" unicode="&#xc6;" horiz-adv-x="751" 
d="M717 588h-244l9 -187h217l-15 -102h-198l9 -195h204l-16 -104h-314l-4 157h-199l-68 -157h-149l332 692h466zM212 262h150l-9 325z" />
    <glyph glyph-name="AEacute" unicode="&#x1fc;" horiz-adv-x="751" 
d="M717 588h-244l9 -187h217l-15 -102h-198l9 -195h204l-16 -104h-314l-4 157h-199l-68 -157h-149l332 692h466zM212 262h150l-9 325zM597 933l45 -102l-219 -82l-31 67z" />
    <glyph glyph-name="uni01E2" unicode="&#x1e2;" horiz-adv-x="751" 
d="M717 588h-244l9 -187h217l-15 -102h-198l9 -195h204l-16 -104h-314l-4 157h-199l-68 -157h-149l332 692h466zM212 262h150l-9 325zM638 785h-267l14 96h267z" />
    <glyph glyph-name="B" unicode="B" horiz-adv-x="552" 
d="M484.5 320.5q34.5 -32.5 34.5 -94.5q0 -103 -73 -164.5t-223 -61.5h-197l97 692h188q108 0 168.5 -39t60.5 -116q0 -70 -41.5 -112.5t-107.5 -58.5q59 -13 93.5 -45.5zM247 590l-25 -180h59q58 0 87.5 30t29.5 84q0 66 -86 66h-65zM345 139.5q31 34.5 31 93.5
q0 80 -98 80h-70l-29 -208h57q78 0 109 34.5z" />
    <glyph glyph-name="uni1E02" unicode="&#x1e02;" horiz-adv-x="552" 
d="M484.5 320.5q34.5 -32.5 34.5 -94.5q0 -103 -73 -164.5t-223 -61.5h-197l97 692h188q108 0 168.5 -39t60.5 -116q0 -70 -41.5 -112.5t-107.5 -58.5q59 -13 93.5 -45.5zM247 590l-25 -180h59q58 0 87.5 30t29.5 84q0 66 -86 66h-65zM345 139.5q31 34.5 31 93.5
q0 80 -98 80h-70l-29 -208h57q78 0 109 34.5zM281.5 785q-19.5 20 -19.5 51q0 39 25.5 64.5t64.5 25.5q33 0 52.5 -19.5t19.5 -51.5q0 -39 -26 -64.5t-64 -25.5q-33 0 -52.5 20z" />
    <glyph glyph-name="uni1E04" unicode="&#x1e04;" horiz-adv-x="552" 
d="M484.5 320.5q34.5 -32.5 34.5 -94.5q0 -103 -73 -164.5t-223 -61.5h-197l97 692h188q108 0 168.5 -39t60.5 -116q0 -70 -41.5 -112.5t-107.5 -58.5q59 -13 93.5 -45.5zM247 590l-25 -180h59q58 0 87.5 30t29.5 84q0 66 -86 66h-65zM345 139.5q31 34.5 31 93.5
q0 80 -98 80h-70l-29 -208h57q78 0 109 34.5zM279.5 -85q19.5 -20 19.5 -51q0 -39 -25.5 -64.5t-64.5 -25.5q-33 0 -52.5 19.5t-19.5 51.5q0 39 26 64.5t64 25.5q33 0 52.5 -20z" />
    <glyph glyph-name="uniA7B4" unicode="&#xa7b4;" horiz-adv-x="550" 
d="M518 229q0 -69 -33 -121t-91 -80t-131 -28q-46 0 -96 12l-31 -220h-139l126 900h182q107 0 168 -39.5t61 -117.5q0 -69 -40.5 -111.5t-102.5 -57.5q127 -26 127 -137zM343 140.5q33 35.5 33 92.5q0 42 -24 61t-69 19h-30l22 97h14q46 0 74 29t28 83q0 37 -21 52.5
t-62 15.5h-60l-67 -477q37 -8 72 -8q57 0 90 35.5z" />
    <glyph glyph-name="uni0181" unicode="&#x181;" horiz-adv-x="673" 
d="M605.5 320.5q34.5 -32.5 34.5 -94.5q0 -103 -73 -164.5t-223 -61.5h-197l83 589h-25q-25 0 -38 -15.5t-13 -44.5q0 -23 9 -55l-95 -37q-23 52 -23 96q0 73 45.5 116t124.5 43h217q108 0 168.5 -39t60.5 -116q0 -70 -41.5 -112.5t-107.5 -58.5q59 -13 93.5 -45.5zM368 590
l-25 -180h59q58 0 87.5 30t29.5 84q0 66 -86 66h-65zM466 139.5q31 34.5 31 93.5q0 80 -98 80h-70l-29 -208h57q78 0 109 34.5z" />
    <glyph glyph-name="uni0243" unicode="&#x243;" horiz-adv-x="561" 
d="M493.5 320.5q34.5 -32.5 34.5 -94.5q0 -103 -73 -164.5t-223 -61.5h-197l24 173h-60l11 76h60l62 443h188q108 0 168.5 -39t60.5 -116q0 -70 -41.5 -112.5t-107.5 -58.5q59 -13 93.5 -45.5zM256 590l-25 -180h59q58 0 87.5 30t29.5 84q0 66 -86 66h-65zM354 139.5
q31 34.5 31 93.5q0 80 -98 80h-70l-9 -64h107l-11 -76h-106l-10 -68h57q78 0 109 34.5z" />
    <glyph glyph-name="uni0182" unicode="&#x182;" horiz-adv-x="531" 
d="M452 393q59 -48 59 -138q0 -65 -27.5 -123t-89.5 -95t-159 -37h-209l97 692h379l-31 -109h-224l-20 -142h60q106 0 165 -48zM335 146.5q30 41.5 30 104.5q0 89 -94 89h-58l-33 -235h57q68 0 98 41.5z" />
    <glyph glyph-name="C" unicode="C" horiz-adv-x="514" 
d="M553 630l-75 -74q-25 22 -50 33t-55 11q-66 0 -108.5 -54.5t-61 -135t-18.5 -160.5q0 -79 28 -116.5t80 -37.5q34 0 62.5 14t66.5 41l54 -83q-92 -84 -206 -84q-105 0 -167.5 70.5t-62.5 200.5q0 112 35.5 215.5t110.5 170t186 66.5q112 0 181 -77z" />
    <glyph glyph-name="Cacute" unicode="&#x106;" horiz-adv-x="514" 
d="M553 630l-75 -74q-25 22 -50 33t-55 11q-66 0 -108.5 -54.5t-61 -135t-18.5 -160.5q0 -79 28 -116.5t80 -37.5q34 0 62.5 14t66.5 41l54 -83q-92 -84 -206 -84q-105 0 -167.5 70.5t-62.5 200.5q0 112 35.5 215.5t110.5 170t186 66.5q112 0 181 -77zM482 933l45 -102
l-219 -82l-31 67z" />
    <glyph glyph-name="Ccaron" unicode="&#x10c;" horiz-adv-x="514" 
d="M553 630l-75 -74q-25 22 -50 33t-55 11q-66 0 -108.5 -54.5t-61 -135t-18.5 -160.5q0 -79 28 -116.5t80 -37.5q34 0 62.5 14t66.5 41l54 -83q-92 -84 -206 -84q-105 0 -167.5 70.5t-62.5 200.5q0 112 35.5 215.5t110.5 170t186 66.5q112 0 181 -77zM522 932l48 -57
l-144 -124h-82l-110 128l54 53l107 -84z" />
    <glyph glyph-name="Ccedilla" unicode="&#xc7;" horiz-adv-x="514" 
d="M264.5 545.5q-42.5 -54.5 -61 -135t-18.5 -160.5q0 -79 28 -116.5t80 -37.5q34 0 62.5 14t66.5 41l54 -83q-79 -72 -173 -82l-6 -39q39 -4 59.5 -26t20.5 -57q0 -29 -15 -56.5t-47 -45t-81 -17.5q-57 0 -96 30l40 62q27 -15 54 -15q21 0 34 9.5t13 27.5q0 19 -16.5 26
t-59.5 7l23 95q-86 15 -136 83.5t-50 184.5q0 112 35.5 215.5t110.5 170t186 66.5q112 0 181 -77l-75 -74q-25 22 -50 33t-55 11q-66 0 -108.5 -54.5z" />
    <glyph glyph-name="Ccircumflex" unicode="&#x108;" horiz-adv-x="514" 
d="M553 630l-75 -74q-25 22 -50 33t-55 11q-66 0 -108.5 -54.5t-61 -135t-18.5 -160.5q0 -79 28 -116.5t80 -37.5q34 0 62.5 14t66.5 41l54 -83q-92 -84 -206 -84q-105 0 -167.5 70.5t-62.5 200.5q0 112 35.5 215.5t110.5 170t186 66.5q112 0 181 -77zM268 757l-48 56
l144 125h82l110 -128l-54 -53l-107 83z" />
    <glyph glyph-name="Cdotaccent" unicode="&#x10a;" horiz-adv-x="514" 
d="M553 630l-75 -74q-25 22 -50 33t-55 11q-66 0 -108.5 -54.5t-61 -135t-18.5 -160.5q0 -79 28 -116.5t80 -37.5q34 0 62.5 14t66.5 41l54 -83q-92 -84 -206 -84q-105 0 -167.5 70.5t-62.5 200.5q0 112 35.5 215.5t110.5 170t186 66.5q112 0 181 -77zM338.5 785
q-19.5 20 -19.5 51q0 39 25.5 64.5t64.5 25.5q33 0 52.5 -19.5t19.5 -51.5q0 -39 -26 -64.5t-64 -25.5q-33 0 -52.5 20z" />
    <glyph glyph-name="uniA7B3" unicode="&#xa7b3;" horiz-adv-x="502" 
d="M551 692l-217 -396l113 -447h-146l-62 351l-148 -351h-153l232 446l-99 397h146l49 -307l135 307h150z" />
    <glyph glyph-name="uni0187" unicode="&#x187;" horiz-adv-x="516" 
d="M723 806l-50 -81q-16 9 -29 13.5t-28 4.5q-50 0 -57 -65l-7 -48l-66 -68q-57 38 -112 38q-67 0 -109.5 -54.5t-61 -134.5t-18.5 -161q0 -79 28 -116.5t79 -37.5q35 0 63 13.5t68 42.5l53 -84q-40 -37 -92 -60.5t-112 -23.5q-107 0 -169.5 70t-62.5 201q0 110 36.5 214
t108.5 171t172 67q47 0 84 -17l1 9q10 68 52 107t114 39q66 0 115 -39z" />
    <glyph glyph-name="uni023B" unicode="&#x23b;" horiz-adv-x="514" 
d="M434 587l-184 -483q21 -8 43 -8q34 0 62.5 14t66.5 41l54 -83q-92 -84 -206 -84q-35 0 -63 7l-24 -64l-51 13l27 70q-57 30 -88 92t-31 153q0 112 35.5 215.5t110.5 170t186 66.5q30 0 51 -4l19 50l50 -13l-20 -52q44 -18 81 -58l-75 -74q-19 18 -44 31zM384 600h-11
q-66 0 -108.5 -54.5t-61 -135t-18.5 -160.5q0 -72 23 -109z" />
    <glyph glyph-name="D" unicode="D" horiz-adv-x="589" 
d="M495.5 636.5q75.5 -55.5 75.5 -194.5q0 -196 -87 -319t-276 -123h-182l97 692h170q127 0 202.5 -55.5zM248 588l-68 -484h51q72 0 116.5 51t63 128t18.5 161q0 81 -33 112.5t-95 31.5h-53z" />
    <glyph glyph-name="uni01F1" unicode="&#x1f1;" horiz-adv-x="1043" 
d="M495.5 636.5q75.5 -55.5 75.5 -194.5q0 -196 -87 -319t-276 -123h-182l97 692h170q127 0 202.5 -55.5zM248 588l-68 -484h51q72 0 116.5 51t63 128t18.5 161q0 81 -33 112.5t-95 31.5h-53zM543 0l15 107l345 473h-251l16 112h406l-16 -109l-343 -469h284l-32 -114h-424z
" />
    <glyph glyph-name="uni01C4" unicode="&#x1c4;" horiz-adv-x="1043" 
d="M495.5 636.5q75.5 -55.5 75.5 -194.5q0 -196 -87 -319t-276 -123h-182l97 692h170q127 0 202.5 -55.5zM248 588l-68 -484h51q72 0 116.5 51t63 128t18.5 161q0 81 -33 112.5t-95 31.5h-53zM543 0l15 107l345 473h-251l16 112h406l-16 -109l-343 -469h284l-32 -114h-424z
M1014 932l48 -57l-144 -124h-82l-110 128l54 53l107 -84z" />
    <glyph glyph-name="uni0189" unicode="&#x189;" horiz-adv-x="597" 
d="M503.5 636.5q75.5 -55.5 75.5 -194.5q0 -196 -87 -319t-276 -123h-182l43 308h-59l13 90h59l41 294h170q127 0 202.5 -55.5zM355.5 155q44.5 51 63 128t18.5 161q0 81 -33 112.5t-95 31.5h-53l-27 -190h122l-13 -90h-121l-29 -204h51q72 0 116.5 51z" />
    <glyph glyph-name="Eth" unicode="&#xd0;" horiz-adv-x="597" 
d="M503.5 636.5q75.5 -55.5 75.5 -194.5q0 -196 -87 -319t-276 -123h-182l43 308h-59l13 90h59l41 294h170q127 0 202.5 -55.5zM355.5 155q44.5 51 63 128t18.5 161q0 81 -33 112.5t-95 31.5h-53l-27 -190h122l-13 -90h-121l-29 -204h51q72 0 116.5 51z" />
    <glyph glyph-name="Dcaron" unicode="&#x10e;" horiz-adv-x="589" 
d="M495.5 636.5q75.5 -55.5 75.5 -194.5q0 -196 -87 -319t-276 -123h-182l97 692h170q127 0 202.5 -55.5zM248 588l-68 -484h51q72 0 116.5 51t63 128t18.5 161q0 81 -33 112.5t-95 31.5h-53zM478 932l48 -57l-144 -124h-82l-110 128l54 53l107 -84z" />
    <glyph glyph-name="uni1E12" unicode="&#x1e12;" horiz-adv-x="589" 
d="M495.5 636.5q75.5 -55.5 75.5 -194.5q0 -196 -87 -319t-276 -123h-182l97 692h170q127 0 202.5 -55.5zM248 588l-68 -484h51q72 0 116.5 51t63 128t18.5 161q0 81 -33 112.5t-95 31.5h-53zM80 -251l-46 57l144 129h82l109 -132l-56 -54l-104 89z" />
    <glyph glyph-name="Dcroat" unicode="&#x110;" horiz-adv-x="597" 
d="M503.5 636.5q75.5 -55.5 75.5 -194.5q0 -196 -87 -319t-276 -123h-182l43 308h-59l13 90h59l41 294h170q127 0 202.5 -55.5zM355.5 155q44.5 51 63 128t18.5 161q0 81 -33 112.5t-95 31.5h-53l-27 -190h122l-13 -90h-121l-29 -204h51q72 0 116.5 51z" />
    <glyph glyph-name="uni1E0A" unicode="&#x1e0a;" horiz-adv-x="589" 
d="M495.5 636.5q75.5 -55.5 75.5 -194.5q0 -196 -87 -319t-276 -123h-182l97 692h170q127 0 202.5 -55.5zM248 588l-68 -484h51q72 0 116.5 51t63 128t18.5 161q0 81 -33 112.5t-95 31.5h-53zM294.5 785q-19.5 20 -19.5 51q0 39 25.5 64.5t64.5 25.5q33 0 52.5 -19.5
t19.5 -51.5q0 -39 -26 -64.5t-64 -25.5q-33 0 -52.5 20z" />
    <glyph glyph-name="uni1E0C" unicode="&#x1e0c;" horiz-adv-x="589" 
d="M495.5 636.5q75.5 -55.5 75.5 -194.5q0 -196 -87 -319t-276 -123h-182l97 692h170q127 0 202.5 -55.5zM248 588l-68 -484h51q72 0 116.5 51t63 128t18.5 161q0 81 -33 112.5t-95 31.5h-53zM269.5 -85q19.5 -20 19.5 -51q0 -39 -25.5 -64.5t-64.5 -25.5q-33 0 -52.5 19.5
t-19.5 51.5q0 39 26 64.5t64 25.5q33 0 52.5 -20z" />
    <glyph glyph-name="uni018A" unicode="&#x18a;" horiz-adv-x="710" 
d="M616.5 636.5q75.5 -55.5 75.5 -194.5q0 -196 -87 -319t-276 -123h-182l83 589h-25q-25 0 -38 -15.5t-13 -44.5q0 -23 9 -55l-95 -37q-23 52 -23 96q0 73 45.5 116t124.5 43h199q127 0 202.5 -55.5zM468.5 155q44.5 51 63 128t18.5 161q0 81 -33 112.5t-95 31.5h-53
l-68 -484h51q72 0 116.5 51z" />
    <glyph glyph-name="uni1E0E" unicode="&#x1e0e;" horiz-adv-x="589" 
d="M495.5 636.5q75.5 -55.5 75.5 -194.5q0 -196 -87 -319t-276 -123h-182l97 692h170q127 0 202.5 -55.5zM248 588l-68 -484h51q72 0 116.5 51t63 128t18.5 161q0 81 -33 112.5t-95 31.5h-53zM90 -89h267l-14 -96h-267z" />
    <glyph glyph-name="uni018B" unicode="&#x18b;" horiz-adv-x="532" 
d="M431 0h-197q-105 0 -164.5 49.5t-59.5 148.5q0 116 74.5 179.5t200.5 63.5h69l20 142h-235l14 109h375zM307 105l33 235h-56q-64 0 -96 -36.5t-32 -101.5q0 -50 24 -73.5t76 -23.5h51z" />
    <glyph glyph-name="uni01F2" unicode="&#x1f2;" horiz-adv-x="985" 
d="M495.5 636.5q75.5 -55.5 75.5 -194.5q0 -196 -87 -319t-276 -123h-182l97 692h170q127 0 202.5 -55.5zM248 588l-68 -484h51q72 0 116.5 51t63 128t18.5 161q0 81 -33 112.5t-95 31.5h-53zM1000 530l-14 -98l-256 -326h216l-28 -106h-364l14 98l256 327h-192l16 105h352z
" />
    <glyph glyph-name="uni01C5" unicode="&#x1c5;" horiz-adv-x="985" 
d="M495.5 636.5q75.5 -55.5 75.5 -194.5q0 -196 -87 -319t-276 -123h-182l97 692h170q127 0 202.5 -55.5zM248 588l-68 -484h51q72 0 116.5 51t63 128t18.5 161q0 81 -33 112.5t-95 31.5h-53zM1000 530l-14 -98l-256 -326h216l-28 -106h-364l14 98l256 327h-192l16 105h352z
M973 802l46 -56l-144 -129h-82l-108 129l53 56l104 -88z" />
    <glyph glyph-name="E" unicode="E" horiz-adv-x="469" 
d="M495 692l-30 -104h-217l-26 -185h190l-14 -102h-190l-28 -197h234l-15 -104h-373l97 692h372z" />
    <glyph glyph-name="Eacute" unicode="&#xc9;" horiz-adv-x="469" 
d="M495 692l-30 -104h-217l-26 -185h190l-14 -102h-190l-28 -197h234l-15 -104h-373l97 692h372zM416 933l45 -102l-219 -82l-31 67z" />
    <glyph glyph-name="Ebreve" unicode="&#x114;" horiz-adv-x="469" 
d="M495 692l-30 -104h-217l-26 -185h190l-14 -102h-190l-28 -197h234l-15 -104h-373l97 692h372zM218.5 796.5q-34.5 43.5 -30.5 107.5l74 12q7 -66 64 -66q31 0 52.5 18.5t34.5 50.5l75 -19q-14 -65 -58 -106t-110 -41q-67 0 -101.5 43.5z" />
    <glyph glyph-name="Ecaron" unicode="&#x11a;" horiz-adv-x="469" 
d="M495 692l-30 -104h-217l-26 -185h190l-14 -102h-190l-28 -197h234l-15 -104h-373l97 692h372zM456 932l48 -57l-144 -124h-82l-110 128l54 53l107 -84z" />
    <glyph glyph-name="uni0228" unicode="&#x228;" horiz-adv-x="469" 
d="M248 588l-26 -185h190l-14 -102h-190l-28 -197h234l-15 -104h-148l-8 -53q40 -4 60 -26t20 -57q0 -29 -14.5 -56t-47 -45t-82.5 -18q-56 0 -95 30l40 61q28 -14 55 -14q21 0 33.5 9.5t12.5 27.5q0 19 -16.5 26t-59.5 7l26 108h-149l97 692h372l-30 -104h-217z" />
    <glyph glyph-name="Ecircumflex" unicode="&#xca;" horiz-adv-x="469" 
d="M495 692l-30 -104h-217l-26 -185h190l-14 -102h-190l-28 -197h234l-15 -104h-373l97 692h372zM202 757l-48 56l144 125h82l110 -128l-54 -53l-107 83z" />
    <glyph glyph-name="uni1EBE" unicode="&#x1ebe;" horiz-adv-x="469" 
d="M557 1069l67 -71l-158 -139l-48 45zM198 721l-48 56l144 125h82l110 -128l-54 -53l-107 83zM495 692l-30 -104h-217l-26 -185h190l-14 -102h-190l-28 -197h234l-15 -104h-373l97 692h372z" />
    <glyph glyph-name="uni1EC6" unicode="&#x1ec6;" horiz-adv-x="469" 
d="M495 692l-30 -104h-217l-26 -185h190l-14 -102h-190l-28 -197h234l-15 -104h-373l97 692h372zM202 757l-48 56l144 125h82l110 -128l-54 -53l-107 83zM253.5 -85q19.5 -20 19.5 -51q0 -39 -25.5 -64.5t-64.5 -25.5q-33 0 -52.5 19.5t-19.5 51.5q0 39 26 64.5t64 25.5
q33 0 52.5 -20z" />
    <glyph glyph-name="uni1EC0" unicode="&#x1ec0;" horiz-adv-x="469" 
d="M152 1067l93 -167l-56 -41l-120 144zM196 721l-48 56l144 125h82l110 -128l-54 -53l-107 83zM495 692l-30 -104h-217l-26 -185h190l-14 -102h-190l-28 -197h234l-15 -104h-373l97 692h372z" />
    <glyph glyph-name="uni1EC2" unicode="&#x1ec2;" horiz-adv-x="469" 
d="M495 692l-30 -104h-217l-26 -185h190l-14 -102h-190l-28 -197h234l-15 -104h-373l97 692h372zM196 721l-48 56l144 125h82l110 -128l-54 -53l-107 83zM446 931q35 3 52.5 13.5t17.5 33.5q0 26 -31 26q-25 0 -53 -14l-18 63q43 24 93 24q49 0 76 -25.5t27 -66.5
q0 -81 -88 -97l-6 -44h-80z" />
    <glyph glyph-name="uni1EC4" unicode="&#x1ec4;" horiz-adv-x="469" 
d="M366.5 935.5q-13.5 6.5 -31.5 19.5q-9 7 -19 12.5t-19 5.5q-15 0 -27 -10.5t-26 -32.5l-63 35q25 46 56.5 74t66.5 28q20 0 33.5 -6.5t30.5 -19.5q22 -18 36 -18t25.5 10t26.5 32l62 -35q-24 -47 -55.5 -74t-65.5 -27q-17 0 -30.5 6.5zM197 721l-48 56l144 125h82
l110 -128l-54 -53l-107 83zM495 692l-30 -104h-217l-26 -185h190l-14 -102h-190l-28 -197h234l-15 -104h-373l97 692h372z" />
    <glyph glyph-name="uni0204" unicode="&#x204;" horiz-adv-x="469" 
d="M495 692l-30 -104h-217l-26 -185h190l-14 -102h-190l-28 -197h234l-15 -104h-373l97 692h372zM232 977l61 -191l-77 -32l-85 178zM385 976l53 -189l-77 -28l-78 175z" />
    <glyph glyph-name="Edieresis" unicode="&#xcb;" horiz-adv-x="469" 
d="M495 692l-30 -104h-217l-26 -185h190l-14 -102h-190l-28 -197h234l-15 -104h-373l97 692h372zM174.5 789.5q-17.5 17.5 -17.5 44.5q0 34 23 57t56 23q29 0 46.5 -17t17.5 -45q0 -35 -23 -57.5t-56 -22.5q-29 0 -46.5 17.5zM379.5 789.5q-17.5 17.5 -17.5 44.5q0 34 23 57
t56 23q29 0 46.5 -17.5t17.5 -44.5q0 -34 -23 -57t-56 -23q-29 0 -46.5 17.5z" />
    <glyph glyph-name="Edotaccent" unicode="&#x116;" horiz-adv-x="469" 
d="M495 692l-30 -104h-217l-26 -185h190l-14 -102h-190l-28 -197h234l-15 -104h-373l97 692h372zM272.5 785q-19.5 20 -19.5 51q0 39 25.5 64.5t64.5 25.5q33 0 52.5 -19.5t19.5 -51.5q0 -39 -26 -64.5t-64 -25.5q-33 0 -52.5 20z" />
    <glyph glyph-name="uni1EB8" unicode="&#x1eb8;" horiz-adv-x="469" 
d="M495 692l-30 -104h-217l-26 -185h190l-14 -102h-190l-28 -197h234l-15 -104h-373l97 692h372zM253.5 -85q19.5 -20 19.5 -51q0 -39 -25.5 -64.5t-64.5 -25.5q-33 0 -52.5 19.5t-19.5 51.5q0 39 26 64.5t64 25.5q33 0 52.5 -20z" />
    <glyph glyph-name="Egrave" unicode="&#xc8;" horiz-adv-x="469" 
d="M495 692l-30 -104h-217l-26 -185h190l-14 -102h-190l-28 -197h234l-15 -104h-373l97 692h372zM277 931l178 -116l-39 -65l-197 80z" />
    <glyph glyph-name="uni1EBA" unicode="&#x1eba;" horiz-adv-x="469" 
d="M495 692l-30 -104h-217l-26 -185h190l-14 -102h-190l-28 -197h234l-15 -104h-373l97 692h372zM292 851q35 3 52.5 13.5t17.5 33.5q0 26 -31 26q-25 0 -53 -14l-18 63q43 24 93 24q49 0 76 -25.5t27 -66.5q0 -81 -88 -97l-6 -44h-80z" />
    <glyph glyph-name="uni0206" unicode="&#x206;" horiz-adv-x="469" 
d="M495 692l-30 -104h-217l-26 -185h190l-14 -102h-190l-28 -197h234l-15 -104h-373l97 692h372zM170 784q17 71 62 114t111 43q68 0 102 -45t31 -116l-77 -11q-6 76 -65 76q-31 0 -53.5 -20.5t-35.5 -58.5z" />
    <glyph glyph-name="Emacron" unicode="&#x112;" horiz-adv-x="469" 
d="M495 692l-30 -104h-217l-26 -185h190l-14 -102h-190l-28 -197h234l-15 -104h-373l97 692h372zM457 785h-267l14 96h267z" />
    <glyph glyph-name="Eogonek" unicode="&#x118;" horiz-adv-x="469" 
d="M248 588l-26 -185h190l-14 -102h-190l-28 -197h234l-15 -104h-34q-72 -30 -97.5 -59.5t-25.5 -58.5q0 -34 42 -34q24 0 54 6l-20 -87q-27 -7 -61 -7q-51 0 -83 28t-32 74q0 84 94 138h-210l97 692h372l-30 -104h-217z" />
    <glyph glyph-name="uni0190" unicode="&#x190;" horiz-adv-x="481" 
d="M433 684.5q47 -22.5 84 -68.5l-77 -70q-27 28 -54 42t-59 14q-48 0 -75 -30.5t-27 -78.5q0 -37 22 -56.5t63 -19.5h62l-31 -104h-44q-66 0 -102 -34t-36 -97q0 -90 90 -90q38 0 70.5 15.5t67.5 46.5l66 -75q-91 -94 -225 -94q-97 0 -155.5 50t-58.5 134q0 87 50.5 138.5
t138.5 61.5q-59 13 -88.5 47t-29.5 86q0 60 32 107t86 72.5t117 25.5q66 0 113 -22.5z" />
    <glyph glyph-name="uni018E" unicode="&#x18e;" horiz-adv-x="466" 
d="M93 692h369l-96 -692h-374l15 104h234l28 197h-192l14 102h191l27 185h-230z" />
    <glyph glyph-name="uni01A9" unicode="&#x1a9;" horiz-adv-x="453" 
d="M488 692l-15 -106h-257l126 -218l-7 -63l-179 -198h251l-15 -107h-404l15 105l210 239l-143 243l14 105h404z" />
    <glyph glyph-name="uni0246" unicode="&#x246;" horiz-adv-x="469" 
d="M465 588h-41l-70 -185h58l-14 -102h-83l-76 -197h175l-15 -104h-199l-28 -73l-50 13l23 60h-119l97 692h286l23 61l50 -13l-18 -48h31zM299 403l70 185h-121l-26 -185h77zM185 104l75 197h-52l-28 -197h5z" />
    <glyph glyph-name="uni1EBC" unicode="&#x1ebc;" horiz-adv-x="469" 
d="M495 692l-30 -104h-217l-26 -185h190l-14 -102h-190l-28 -197h234l-15 -104h-373l97 692h372zM347.5 775q-14.5 7 -31.5 20q-12 10 -20.5 14.5t-17.5 4.5q-15 0 -27 -11t-27 -34l-63 36q25 48 57 77.5t67 29.5q20 0 33 -7t32 -21q13 -10 20 -14t16 -4q14 0 25.5 10.5
t26.5 33.5l63 -37q-24 -49 -56 -77t-66 -28q-17 0 -31.5 7z" />
    <glyph glyph-name="uni01B7" unicode="&#x1b7;" horiz-adv-x="484" 
d="M474 589l-190 -188q83 -4 126.5 -47t43.5 -119t-35.5 -132.5t-97 -87t-136.5 -30.5q-74 0 -122 25t-81 75l82 67q27 -32 54 -46t66 -14q56 0 91.5 37.5t35.5 100.5q0 45 -25 64.5t-75 19.5h-89l12 85l185 188h-233l15 105h388z" />
    <glyph glyph-name="uni01EE" unicode="&#x1ee;" horiz-adv-x="484" 
d="M474 589l-190 -188q83 -4 126.5 -47t43.5 -119t-35.5 -132.5t-97 -87t-136.5 -30.5q-74 0 -122 25t-81 75l82 67q27 -32 54 -46t66 -14q56 0 91.5 37.5t35.5 100.5q0 45 -25 64.5t-75 19.5h-89l12 85l185 188h-233l15 105h388zM440 932l48 -57l-144 -124h-82l-110 128
l54 53l107 -84z" />
    <glyph glyph-name="uni01B8" unicode="&#x1b8;" horiz-adv-x="486" 
d="M486 587h-243l143 -190l-12 -83h-84q-63 0 -98 -35.5t-35 -98.5q0 -42 21.5 -65t63.5 -23q41 0 75 15.5t70 47.5l65 -73q-45 -48 -99.5 -72.5t-126.5 -24.5q-100 0 -156.5 52t-56.5 139q0 66 30 116.5t83 79t120 29.5l-147 188l15 103h388z" />
    <glyph glyph-name="F" unicode="F" horiz-adv-x="434" 
d="M485 692l-31 -104h-206l-28 -200h182l-16 -104h-181l-40 -284h-139l97 692h362z" />
    <glyph glyph-name="uni1E1E" unicode="&#x1e1e;" horiz-adv-x="434" 
d="M485 692l-31 -104h-206l-28 -200h182l-16 -104h-181l-40 -284h-139l97 692h362zM265.5 785q-19.5 20 -19.5 51q0 39 25.5 64.5t64.5 25.5q33 0 52.5 -19.5t19.5 -51.5q0 -39 -26 -64.5t-64 -25.5q-33 0 -52.5 20z" />
    <glyph glyph-name="uni0191" unicode="&#x191;" horiz-adv-x="434" 
d="M248 588l-28 -200h182l-16 -104h-181l-40 -284l-7 -48q-13 -84 -64.5 -127.5t-128.5 -43.5q-71 0 -121 42l56 82q16 -10 28.5 -14.5t29.5 -4.5q25 0 41 16t20 46l7 52l97 692h362l-31 -104h-206z" />
    <glyph glyph-name="G" unicode="G" horiz-adv-x="578" 
d="M583 623l-79 -70q-29 26 -55 37.5t-62 11.5q-72 0 -118 -56t-66.5 -141t-20.5 -175q0 -73 25 -106t76 -33t94 26l25 174h-83l1 102h231l-47 -338q-54 -34 -112.5 -52t-117.5 -18q-115 0 -175 66.5t-60 194.5q0 116 38.5 221.5t117.5 172.5t194 67q120 0 194 -84z" />
    <glyph glyph-name="uni01F4" unicode="&#x1f4;" horiz-adv-x="578" 
d="M583 623l-79 -70q-29 26 -55 37.5t-62 11.5q-72 0 -118 -56t-66.5 -141t-20.5 -175q0 -73 25 -106t76 -33t94 26l25 174h-83l1 102h231l-47 -338q-54 -34 -112.5 -52t-117.5 -18q-115 0 -175 66.5t-60 194.5q0 116 38.5 221.5t117.5 172.5t194 67q120 0 194 -84zM487 933
l45 -102l-219 -82l-31 67z" />
    <glyph glyph-name="uni0194" unicode="&#x194;" horiz-adv-x="513" 
d="M302 80q20 -50 29 -85t9 -70q0 -69 -39 -106.5t-109 -37.5q-57 0 -87 29t-30 78q0 43 20.5 87.5t64.5 109.5l-106 607h143l49 -514l189 514h144zM222 8q-42 -70 -42 -109q0 -25 22 -25q33 0 33 49q0 35 -13 85z" />
    <glyph glyph-name="Gbreve" unicode="&#x11e;" horiz-adv-x="578" 
d="M583 623l-79 -70q-29 26 -55 37.5t-62 11.5q-72 0 -118 -56t-66.5 -141t-20.5 -175q0 -73 25 -106t76 -33t94 26l25 174h-83l1 102h231l-47 -338q-54 -34 -112.5 -52t-117.5 -18q-115 0 -175 66.5t-60 194.5q0 116 38.5 221.5t117.5 172.5t194 67q120 0 194 -84z
M289.5 796.5q-34.5 43.5 -30.5 107.5l74 12q7 -66 64 -66q31 0 52.5 18.5t34.5 50.5l75 -19q-14 -65 -58 -106t-110 -41q-67 0 -101.5 43.5z" />
    <glyph glyph-name="Gcaron" unicode="&#x1e6;" horiz-adv-x="578" 
d="M583 623l-79 -70q-29 26 -55 37.5t-62 11.5q-72 0 -118 -56t-66.5 -141t-20.5 -175q0 -73 25 -106t76 -33t94 26l25 174h-83l1 102h231l-47 -338q-54 -34 -112.5 -52t-117.5 -18q-115 0 -175 66.5t-60 194.5q0 116 38.5 221.5t117.5 172.5t194 67q120 0 194 -84zM527 932
l48 -57l-144 -124h-82l-110 128l54 53l107 -84z" />
    <glyph glyph-name="Gcircumflex" unicode="&#x11c;" horiz-adv-x="578" 
d="M583 623l-79 -70q-29 26 -55 37.5t-62 11.5q-72 0 -118 -56t-66.5 -141t-20.5 -175q0 -73 25 -106t76 -33t94 26l25 174h-83l1 102h231l-47 -338q-54 -34 -112.5 -52t-117.5 -18q-115 0 -175 66.5t-60 194.5q0 116 38.5 221.5t117.5 172.5t194 67q120 0 194 -84zM273 757
l-48 56l144 125h82l110 -128l-54 -53l-107 83z" />
    <glyph glyph-name="Gcommaaccent" unicode="&#x122;" horiz-adv-x="578" 
d="M583 623l-79 -70q-29 26 -55 37.5t-62 11.5q-72 0 -118 -56t-66.5 -141t-20.5 -175q0 -73 25 -106t76 -33t94 26l25 174h-83l1 102h231l-47 -338q-54 -34 -112.5 -52t-117.5 -18q-115 0 -175 66.5t-60 194.5q0 116 38.5 221.5t117.5 172.5t194 67q120 0 194 -84z
M308.5 -89q17.5 -18 17.5 -44q0 -21 -7.5 -39.5t-28.5 -53.5l-53 -89h-68l43 117q-25 18 -25 49q0 34 22 56t53 22q29 0 46.5 -18z" />
    <glyph glyph-name="Gdotaccent" unicode="&#x120;" horiz-adv-x="578" 
d="M583 623l-79 -70q-29 26 -55 37.5t-62 11.5q-72 0 -118 -56t-66.5 -141t-20.5 -175q0 -73 25 -106t76 -33t94 26l25 174h-83l1 102h231l-47 -338q-54 -34 -112.5 -52t-117.5 -18q-115 0 -175 66.5t-60 194.5q0 116 38.5 221.5t117.5 172.5t194 67q120 0 194 -84z
M343.5 785q-19.5 20 -19.5 51q0 39 25.5 64.5t64.5 25.5q33 0 52.5 -19.5t19.5 -51.5q0 -39 -26 -64.5t-64 -25.5q-33 0 -52.5 20z" />
    <glyph glyph-name="uni0193" unicode="&#x193;" horiz-adv-x="548" 
d="M755 806l-50 -81q-16 9 -28.5 13.5t-28.5 4.5q-50 0 -57 -65l-7 -55l-72 -64q-30 22 -59.5 32.5t-65.5 10.5q-72 0 -118 -56t-66.5 -141t-20.5 -175q0 -73 25.5 -106t75.5 -33t95 26l24 174h-83l1 102h231l-47 -338q-53 -34 -112 -52t-118 -18q-115 0 -175 66.5
t-60 194.5q0 115 38.5 221t115 173t184.5 67q57 0 96 -21l2 13q10 68 52 107t113 39q66 0 115 -39z" />
    <glyph glyph-name="uni0241" unicode="&#x241;" horiz-adv-x="455" 
d="M144 327l52 16q64 21 96.5 61.5t32.5 106.5q0 44 -19.5 67.5t-58.5 23.5q-33 0 -64 -15t-66 -44l-59 76q47 44 99 66t114 22q92 0 145.5 -50.5t53.5 -137.5q0 -91 -42.5 -147.5t-125.5 -84.5l-25 -9l-39 -278h-139z" />
    <glyph glyph-name="uni01E4" unicode="&#x1e4;" horiz-adv-x="598" 
d="M582 173h-62l-16 -118q-54 -34 -112.5 -52t-117.5 -18q-115 0 -175 66.5t-60 194.5q0 116 38.5 221.5t117.5 172.5t194 67q120 0 194 -84l-80 -71q-28 27 -54 38.5t-62 11.5q-72 0 -118 -56t-66.5 -141t-20.5 -175q0 -73 25 -106t76 -33t99 27l7 55h-86l12 88h86l7 51
h-87v92h230l-19 -143h62z" />
    <glyph glyph-name="uni021C" unicode="&#x21c;" horiz-adv-x="458" 
d="M405.5 662q49.5 -45 49.5 -119q0 -145 -166 -185q65 -5 100.5 -38.5t35.5 -95.5q0 -130 -119 -213.5t-304 -120.5l3 105q133 38 203.5 89.5t70.5 139.5q0 41 -24 60t-76 19h-62l30 104h49q52 0 83.5 33t31.5 88q0 74 -68 74q-33 0 -65.5 -14.5t-70.5 -43.5l-56 75
q51 45 104.5 66.5t113.5 21.5q87 0 136.5 -45z" />
    <glyph glyph-name="H" unicode="H" horiz-adv-x="596" 
d="M165 0h-139l97 692h139l-39 -275h192l39 275h139l-97 -692h-139l42 305h-191z" />
    <glyph glyph-name="Hbar" unicode="&#x126;" horiz-adv-x="607" 
d="M635 587l-12 -84h-51l-71 -503h-139l42 305h-191l-43 -305h-139l71 503h-52l12 84h51l15 105h139l-15 -105h192l15 105h139l-15 -105h52zM420 417l12 86h-192l-12 -86h192z" />
    <glyph glyph-name="uni021E" unicode="&#x21e;" horiz-adv-x="596" 
d="M165 0h-139l97 692h139l-39 -275h192l39 275h139l-97 -692h-139l42 305h-191zM503 932l48 -57l-144 -124h-82l-110 128l54 53l107 -84z" />
    <glyph glyph-name="Hcircumflex" unicode="&#x124;" horiz-adv-x="596" 
d="M165 0h-139l97 692h139l-39 -275h192l39 275h139l-97 -692h-139l42 305h-191zM249 757l-48 56l144 125h82l110 -128l-54 -53l-107 83z" />
    <glyph glyph-name="uni1E24" unicode="&#x1e24;" horiz-adv-x="596" 
d="M165 0h-139l97 692h139l-39 -275h192l39 275h139l-97 -692h-139l42 305h-191zM303.5 -85q19.5 -20 19.5 -51q0 -39 -25.5 -64.5t-64.5 -25.5q-33 0 -52.5 19.5t-19.5 51.5q0 39 26 64.5t64 25.5q33 0 52.5 -20z" />
    <glyph glyph-name="uniA7AA" unicode="&#xa7aa;" horiz-adv-x="717" 
d="M714 692l-97 -692h-139l42 305h-191l-43 -305h-139l83 589h-25q-25 0 -38 -15.5t-13 -44.5q0 -23 9 -55l-95 -37q-23 52 -23 96q0 73 45.5 116t124.5 43h168l-39 -275h192l39 275h139z" />
    <glyph glyph-name="uniA78D" unicode="&#xa78d;" horiz-adv-x="554" 
d="M551 692l-97 -692h-139l37 261q-36 -28 -70.5 -40.5t-75.5 -12.5q-77 0 -120 47.5t-43 126.5q0 21 3 42l38 268h137l-37 -269q-2 -11 -2 -30q0 -77 74 -77q61 0 110 47l46 329h139z" />
    <glyph glyph-name="uni01F6" unicode="&#x1f6;" horiz-adv-x="850" 
d="M421.5 30q-43.5 45 -43.5 111q0 8 2 24l19 140h-191l-43 -305h-139l97 692h139l-39 -275h192l39 275h139l-74 -528q-2 -16 -2 -23q0 -54 46 -54q71 0 98 107.5t27 238.5q0 52 -3 97h127q6 -51 6 -107q0 -202 -59 -320t-209 -118q-85 0 -128.5 45z" />
    <glyph glyph-name="I" unicode="I" horiz-adv-x="265" 
d="M262 692l-97 -692h-139l97 692h139z" />
    <glyph glyph-name="IJ" unicode="&#x132;" horiz-adv-x="549" 
d="M262 692l-97 -692h-139l97 692h139zM466 98q-11 -79 -43.5 -129.5t-77.5 -78.5t-109 -49l-26 99q42 18 65 40t34.5 51.5t18.5 76.5l82 584h139z" />
    <glyph glyph-name="Iacute" unicode="&#xcd;" horiz-adv-x="265" 
d="M262 692l-97 -692h-139l97 692h139zM298 933l45 -102l-219 -82l-31 67z" />
    <glyph glyph-name="Ibreve" unicode="&#x12c;" horiz-adv-x="265" 
d="M262 692l-97 -692h-139l97 692h139zM100.5 796.5q-34.5 43.5 -30.5 107.5l74 12q7 -66 64 -66q31 0 52.5 18.5t34.5 50.5l75 -19q-14 -65 -58 -106t-110 -41q-67 0 -101.5 43.5z" />
    <glyph glyph-name="uni01CF" unicode="&#x1cf;" horiz-adv-x="265" 
d="M262 692l-97 -692h-139l97 692h139zM338 932l48 -57l-144 -124h-82l-110 128l54 53l107 -84z" />
    <glyph glyph-name="Icircumflex" unicode="&#xce;" horiz-adv-x="265" 
d="M262 692l-97 -692h-139l97 692h139zM84 757l-48 56l144 125h82l110 -128l-54 -53l-107 83z" />
    <glyph glyph-name="uni0208" unicode="&#x208;" horiz-adv-x="265" 
d="M262 692l-97 -692h-139l97 692h139zM114 977l61 -191l-77 -32l-85 178zM267 976l53 -189l-77 -28l-78 175z" />
    <glyph glyph-name="Idieresis" unicode="&#xcf;" horiz-adv-x="265" 
d="M262 692l-97 -692h-139l97 692h139zM56.5 789.5q-17.5 17.5 -17.5 44.5q0 34 23 57t56 23q29 0 46.5 -17t17.5 -45q0 -35 -23 -57.5t-56 -22.5q-29 0 -46.5 17.5zM261.5 789.5q-17.5 17.5 -17.5 44.5q0 34 23 57t56 23q29 0 46.5 -17.5t17.5 -44.5q0 -34 -23 -57t-56 -23
q-29 0 -46.5 17.5z" />
    <glyph glyph-name="uni1E2E" unicode="&#x1e2e;" horiz-adv-x="265" 
d="M262 692l-97 -692h-139l97 692h139zM307 1069l67 -71l-158 -139l-48 45zM48.5 765.5q-17.5 17.5 -17.5 45.5q0 34 23.5 56.5t56.5 22.5q29 0 46.5 -17.5t17.5 -44.5q0 -34 -23.5 -57t-56.5 -23q-29 0 -46.5 17.5zM262 765.5q-17 17.5 -17 45.5q0 34 23 56.5t56 22.5
q29 0 46.5 -17.5t17.5 -44.5q0 -34 -23.5 -57t-56.5 -23q-29 0 -46 17.5z" />
    <glyph glyph-name="Idotaccent" unicode="&#x130;" horiz-adv-x="265" 
d="M262 692l-97 -692h-139l97 692h139zM154.5 785q-19.5 20 -19.5 51q0 39 25.5 64.5t64.5 25.5q33 0 52.5 -19.5t19.5 -51.5q0 -39 -26 -64.5t-64 -25.5q-33 0 -52.5 20z" />
    <glyph glyph-name="uni1ECA" unicode="&#x1eca;" horiz-adv-x="265" 
d="M262 692l-97 -692h-139l97 692h139zM135.5 -85q19.5 -20 19.5 -51q0 -39 -25.5 -64.5t-64.5 -25.5q-33 0 -52.5 19.5t-19.5 51.5q0 39 26 64.5t64 25.5q33 0 52.5 -20z" />
    <glyph glyph-name="Igrave" unicode="&#xcc;" horiz-adv-x="265" 
d="M262 692l-97 -692h-139l97 692h139zM159 931l178 -116l-39 -65l-197 80z" />
    <glyph glyph-name="uni1EC8" unicode="&#x1ec8;" horiz-adv-x="265" 
d="M262 692l-97 -692h-139l97 692h139zM174 851q35 3 52.5 13.5t17.5 33.5q0 26 -31 26q-25 0 -53 -14l-18 63q43 24 93 24q49 0 76 -25.5t27 -66.5q0 -81 -88 -97l-6 -44h-80z" />
    <glyph glyph-name="uni020A" unicode="&#x20a;" horiz-adv-x="265" 
d="M262 692l-97 -692h-139l97 692h139zM52 784q17 71 62 114t111 43q68 0 102 -45t31 -116l-77 -11q-6 76 -65 76q-31 0 -53.5 -20.5t-35.5 -58.5z" />
    <glyph glyph-name="Imacron" unicode="&#x12a;" horiz-adv-x="265" 
d="M262 692l-97 -692h-139l97 692h139zM339 785h-267l14 96h267z" />
    <glyph glyph-name="Iogonek" unicode="&#x12e;" horiz-adv-x="265" 
d="M262 692l-97 -692h-31q-72 -30 -97.5 -59.5t-25.5 -58.5q0 -34 42 -34q24 0 54 6l-20 -87q-27 -7 -61 -7q-51 0 -83 28t-32 74q0 94 117 150l95 680h139z" />
    <glyph glyph-name="uni0196" unicode="&#x196;" horiz-adv-x="342" 
d="M316 24q-56 -40 -127 -40q-72 0 -112 36.5t-40 105.5q0 21 2 33l6 44h-1l70 489h139l-69 -489l-7 -56q-1 -5 -1 -15q0 -43 39 -43q18 0 30.5 4t34.5 15z" />
    <glyph glyph-name="uni0197" unicode="&#x197;" horiz-adv-x="295" 
d="M308 412l-14 -105h-69l-43 -307h-139l43 307h-72l15 105h72l39 280h139l-39 -280h68z" />
    <glyph glyph-name="Itilde" unicode="&#x128;" horiz-adv-x="265" 
d="M262 692l-97 -692h-139l97 692h139zM229.5 775q-14.5 7 -31.5 20q-12 10 -20.5 14.5t-17.5 4.5q-15 0 -27 -11t-27 -34l-63 36q25 48 57 77.5t67 29.5q20 0 33 -7t32 -21q13 -10 20 -14t16 -4q14 0 25.5 10.5t26.5 33.5l63 -37q-24 -49 -56 -77t-66 -28q-17 0 -31.5 7z
" />
    <glyph glyph-name="J" unicode="J" horiz-adv-x="284" 
d="M201 98q-11 -79 -43.5 -129.5t-77.5 -78.5t-109 -49l-26 99q42 18 65 40t34.5 51.5t18.5 76.5l82 584h139z" />
    <glyph glyph-name="Jcircumflex" unicode="&#x134;" horiz-adv-x="284" 
d="M201 98q-11 -79 -43.5 -129.5t-77.5 -78.5t-109 -49l-26 99q42 18 65 40t34.5 51.5t18.5 76.5l82 584h139zM105 757l-48 56l144 125h82l110 -128l-54 -53l-107 83z" />
    <glyph glyph-name="uniA7B2" unicode="&#xa7b2;" horiz-adv-x="324" 
d="M224 -9q44 -14 85 -39l-33 -58q-32 17 -67 27q-22 -70 -70.5 -105t-128.5 -35q-62 0 -96.5 29t-34.5 80q0 60 43.5 94.5t109.5 34.5q37 0 56 -3l95 676h139zM53.5 -121.5q16.5 21.5 24.5 67.5q-19 3 -48 3q-30 0 -46 -15t-16 -39q0 -38 38 -38q31 0 47.5 21.5z" />
    <glyph glyph-name="uni0248" unicode="&#x248;" horiz-adv-x="299" 
d="M298 289h-69l-27 -191q-11 -79 -43.5 -129.5t-77.5 -78.5t-109 -49l-26 99q42 18 65 40t34.5 51.5t18.5 76.5l25 181h-71l15 108h72l41 295h139l-41 -295h68z" />
    <glyph glyph-name="K" unicode="K" horiz-adv-x="564" 
d="M26 0l97 692h139l-97 -692h-139zM376 0l-154 369l244 323h147l-247 -322l166 -370h-156z" />
    <glyph glyph-name="uni01E8" unicode="&#x1e8;" horiz-adv-x="564" 
d="M26 0l97 692h139l-97 -692h-139zM376 0l-154 369l244 323h147l-247 -322l166 -370h-156zM499 932l48 -57l-144 -124h-82l-110 128l54 53l107 -84z" />
    <glyph glyph-name="Kcommaaccent" unicode="&#x136;" horiz-adv-x="564" 
d="M26 0l97 692h139l-97 -692h-139zM376 0l-154 369l244 323h147l-247 -322l166 -370h-156zM289.5 -89q17.5 -18 17.5 -44q0 -21 -7.5 -39.5t-28.5 -53.5l-53 -89h-68l43 117q-25 18 -25 49q0 34 22 56t53 22q29 0 46.5 -18z" />
    <glyph glyph-name="uni0198" unicode="&#x198;" horiz-adv-x="586" 
d="M222 369l168 239q37 55 72 77t86 22q33 0 57 -10t43 -29l-53 -77q-16 12 -36 12q-17 0 -30 -9.5t-33 -35.5l-129 -187l165 -371h-156zM26 0l97 692h139l-97 -692h-139z" />
    <glyph glyph-name="L" unicode="L" horiz-adv-x="452" 
d="M262 692l-81 -578h242l-32 -114h-365l97 692h139z" />
    <glyph glyph-name="uni01C7" unicode="&#x1c7;" horiz-adv-x="714" 
d="M262 692l-81 -578h242l-32 -114h-365l97 692h139zM631 98q-11 -79 -43.5 -129.5t-77.5 -78.5t-109 -49l-26 99q42 18 65 40t34.5 51.5t18.5 76.5l82 584h139z" />
    <glyph glyph-name="Lacute" unicode="&#x139;" horiz-adv-x="452" 
d="M262 692l-81 -578h242l-32 -114h-365l97 692h139zM298 933l45 -102l-219 -82l-31 67z" />
    <glyph glyph-name="uni023D" unicode="&#x23d;" horiz-adv-x="464" 
d="M193 114h242l-32 -114h-365l43 309h-67l15 108h67l39 275h139l-39 -275h73l-14 -108h-74z" />
    <glyph glyph-name="uniA7AD" unicode="&#xa7ad;" horiz-adv-x="539" 
d="M510 114l-32 -114h-365l36 255q-65 2 -98 32t-33 81q0 57 36 90.5t92 33.5q23 0 35 -4l29 204h139l-49 -353q34 2 96 11l3 -78q-58 -12 -111 -14l-20 -144h242zM171 414q-9 3 -22 3q-17 0 -27.5 -11.5t-10.5 -31.5q0 -37 49 -37z" />
    <glyph glyph-name="Lcaron" unicode="&#x13d;" horiz-adv-x="452" 
d="M262 692l-81 -578h242l-32 -114h-365l97 692h139zM317 704l101 -13l-71 -204l-69 8z" />
    <glyph glyph-name="uni1E3C" unicode="&#x1e3c;" horiz-adv-x="452" 
d="M262 692l-81 -578h242l-32 -114h-365l97 692h139zM60 -251l-46 57l144 129h82l109 -132l-56 -54l-104 89z" />
    <glyph glyph-name="Lcommaaccent" unicode="&#x13b;" horiz-adv-x="452" 
d="M262 692l-81 -578h242l-32 -114h-365l97 692h139zM246.5 -89q17.5 -18 17.5 -44q0 -21 -7.5 -39.5t-28.5 -53.5l-53 -89h-68l43 117q-25 18 -25 49q0 34 22 56t53 22q29 0 46.5 -18z" />
    <glyph glyph-name="Ldot" unicode="&#x13f;" horiz-adv-x="452" 
d="M262 692l-81 -578h242l-32 -114h-365l97 692h139zM310.5 333q-19.5 20 -19.5 51q0 39 25.5 64.5t64.5 25.5q33 0 52.5 -19.5t19.5 -51.5q0 -39 -26 -64.5t-64 -25.5q-33 0 -52.5 20z" />
    <glyph glyph-name="uni1E36" unicode="&#x1e36;" horiz-adv-x="452" 
d="M262 692l-81 -578h242l-32 -114h-365l97 692h139zM249.5 -85q19.5 -20 19.5 -51q0 -39 -25.5 -64.5t-64.5 -25.5q-33 0 -52.5 19.5t-19.5 51.5q0 39 26 64.5t64 25.5q33 0 52.5 -20z" />
    <glyph glyph-name="uni01C8" unicode="&#x1c8;" horiz-adv-x="690" 
d="M262 692l-81 -578h242l-32 -114h-365l97 692h139zM346 -120q38 17 61 35t37.5 48.5t21.5 81.5l68 485h134l-68 -484q-11 -81 -40.5 -131t-72 -78.5t-108.5 -55.5zM565.5 659q-19.5 20 -19.5 51q0 39 25.5 64.5t64.5 25.5q33 0 52.5 -19.5t19.5 -51.5q0 -39 -26 -64.5
t-64 -25.5q-33 0 -52.5 20z" />
    <glyph glyph-name="Lslash" unicode="&#x141;" horiz-adv-x="482" 
d="M211 114h242l-32 -114h-365l33 235l-1 -1l-41 -27l-37 74l94 58l49 353h139l-36 -259l127 79l38 -73l-180 -111z" />
    <glyph glyph-name="M" unicode="M" horiz-adv-x="710" 
d="M634 0h-135l26 283q12 138 36 292l-166 -500h-135l-37 499q-10 -142 -38 -295l-49 -279h-135l144 692h170l30 -488l156 488h183z" />
    <glyph glyph-name="uni1E3E" unicode="&#x1e3e;" horiz-adv-x="710" 
d="M634 0h-135l26 283q12 138 36 292l-166 -500h-135l-37 499q-10 -142 -38 -295l-49 -279h-135l144 692h170l30 -488l156 488h183zM513 933l45 -102l-219 -82l-31 67z" />
    <glyph glyph-name="uni1E40" unicode="&#x1e40;" horiz-adv-x="710" 
d="M634 0h-135l26 283q12 138 36 292l-166 -500h-135l-37 499q-10 -142 -38 -295l-49 -279h-135l144 692h170l30 -488l156 488h183zM369.5 785q-19.5 20 -19.5 51q0 39 25.5 64.5t64.5 25.5q33 0 52.5 -19.5t19.5 -51.5q0 -39 -26 -64.5t-64 -25.5q-33 0 -52.5 20z" />
    <glyph glyph-name="uni019C" unicode="&#x19c;" horiz-adv-x="817" 
d="M814 692l-97 -692h-122l-1 66q-35 -42 -70.5 -61.5t-76.5 -19.5q-46 0 -77 23.5t-44 65.5q-70 -89 -159 -89q-62 0 -96 41t-34 106q0 18 3 36l74 524h139l-74 -522q-1 -7 -1 -20q0 -28 11 -43t32 -15q26 0 49 17.5t50 55.5l1 7l73 520h139l-72 -519q-2 -18 -2 -24
q0 -27 11 -42t32 -15q27 0 50 18t49 58l74 524h139z" />
    <glyph glyph-name="N" unicode="N" horiz-adv-x="595" 
d="M494 0h-174l-116 574v-42q0 -131 -17 -263l-37 -269h-124l97 692h173l117 -574v58q0 113 13 211l42 305h123z" />
    <glyph glyph-name="uni01CA" unicode="&#x1ca;" horiz-adv-x="879" 
d="M494 0h-174l-116 574v-42q0 -131 -17 -263l-37 -269h-124l97 692h173l117 -574v58q0 113 13 211l42 305h123zM796 98q-11 -79 -43.5 -129.5t-77.5 -78.5t-109 -49l-26 99q42 18 65 40t34.5 51.5t18.5 76.5l82 584h139z" />
    <glyph glyph-name="Nacute" unicode="&#x143;" horiz-adv-x="595" 
d="M494 0h-174l-116 574v-42q0 -131 -17 -263l-37 -269h-124l97 692h173l117 -574v58q0 113 13 211l42 305h123zM467 933l45 -102l-219 -82l-31 67z" />
    <glyph glyph-name="Ncaron" unicode="&#x147;" horiz-adv-x="595" 
d="M494 0h-174l-116 574v-42q0 -131 -17 -263l-37 -269h-124l97 692h173l117 -574v58q0 113 13 211l42 305h123zM507 932l48 -57l-144 -124h-82l-110 128l54 53l107 -84z" />
    <glyph glyph-name="uni1E4A" unicode="&#x1e4a;" horiz-adv-x="595" 
d="M494 0h-174l-116 574v-42q0 -131 -17 -263l-37 -269h-124l97 692h173l117 -574v58q0 113 13 211l42 305h123zM112 -251l-46 57l144 129h82l109 -132l-56 -54l-104 89z" />
    <glyph glyph-name="Ncommaaccent" unicode="&#x145;" horiz-adv-x="595" 
d="M494 0h-174l-116 574v-42q0 -131 -17 -263l-37 -269h-124l97 692h173l117 -574v58q0 113 13 211l42 305h123zM298.5 -89q17.5 -18 17.5 -44q0 -21 -7.5 -39.5t-28.5 -53.5l-53 -89h-68l43 117q-25 18 -25 49q0 34 22 56t53 22q29 0 46.5 -18z" />
    <glyph glyph-name="uni1E44" unicode="&#x1e44;" horiz-adv-x="595" 
d="M494 0h-174l-116 574v-42q0 -131 -17 -263l-37 -269h-124l97 692h173l117 -574v58q0 113 13 211l42 305h123zM323.5 785q-19.5 20 -19.5 51q0 39 25.5 64.5t64.5 25.5q33 0 52.5 -19.5t19.5 -51.5q0 -39 -26 -64.5t-64 -25.5q-33 0 -52.5 20z" />
    <glyph glyph-name="uni1E46" unicode="&#x1e46;" horiz-adv-x="595" 
d="M494 0h-174l-116 574v-42q0 -131 -17 -263l-37 -269h-124l97 692h173l117 -574v58q0 113 13 211l42 305h123zM301.5 -85q19.5 -20 19.5 -51q0 -39 -25.5 -64.5t-64.5 -25.5q-33 0 -52.5 19.5t-19.5 51.5q0 39 26 64.5t64 25.5q33 0 52.5 -20z" />
    <glyph glyph-name="uni01F8" unicode="&#x1f8;" horiz-adv-x="595" 
d="M494 0h-174l-116 574v-42q0 -131 -17 -263l-37 -269h-124l97 692h173l117 -574v58q0 113 13 211l42 305h123zM328 931l178 -116l-39 -65l-197 80z" />
    <glyph glyph-name="Eng" unicode="&#x14a;" horiz-adv-x="595" 
d="M591 692l-97 -692l-7 -48q-13 -84 -64.5 -127.5t-128.5 -43.5q-71 0 -121 42l56 82q16 -10 28.5 -14.5t29.5 -4.5q25 0 41 16t20 46l7 52h-35l-116 574v-42q0 -131 -17 -263l-37 -269h-124l97 692h173l117 -574v58q0 113 13 211l42 305h123z" />
    <glyph glyph-name="uni019D" unicode="&#x19d;" horiz-adv-x="595" 
d="M591 692l-97 -692h-174l-116 574v-42q0 -131 -17 -263l-37 -269l-8 -52q-12 -82 -59 -124.5t-120 -42.5q-70 0 -119 43l56 77q17 -10 29 -14.5t29 -4.5q25 0 41 16.5t20 49.5l7 52l97 692h173l117 -574v58q0 113 13 211l42 305h123z" />
    <glyph glyph-name="uni01CB" unicode="&#x1cb;" horiz-adv-x="848" 
d="M494 0h-174l-116 574v-42q0 -131 -17 -263l-37 -269h-124l97 692h173l117 -574v58q0 113 13 211l42 305h123zM504 -120q38 17 61 35t37.5 48.5t21.5 81.5l68 485h134l-68 -484q-11 -81 -40.5 -131t-72 -78.5t-108.5 -55.5zM723.5 659q-19.5 20 -19.5 51q0 39 25.5 64.5
t64.5 25.5q33 0 52.5 -19.5t19.5 -51.5q0 -39 -26 -64.5t-64 -25.5q-33 0 -52.5 20z" />
    <glyph glyph-name="uni0220" unicode="&#x220;" horiz-adv-x="586" 
d="M528 665.5q37 -41.5 37 -107.5q0 -22 -2 -34l-101 -732h-139l100 721q2 18 2 25q0 62 -56 62q-32 0 -62.5 -17.5t-66.5 -51.5l-75 -531h-139l97 692h121l1 -62q41 38 83.5 57.5t91.5 19.5q71 0 108 -41.5z" />
    <glyph glyph-name="Ntilde" unicode="&#xd1;" horiz-adv-x="595" 
d="M494 0h-174l-116 574v-42q0 -131 -17 -263l-37 -269h-124l97 692h173l117 -574v58q0 113 13 211l42 305h123zM398.5 775q-14.5 7 -31.5 20q-12 10 -20.5 14.5t-17.5 4.5q-15 0 -27 -11t-27 -34l-63 36q25 48 57 77.5t67 29.5q20 0 33 -7t32 -21q13 -10 20 -14t16 -4
q14 0 25.5 10.5t26.5 33.5l63 -37q-24 -49 -56 -77t-66 -28q-17 0 -31.5 7z" />
    <glyph glyph-name="O" unicode="O" horiz-adv-x="624" 
d="M545.5 638q60.5 -69 60.5 -199q0 -111 -34 -215t-109 -172t-190 -68q-111 0 -172 69.5t-61 198.5q0 110 34.5 214t109.5 172.5t190 68.5q111 0 171.5 -69zM257.5 541q-40.5 -60 -57.5 -143.5t-17 -161.5q0 -76 25 -110.5t74 -34.5q66 0 107 59.5t57.5 143t16.5 162.5
q0 76 -24.5 110.5t-74.5 34.5q-66 0 -106.5 -60z" />
    <glyph glyph-name="uni0222" unicode="&#x222;" horiz-adv-x="585" 
d="M442 392q49 -21 75.5 -59t26.5 -91q0 -73 -36 -131.5t-101.5 -92t-149.5 -33.5q-72 0 -124.5 26t-79.5 71t-27 102q0 75 40.5 128.5t111.5 79.5q-70 33 -70 116q0 9 2 31l21 153h139l-23 -161q-2 -20 -2 -27q0 -34 17 -50t53 -16q85 0 97 98l22 156h140l-22 -157
q-15 -103 -110 -143zM363 130.5q35 39.5 35 107.5q0 46 -23.5 71.5t-70.5 25.5q-60 0 -96 -40.5t-36 -107.5q0 -96 95 -96q61 0 96 39.5z" />
    <glyph glyph-name="Oacute" unicode="&#xd3;" horiz-adv-x="624" 
d="M545.5 638q60.5 -69 60.5 -199q0 -111 -34 -215t-109 -172t-190 -68q-111 0 -172 69.5t-61 198.5q0 110 34.5 214t109.5 172.5t190 68.5q111 0 171.5 -69zM257.5 541q-40.5 -60 -57.5 -143.5t-17 -161.5q0 -76 25 -110.5t74 -34.5q66 0 107 59.5t57.5 143t16.5 162.5
q0 76 -24.5 110.5t-74.5 34.5q-66 0 -106.5 -60zM479 933l45 -102l-219 -82l-31 67z" />
    <glyph glyph-name="Obreve" unicode="&#x14e;" horiz-adv-x="624" 
d="M545.5 638q60.5 -69 60.5 -199q0 -111 -34 -215t-109 -172t-190 -68q-111 0 -172 69.5t-61 198.5q0 110 34.5 214t109.5 172.5t190 68.5q111 0 171.5 -69zM257.5 541q-40.5 -60 -57.5 -143.5t-17 -161.5q0 -76 25 -110.5t74 -34.5q66 0 107 59.5t57.5 143t16.5 162.5
q0 76 -24.5 110.5t-74.5 34.5q-66 0 -106.5 -60zM281.5 796.5q-34.5 43.5 -30.5 107.5l74 12q7 -66 64 -66q31 0 52.5 18.5t34.5 50.5l75 -19q-14 -65 -58 -106t-110 -41q-67 0 -101.5 43.5z" />
    <glyph glyph-name="uni01D1" unicode="&#x1d1;" horiz-adv-x="624" 
d="M545.5 638q60.5 -69 60.5 -199q0 -111 -34 -215t-109 -172t-190 -68q-111 0 -172 69.5t-61 198.5q0 110 34.5 214t109.5 172.5t190 68.5q111 0 171.5 -69zM257.5 541q-40.5 -60 -57.5 -143.5t-17 -161.5q0 -76 25 -110.5t74 -34.5q66 0 107 59.5t57.5 143t16.5 162.5
q0 76 -24.5 110.5t-74.5 34.5q-66 0 -106.5 -60zM519 932l48 -57l-144 -124h-82l-110 128l54 53l107 -84z" />
    <glyph glyph-name="uni019F" unicode="&#x19f;" horiz-adv-x="624" 
d="M545.5 638q60.5 -69 60.5 -199q0 -111 -34 -215t-109 -172t-190 -68q-111 0 -172 69.5t-61 198.5q0 110 34 214t109.5 172.5t190.5 68.5q111 0 171.5 -69zM255 545q-42 -59 -62 -151h274q2 44 2 61q0 78 -25.5 113.5t-77.5 35.5q-69 0 -111 -59zM394 150.5
q43 62.5 61 157.5h-275q-3 -37 -3 -71q0 -78 25.5 -113.5t77.5 -35.5q71 0 114 62.5z" />
    <glyph glyph-name="Ocircumflex" unicode="&#xd4;" horiz-adv-x="624" 
d="M545.5 638q60.5 -69 60.5 -199q0 -111 -34 -215t-109 -172t-190 -68q-111 0 -172 69.5t-61 198.5q0 110 34.5 214t109.5 172.5t190 68.5q111 0 171.5 -69zM257.5 541q-40.5 -60 -57.5 -143.5t-17 -161.5q0 -76 25 -110.5t74 -34.5q66 0 107 59.5t57.5 143t16.5 162.5
q0 76 -24.5 110.5t-74.5 34.5q-66 0 -106.5 -60zM265 757l-48 56l144 125h82l110 -128l-54 -53l-107 83z" />
    <glyph glyph-name="uni1ED0" unicode="&#x1ed0;" horiz-adv-x="624" 
d="M620 1069l67 -71l-158 -139l-48 45zM261 721l-48 56l144 125h82l110 -128l-54 -53l-107 83zM545.5 638q60.5 -69 60.5 -199q0 -111 -34 -215t-109 -172t-190 -68q-111 0 -172 69.5t-61 198.5q0 110 34.5 214t109.5 172.5t190 68.5q111 0 171.5 -69zM257.5 541
q-40.5 -60 -57.5 -143.5t-17 -161.5q0 -76 25 -110.5t74 -34.5q66 0 107 59.5t57.5 143t16.5 162.5q0 76 -24.5 110.5t-74.5 34.5q-66 0 -106.5 -60z" />
    <glyph glyph-name="uni1ED8" unicode="&#x1ed8;" horiz-adv-x="624" 
d="M545.5 638q60.5 -69 60.5 -199q0 -111 -34 -215t-109 -172t-190 -68q-111 0 -172 69.5t-61 198.5q0 110 34.5 214t109.5 172.5t190 68.5q111 0 171.5 -69zM257.5 541q-40.5 -60 -57.5 -143.5t-17 -161.5q0 -76 25 -110.5t74 -34.5q66 0 107 59.5t57.5 143t16.5 162.5
q0 76 -24.5 110.5t-74.5 34.5q-66 0 -106.5 -60zM265 757l-48 56l144 125h82l110 -128l-54 -53l-107 83zM313.5 -85q19.5 -20 19.5 -51q0 -39 -25.5 -64.5t-64.5 -25.5q-33 0 -52.5 19.5t-19.5 51.5q0 39 26 64.5t64 25.5q33 0 52.5 -20z" />
    <glyph glyph-name="uni1ED2" unicode="&#x1ed2;" horiz-adv-x="624" 
d="M215 1067l93 -167l-56 -41l-120 144zM259 721l-48 56l144 125h82l110 -128l-54 -53l-107 83zM545.5 638q60.5 -69 60.5 -199q0 -111 -34 -215t-109 -172t-190 -68q-111 0 -172 69.5t-61 198.5q0 110 34.5 214t109.5 172.5t190 68.5q111 0 171.5 -69zM257.5 541
q-40.5 -60 -57.5 -143.5t-17 -161.5q0 -76 25 -110.5t74 -34.5q66 0 107 59.5t57.5 143t16.5 162.5q0 76 -24.5 110.5t-74.5 34.5q-66 0 -106.5 -60z" />
    <glyph glyph-name="uni1ED4" unicode="&#x1ed4;" horiz-adv-x="624" 
d="M545.5 638q60.5 -69 60.5 -199q0 -111 -34 -215t-109 -172t-190 -68q-111 0 -172 69.5t-61 198.5q0 110 34.5 214t109.5 172.5t190 68.5q111 0 171.5 -69zM257.5 541q-40.5 -60 -57.5 -143.5t-17 -161.5q0 -76 25 -110.5t74 -34.5q66 0 107 59.5t57.5 143t16.5 162.5
q0 76 -24.5 110.5t-74.5 34.5q-66 0 -106.5 -60zM259 721l-48 56l144 125h82l110 -128l-54 -53l-107 83zM509 931q35 3 52.5 13.5t17.5 33.5q0 26 -31 26q-25 0 -53 -14l-18 63q43 24 93 24q49 0 76 -25.5t27 -66.5q0 -81 -88 -97l-6 -44h-80z" />
    <glyph glyph-name="uni1ED6" unicode="&#x1ed6;" horiz-adv-x="624" 
d="M429.5 935.5q-13.5 6.5 -31.5 19.5q-9 7 -19 12.5t-19 5.5q-15 0 -27 -10.5t-26 -32.5l-63 35q25 46 56.5 74t66.5 28q20 0 33.5 -6.5t30.5 -19.5q22 -18 36 -18t25.5 10t26.5 32l62 -35q-24 -47 -55.5 -74t-65.5 -27q-17 0 -30.5 6.5zM260 721l-48 56l144 125h82
l110 -128l-54 -53l-107 83zM545.5 638q60.5 -69 60.5 -199q0 -111 -34 -215t-109 -172t-190 -68q-111 0 -172 69.5t-61 198.5q0 110 34.5 214t109.5 172.5t190 68.5q111 0 171.5 -69zM257.5 541q-40.5 -60 -57.5 -143.5t-17 -161.5q0 -76 25 -110.5t74 -34.5q66 0 107 59.5
t57.5 143t16.5 162.5q0 76 -24.5 110.5t-74.5 34.5q-66 0 -106.5 -60z" />
    <glyph glyph-name="uni020C" unicode="&#x20c;" horiz-adv-x="624" 
d="M545.5 638q60.5 -69 60.5 -199q0 -111 -34 -215t-109 -172t-190 -68q-111 0 -172 69.5t-61 198.5q0 110 34.5 214t109.5 172.5t190 68.5q111 0 171.5 -69zM257.5 541q-40.5 -60 -57.5 -143.5t-17 -161.5q0 -76 25 -110.5t74 -34.5q66 0 107 59.5t57.5 143t16.5 162.5
q0 76 -24.5 110.5t-74.5 34.5q-66 0 -106.5 -60zM295 977l61 -191l-77 -32l-85 178zM448 976l53 -189l-77 -28l-78 175z" />
    <glyph glyph-name="Odieresis" unicode="&#xd6;" horiz-adv-x="624" 
d="M545.5 638q60.5 -69 60.5 -199q0 -111 -34 -215t-109 -172t-190 -68q-111 0 -172 69.5t-61 198.5q0 110 34.5 214t109.5 172.5t190 68.5q111 0 171.5 -69zM257.5 541q-40.5 -60 -57.5 -143.5t-17 -161.5q0 -76 25 -110.5t74 -34.5q66 0 107 59.5t57.5 143t16.5 162.5
q0 76 -24.5 110.5t-74.5 34.5q-66 0 -106.5 -60zM237.5 789.5q-17.5 17.5 -17.5 44.5q0 34 23 57t56 23q29 0 46.5 -17t17.5 -45q0 -35 -23 -57.5t-56 -22.5q-29 0 -46.5 17.5zM442.5 789.5q-17.5 17.5 -17.5 44.5q0 34 23 57t56 23q29 0 46.5 -17.5t17.5 -44.5
q0 -34 -23 -57t-56 -23q-29 0 -46.5 17.5z" />
    <glyph glyph-name="uni022A" unicode="&#x22a;" horiz-adv-x="624" 
d="M545.5 638q60.5 -69 60.5 -199q0 -111 -34 -215t-109 -172t-190 -68q-111 0 -172 69.5t-61 198.5q0 110 34.5 214t109.5 172.5t190 68.5q111 0 171.5 -69zM257.5 541q-40.5 -60 -57.5 -143.5t-17 -161.5q0 -76 25 -110.5t74 -34.5q66 0 107 59.5t57.5 143t16.5 162.5
q0 76 -24.5 110.5t-74.5 34.5q-66 0 -106.5 -60zM230.5 763.5q-17.5 17.5 -17.5 44.5q0 34 23 57t56 23q29 0 46.5 -17t17.5 -45q0 -35 -23 -57.5t-56 -22.5q-29 0 -46.5 17.5zM435.5 763.5q-17.5 17.5 -17.5 44.5q0 34 23 57t56 23q29 0 46.5 -17.5t17.5 -44.5
q0 -34 -23 -57t-56 -23q-29 0 -46.5 17.5zM533 930h-267l14 96h267z" />
    <glyph glyph-name="uni022E" unicode="&#x22e;" horiz-adv-x="624" 
d="M545.5 638q60.5 -69 60.5 -199q0 -111 -34 -215t-109 -172t-190 -68q-111 0 -172 69.5t-61 198.5q0 110 34.5 214t109.5 172.5t190 68.5q111 0 171.5 -69zM257.5 541q-40.5 -60 -57.5 -143.5t-17 -161.5q0 -76 25 -110.5t74 -34.5q66 0 107 59.5t57.5 143t16.5 162.5
q0 76 -24.5 110.5t-74.5 34.5q-66 0 -106.5 -60zM335.5 785q-19.5 20 -19.5 51q0 39 25.5 64.5t64.5 25.5q33 0 52.5 -19.5t19.5 -51.5q0 -39 -26 -64.5t-64 -25.5q-33 0 -52.5 20z" />
    <glyph glyph-name="uni0230" unicode="&#x230;" horiz-adv-x="624" 
d="M545.5 638q60.5 -69 60.5 -199q0 -111 -34 -215t-109 -172t-190 -68q-111 0 -172 69.5t-61 198.5q0 110 34.5 214t109.5 172.5t190 68.5q111 0 171.5 -69zM257.5 541q-40.5 -60 -57.5 -143.5t-17 -161.5q0 -76 25 -110.5t74 -34.5q66 0 107 59.5t57.5 143t16.5 162.5
q0 76 -24.5 110.5t-74.5 34.5q-66 0 -106.5 -60zM327.5 758q-19.5 20 -19.5 51q0 39 25.5 64.5t64.5 25.5q33 0 52.5 -19.5t19.5 -51.5q0 -39 -26 -64.5t-64 -25.5q-33 0 -52.5 20zM539 931h-267l14 96h267z" />
    <glyph glyph-name="uni1ECC" unicode="&#x1ecc;" horiz-adv-x="624" 
d="M545.5 638q60.5 -69 60.5 -199q0 -111 -34 -215t-109 -172t-190 -68q-111 0 -172 69.5t-61 198.5q0 110 34.5 214t109.5 172.5t190 68.5q111 0 171.5 -69zM257.5 541q-40.5 -60 -57.5 -143.5t-17 -161.5q0 -76 25 -110.5t74 -34.5q66 0 107 59.5t57.5 143t16.5 162.5
q0 76 -24.5 110.5t-74.5 34.5q-66 0 -106.5 -60zM313.5 -85q19.5 -20 19.5 -51q0 -39 -25.5 -64.5t-64.5 -25.5q-33 0 -52.5 19.5t-19.5 51.5q0 39 26 64.5t64 25.5q33 0 52.5 -20z" />
    <glyph glyph-name="Ograve" unicode="&#xd2;" horiz-adv-x="624" 
d="M545.5 638q60.5 -69 60.5 -199q0 -111 -34 -215t-109 -172t-190 -68q-111 0 -172 69.5t-61 198.5q0 110 34.5 214t109.5 172.5t190 68.5q111 0 171.5 -69zM257.5 541q-40.5 -60 -57.5 -143.5t-17 -161.5q0 -76 25 -110.5t74 -34.5q66 0 107 59.5t57.5 143t16.5 162.5
q0 76 -24.5 110.5t-74.5 34.5q-66 0 -106.5 -60zM340 931l178 -116l-39 -65l-197 80z" />
    <glyph glyph-name="uni1ECE" unicode="&#x1ece;" horiz-adv-x="624" 
d="M545.5 638q60.5 -69 60.5 -199q0 -111 -34 -215t-109 -172t-190 -68q-111 0 -172 69.5t-61 198.5q0 110 34.5 214t109.5 172.5t190 68.5q111 0 171.5 -69zM257.5 541q-40.5 -60 -57.5 -143.5t-17 -161.5q0 -76 25 -110.5t74 -34.5q66 0 107 59.5t57.5 143t16.5 162.5
q0 76 -24.5 110.5t-74.5 34.5q-66 0 -106.5 -60zM355 851q35 3 52.5 13.5t17.5 33.5q0 26 -31 26q-25 0 -53 -14l-18 63q43 24 93 24q49 0 76 -25.5t27 -66.5q0 -81 -88 -97l-6 -44h-80z" />
    <glyph glyph-name="Ohorn" unicode="&#x1a0;" horiz-adv-x="649" 
d="M666 617.5q-28 -36.5 -81 -47.5q21 -54 21 -131q0 -111 -34 -215t-109 -172t-190 -68q-111 0 -172 69.5t-61 198.5q0 110 34.5 214t109.5 172.5t190 68.5q114 0 173 -71q29 4 41.5 23t12.5 54q0 19 -4 47l89 11q8 -28 8 -57q0 -60 -28 -96.5zM389 150.5q41 59.5 57.5 143
t16.5 162.5q0 76 -24.5 110.5t-74.5 34.5q-66 0 -106.5 -60t-57.5 -143.5t-17 -161.5q0 -76 25 -110.5t74 -34.5q66 0 107 59.5z" />
    <glyph glyph-name="uni1EDA" unicode="&#x1eda;" horiz-adv-x="649" 
d="M524 831l-219 -82l-31 67l205 117zM666 617.5q-28 -36.5 -81 -47.5q21 -54 21 -131q0 -111 -34 -215t-109 -172t-190 -68q-111 0 -172 69.5t-61 198.5q0 110 34.5 214t109.5 172.5t190 68.5q114 0 173 -71q29 4 41.5 23t12.5 54q0 19 -4 47l89 11q8 -28 8 -57
q0 -60 -28 -96.5zM389 150.5q41 59.5 57.5 143t16.5 162.5q0 76 -24.5 110.5t-74.5 34.5q-66 0 -106.5 -60t-57.5 -143.5t-17 -161.5q0 -76 25 -110.5t74 -34.5q66 0 107 59.5z" />
    <glyph glyph-name="uni1EE2" unicode="&#x1ee2;" horiz-adv-x="649" 
d="M666 617.5q-28 -36.5 -81 -47.5q21 -54 21 -131q0 -111 -34 -215t-109 -172t-190 -68q-111 0 -172 69.5t-61 198.5q0 110 34.5 214t109.5 172.5t190 68.5q114 0 173 -71q29 4 41.5 23t12.5 54q0 19 -4 47l89 11q8 -28 8 -57q0 -60 -28 -96.5zM389 150.5q41 59.5 57.5 143
t16.5 162.5q0 76 -24.5 110.5t-74.5 34.5q-66 0 -106.5 -60t-57.5 -143.5t-17 -161.5q0 -76 25 -110.5t74 -34.5q66 0 107 59.5zM313.5 -85q19.5 -20 19.5 -51q0 -39 -25.5 -64.5t-64.5 -25.5q-33 0 -52.5 19.5t-19.5 51.5q0 39 26 64.5t64 25.5q33 0 52.5 -20z" />
    <glyph glyph-name="uni1EDC" unicode="&#x1edc;" horiz-adv-x="649" 
d="M518 815l-39 -65l-197 80l58 101zM666 617.5q-28 -36.5 -81 -47.5q21 -54 21 -131q0 -111 -34 -215t-109 -172t-190 -68q-111 0 -172 69.5t-61 198.5q0 110 34.5 214t109.5 172.5t190 68.5q114 0 173 -71q29 4 41.5 23t12.5 54q0 19 -4 47l89 11q8 -28 8 -57
q0 -60 -28 -96.5zM389 150.5q41 59.5 57.5 143t16.5 162.5q0 76 -24.5 110.5t-74.5 34.5q-66 0 -106.5 -60t-57.5 -143.5t-17 -161.5q0 -76 25 -110.5t74 -34.5q66 0 107 59.5z" />
    <glyph glyph-name="uni1EDE" unicode="&#x1ede;" horiz-adv-x="649" 
d="M341 910l-18 63q43 24 93 24q49 0 76 -25.5t27 -66.5q0 -81 -88 -97l-6 -44h-80l10 87q35 3 52.5 13.5t17.5 33.5q0 26 -31 26q-25 0 -53 -14zM666 617.5q-28 -36.5 -81 -47.5q21 -54 21 -131q0 -111 -34 -215t-109 -172t-190 -68q-111 0 -172 69.5t-61 198.5
q0 110 34.5 214t109.5 172.5t190 68.5q114 0 173 -71q29 4 41.5 23t12.5 54q0 19 -4 47l89 11q8 -28 8 -57q0 -60 -28 -96.5zM389 150.5q41 59.5 57.5 143t16.5 162.5q0 76 -24.5 110.5t-74.5 34.5q-66 0 -106.5 -60t-57.5 -143.5t-17 -161.5q0 -76 25 -110.5t74 -34.5
q66 0 107 59.5z" />
    <glyph glyph-name="uni1EE0" unicode="&#x1ee0;" horiz-adv-x="649" 
d="M314 803q-12 -11 -27 -34l-63 36q25 48 57 77.5t67 29.5q20 0 33 -7t32 -21q13 -10 20 -14t16 -4q14 0 25.5 10.5t26.5 33.5l63 -37q-24 -49 -56 -77t-66 -28q-17 0 -31.5 7t-31.5 20q-12 10 -20.5 14.5t-17.5 4.5q-15 0 -27 -11zM666 617.5q-28 -36.5 -81 -47.5
q21 -54 21 -131q0 -111 -34 -215t-109 -172t-190 -68q-111 0 -172 69.5t-61 198.5q0 110 34.5 214t109.5 172.5t190 68.5q114 0 173 -71q29 4 41.5 23t12.5 54q0 19 -4 47l89 11q8 -28 8 -57q0 -60 -28 -96.5zM389 150.5q41 59.5 57.5 143t16.5 162.5q0 76 -24.5 110.5
t-74.5 34.5q-66 0 -106.5 -60t-57.5 -143.5t-17 -161.5q0 -76 25 -110.5t74 -34.5q66 0 107 59.5z" />
    <glyph glyph-name="Ohungarumlaut" unicode="&#x150;" horiz-adv-x="624" 
d="M545.5 638q60.5 -69 60.5 -199q0 -111 -34 -215t-109 -172t-190 -68q-111 0 -172 69.5t-61 198.5q0 110 34.5 214t109.5 172.5t190 68.5q111 0 171.5 -69zM257.5 541q-40.5 -60 -57.5 -143.5t-17 -161.5q0 -76 25 -110.5t74 -34.5q66 0 107 59.5t57.5 143t16.5 162.5
q0 76 -24.5 110.5t-74.5 34.5q-66 0 -106.5 -60zM523 977l85 -50l-130 -173l-66 34zM370 976l86 -46l-123 -171l-67 31z" />
    <glyph glyph-name="uni01A2" unicode="&#x1a2;" horiz-adv-x="856" 
d="M792.5 671q40.5 -37 40.5 -104q0 -21 -2 -33l-105 -742h-138l104 748q2 14 2 20q0 47 -46 47q-36 0 -71 -21q29 -61 29 -147q0 -111 -34 -215t-109 -172t-190 -68q-111 0 -172 69.5t-61 198.5q0 110 34.5 214t109.5 172.5t190 68.5q90 0 149 -50q68 51 154 51
q75 0 115.5 -37zM389 150.5q41 59.5 57.5 143t16.5 162.5q0 76 -24.5 110.5t-74.5 34.5q-66 0 -106.5 -60t-57.5 -143.5t-17 -161.5q0 -76 25 -110.5t74 -34.5q66 0 107 59.5z" />
    <glyph glyph-name="uni020E" unicode="&#x20e;" horiz-adv-x="624" 
d="M545.5 638q60.5 -69 60.5 -199q0 -111 -34 -215t-109 -172t-190 -68q-111 0 -172 69.5t-61 198.5q0 110 34.5 214t109.5 172.5t190 68.5q111 0 171.5 -69zM257.5 541q-40.5 -60 -57.5 -143.5t-17 -161.5q0 -76 25 -110.5t74 -34.5q66 0 107 59.5t57.5 143t16.5 162.5
q0 76 -24.5 110.5t-74.5 34.5q-66 0 -106.5 -60zM233 784q17 71 62 114t111 43q68 0 102 -45t31 -116l-77 -11q-6 76 -65 76q-31 0 -53.5 -20.5t-35.5 -58.5z" />
    <glyph glyph-name="Omacron" unicode="&#x14c;" horiz-adv-x="624" 
d="M545.5 638q60.5 -69 60.5 -199q0 -111 -34 -215t-109 -172t-190 -68q-111 0 -172 69.5t-61 198.5q0 110 34.5 214t109.5 172.5t190 68.5q111 0 171.5 -69zM257.5 541q-40.5 -60 -57.5 -143.5t-17 -161.5q0 -76 25 -110.5t74 -34.5q66 0 107 59.5t57.5 143t16.5 162.5
q0 76 -24.5 110.5t-74.5 34.5q-66 0 -106.5 -60zM520 785h-267l14 96h267z" />
    <glyph glyph-name="uni1E52" unicode="&#x1e52;" horiz-adv-x="624" 
d="M545.5 638q60.5 -69 60.5 -199q0 -111 -34 -215t-109 -172t-190 -68q-111 0 -172 69.5t-61 198.5q0 110 34.5 214t109.5 172.5t190 68.5q111 0 171.5 -69zM257.5 541q-40.5 -60 -57.5 -143.5t-17 -161.5q0 -76 25 -110.5t74 -34.5q66 0 107 59.5t57.5 143t16.5 162.5
q0 76 -24.5 110.5t-74.5 34.5q-66 0 -106.5 -60zM521 760h-267l14 96h267zM489 1074l45 -102l-219 -82l-31 67z" />
    <glyph glyph-name="uni1E50" unicode="&#x1e50;" horiz-adv-x="624" 
d="M545.5 638q60.5 -69 60.5 -199q0 -111 -34 -215t-109 -172t-190 -68q-111 0 -172 69.5t-61 198.5q0 110 34.5 214t109.5 172.5t190 68.5q111 0 171.5 -69zM257.5 541q-40.5 -60 -57.5 -143.5t-17 -161.5q0 -76 25 -110.5t74 -34.5q66 0 107 59.5t57.5 143t16.5 162.5
q0 76 -24.5 110.5t-74.5 34.5q-66 0 -106.5 -60zM518 760h-267l14 96h267zM353 1072l178 -116l-39 -65l-197 80z" />
    <glyph glyph-name="uniA7B6" unicode="&#xa7b6;" horiz-adv-x="789" 
d="M86.5 36q-42.5 51 -42.5 160q0 120 35.5 250t96.5 246h129q-55 -124 -89 -255.5t-34 -244.5q0 -55 13 -78t42 -23q64 0 76 90l31 217h137l-31 -222q-3 -15 -3 -29q0 -57 50 -57q68 0 96.5 118t28.5 263q0 59 -6 110t-18 111h133q28 -105 28 -224q0 -212 -59 -347.5
t-194 -135.5q-60 0 -94.5 30t-40.5 89q-23 -60 -64 -89.5t-94 -29.5q-84 0 -126.5 51z" />
    <glyph glyph-name="uni01EA" unicode="&#x1ea;" horiz-adv-x="624" 
d="M248 -118q0 -34 42 -34q24 0 54 6l-20 -87q-27 -7 -61 -7q-51 0 -83 28t-32 74q0 75 75 126q-88 15 -135.5 83t-47.5 181q0 110 34.5 214t109.5 172.5t190 68.5q111 0 171.5 -69t60.5 -199q0 -95 -25 -186t-79.5 -160.5t-137.5 -95.5q-116 -51 -116 -115zM208 125.5
q25 -34.5 74 -34.5q66 0 107 59.5t57.5 143t16.5 162.5q0 76 -24.5 110.5t-74.5 34.5q-66 0 -106.5 -60t-57.5 -143.5t-17 -161.5q0 -76 25 -110.5z" />
    <glyph glyph-name="uni01EC" unicode="&#x1ec;" horiz-adv-x="624" 
d="M534 881l-14 -96h-267l14 96h267zM248 -118q0 -34 42 -34q24 0 54 6l-20 -87q-27 -7 -61 -7q-51 0 -83 28t-32 74q0 75 75 126q-88 15 -135.5 83t-47.5 181q0 110 34.5 214t109.5 172.5t190 68.5q111 0 171.5 -69t60.5 -199q0 -95 -25 -186t-79.5 -160.5t-137.5 -95.5
q-116 -51 -116 -115zM208 125.5q25 -34.5 74 -34.5q66 0 107 59.5t57.5 143t16.5 162.5q0 76 -24.5 110.5t-74.5 34.5q-66 0 -106.5 -60t-57.5 -143.5t-17 -161.5q0 -76 25 -110.5z" />
    <glyph glyph-name="uni0186" unicode="&#x186;" horiz-adv-x="516" 
d="M438 637.5q60 -69.5 60 -199.5q0 -124 -39.5 -227.5t-114.5 -164.5t-179 -61q-113 0 -185 86l73 78q30 -26 55 -39.5t59 -13.5q63 0 105 51.5t62.5 131t20.5 163.5t-25.5 121t-73.5 37q-33 0 -63.5 -12t-63.5 -36l-58 83q45 36 94 54t108 18q105 0 165 -69.5z" />
    <glyph glyph-name="Oslash" unicode="&#xd8;" horiz-adv-x="624" 
d="M582 575q24 -58 24 -136q0 -111 -34 -215t-109 -172t-190 -68q-23 0 -44 3l-47 -119l-103 29l53 130q-45 33 -68.5 90.5t-23.5 134.5q0 110 34.5 214t109.5 172.5t190 68.5q23 0 42 -3l49 121l101 -29l-53 -130q45 -33 69 -91zM256 542q-41 -60 -58.5 -145t-17.5 -163
q0 -74 21 -107l186 474q-8 1 -23 1q-67 0 -108 -60zM390.5 150q41.5 60 58.5 144.5t17 164.5q0 71 -21 106l-185 -474q7 -1 22 -1q67 0 108.5 60z" />
    <glyph glyph-name="Oslashacute" unicode="&#x1fe;" horiz-adv-x="624" 
d="M582 575q24 -58 24 -136q0 -111 -34 -215t-109 -172t-190 -68q-23 0 -44 3l-47 -119l-103 29l53 130q-45 33 -68.5 90.5t-23.5 134.5q0 110 34.5 214t109.5 172.5t190 68.5q23 0 42 -3l49 121l101 -29l-53 -130q45 -33 69 -91zM256 542q-41 -60 -58.5 -145t-17.5 -163
q0 -74 21 -107l186 474q-8 1 -23 1q-67 0 -108 -60zM390.5 150q41.5 60 58.5 144.5t17 164.5q0 71 -21 106l-185 -474q7 -1 22 -1q67 0 108.5 60zM472 961l45 -102l-219 -82l-31 67z" />
    <glyph glyph-name="Otilde" unicode="&#xd5;" horiz-adv-x="624" 
d="M545.5 638q60.5 -69 60.5 -199q0 -111 -34 -215t-109 -172t-190 -68q-111 0 -172 69.5t-61 198.5q0 110 34.5 214t109.5 172.5t190 68.5q111 0 171.5 -69zM257.5 541q-40.5 -60 -57.5 -143.5t-17 -161.5q0 -76 25 -110.5t74 -34.5q66 0 107 59.5t57.5 143t16.5 162.5
q0 76 -24.5 110.5t-74.5 34.5q-66 0 -106.5 -60zM410.5 775q-14.5 7 -31.5 20q-12 10 -20.5 14.5t-17.5 4.5q-15 0 -27 -11t-27 -34l-63 36q25 48 57 77.5t67 29.5q20 0 33 -7t32 -21q13 -10 20 -14t16 -4q14 0 25.5 10.5t26.5 33.5l63 -37q-24 -49 -56 -77t-66 -28
q-17 0 -31.5 7z" />
    <glyph glyph-name="uni1E4C" unicode="&#x1e4c;" horiz-adv-x="624" 
d="M545.5 638q60.5 -69 60.5 -199q0 -111 -34 -215t-109 -172t-190 -68q-111 0 -172 69.5t-61 198.5q0 110 34.5 214t109.5 172.5t190 68.5q111 0 171.5 -69zM257.5 541q-40.5 -60 -57.5 -143.5t-17 -161.5q0 -76 25 -110.5t74 -34.5q66 0 107 59.5t57.5 143t16.5 162.5
q0 76 -24.5 110.5t-74.5 34.5q-66 0 -106.5 -60zM407.5 764q-14.5 7 -31.5 20q-12 10 -20.5 14.5t-17.5 4.5q-15 0 -27 -11t-27 -34l-63 36q25 48 57 77.5t67 29.5q20 0 33 -7t32 -21q13 -10 20 -14t16 -4q14 0 25.5 10.5t26.5 33.5l63 -37q-24 -49 -56 -77t-66 -28
q-17 0 -31.5 7zM486 1104l45 -102l-219 -82l-31 67z" />
    <glyph glyph-name="uni022C" unicode="&#x22c;" horiz-adv-x="624" 
d="M535 934h-267l14 96h267zM405.5 764q-14.5 7 -31.5 20q-12 10 -20.5 14.5t-17.5 4.5q-15 0 -27 -11t-27 -34l-63 36q25 48 57 77.5t67 29.5q20 0 33 -7t32 -21q13 -10 20 -14t16 -4q14 0 25.5 10.5t26.5 33.5l63 -37q-24 -49 -56 -77t-66 -28q-17 0 -31.5 7zM545.5 638
q60.5 -69 60.5 -199q0 -111 -34 -215t-109 -172t-190 -68q-111 0 -172 69.5t-61 198.5q0 110 34.5 214t109.5 172.5t190 68.5q111 0 171.5 -69zM257.5 541q-40.5 -60 -57.5 -143.5t-17 -161.5q0 -76 25 -110.5t74 -34.5q66 0 107 59.5t57.5 143t16.5 162.5q0 76 -24.5 110.5
t-74.5 34.5q-66 0 -106.5 -60z" />
    <glyph glyph-name="OE" unicode="&#x152;" horiz-adv-x="805" 
d="M801 588h-252q36 -61 36 -155q0 -20 -1 -30h164l-14 -102h-162q-25 -122 -91 -197h270l-16 -104h-390q-38 -16 -85 -16q-103 0 -161.5 69.5t-58.5 197.5q0 109 33.5 213.5t105.5 173.5t180 69q49 0 83 -15h389zM272 91q61 0 99.5 58.5t55 143.5t16.5 167q0 141 -90 141
q-60 0 -98.5 -59t-55 -143.5t-16.5 -165.5q0 -142 89 -142z" />
    <glyph glyph-name="P" unicode="P" horiz-adv-x="528" 
d="M482.5 644q60.5 -48 60.5 -141q0 -71 -30 -131t-94 -97t-161 -37h-59l-34 -238h-139l97 692h188q111 0 171.5 -48zM367.5 387.5q31.5 45.5 31.5 112.5q0 47 -25 68t-76 21h-50l-35 -247h46q77 0 108.5 45.5z" />
    <glyph glyph-name="uni1E54" unicode="&#x1e54;" horiz-adv-x="528" 
d="M482.5 644q60.5 -48 60.5 -141q0 -71 -30 -131t-94 -97t-161 -37h-59l-34 -238h-139l97 692h188q111 0 171.5 -48zM367.5 387.5q31.5 45.5 31.5 112.5q0 47 -25 68t-76 21h-50l-35 -247h46q77 0 108.5 45.5zM431 933l45 -102l-219 -82l-31 67z" />
    <glyph glyph-name="uni1E56" unicode="&#x1e56;" horiz-adv-x="528" 
d="M482.5 644q60.5 -48 60.5 -141q0 -71 -30 -131t-94 -97t-161 -37h-59l-34 -238h-139l97 692h188q111 0 171.5 -48zM367.5 387.5q31.5 45.5 31.5 112.5q0 47 -25 68t-76 21h-50l-35 -247h46q77 0 108.5 45.5zM287.5 785q-19.5 20 -19.5 51q0 39 25.5 64.5t64.5 25.5
q33 0 52.5 -19.5t19.5 -51.5q0 -39 -26 -64.5t-64 -25.5q-33 0 -52.5 20z" />
    <glyph glyph-name="uni01A4" unicode="&#x1a4;" horiz-adv-x="649" 
d="M602.5 644q60.5 -48 60.5 -141q0 -71 -30 -131t-94 -97t-161 -37h-59l-34 -238h-139l83 589h-24q-25 0 -38 -15.5t-13 -44.5q0 -23 9 -55l-95 -37q-23 52 -23 96q0 73 45.5 116t124.5 43h216q111 0 171.5 -48zM487.5 387.5q31.5 45.5 31.5 112.5q0 47 -25 68t-76 21h-50
l-35 -247h46q77 0 108.5 45.5z" />
    <glyph glyph-name="Thorn" unicode="&#xde;" horiz-adv-x="531" 
d="M469 531q60 -49 60 -145q0 -71 -29 -131.5t-93 -98.5t-163 -38h-62l-17 -118h-139l97 692h139l-16 -112h51q112 0 172 -49zM353 269q32 47 32 116q0 49 -24.5 70.5t-75.5 21.5h-53l-36 -255h49q76 0 108 47z" />
    <glyph glyph-name="Q" unicode="Q" horiz-adv-x="623" 
d="M559.5 199q-46.5 -111 -144.5 -158q57 -3 98 -20t74 -48l-101 -106q-39 59 -87.5 88.5t-125.5 29.5q-112 0 -172.5 69t-60.5 198q0 110 34.5 214t109.5 172.5t190 68.5q111 0 171.5 -69t60.5 -199q0 -129 -46.5 -240zM208 125q25 -34 74 -34q67 0 107.5 59.5t57 144
t16.5 164.5q0 74 -24.5 108t-74.5 34q-66 0 -106.5 -60t-57.5 -144t-17 -163q0 -75 25 -109z" />
    <glyph glyph-name="uni024A" unicode="&#x24a;" horiz-adv-x="612" 
d="M641 -179q-56 -40 -127 -40q-72 0 -112 36.5t-40 105.5q0 21 2 33l6 44l5 39q-56 -54 -130 -54q-95 0 -150 68.5t-55 192.5q0 123 37.5 228.5t106 169t156.5 63.5q43 0 73.5 -17.5t54.5 -48.5l16 51h121l-96 -692l-7 -56q-1 -5 -1 -15q0 -43 39 -43q18 0 30.5 4t34.5 15z
M390 146l56 403q-19 26 -39.5 39t-49.5 13q-55 0 -94.5 -52t-59.5 -134.5t-20 -172.5q0 -153 98 -153q60 0 109 57z" />
    <glyph glyph-name="R" unicode="R" horiz-adv-x="550" 
d="M397 299l115 -299h-148l-95 273h-66l-38 -273h-139l97 692h188q115 0 173 -46t58 -131q0 -152 -145 -216zM218 374h56q66 0 95.5 39.5t29.5 95.5q0 43 -23.5 62t-73.5 19h-54z" />
    <glyph glyph-name="Racute" unicode="&#x154;" horiz-adv-x="550" 
d="M397 299l115 -299h-148l-95 273h-66l-38 -273h-139l97 692h188q115 0 173 -46t58 -131q0 -152 -145 -216zM218 374h56q66 0 95.5 39.5t29.5 95.5q0 43 -23.5 62t-73.5 19h-54zM433 933l45 -102l-219 -82l-31 67z" />
    <glyph glyph-name="Rcaron" unicode="&#x158;" horiz-adv-x="550" 
d="M397 299l115 -299h-148l-95 273h-66l-38 -273h-139l97 692h188q115 0 173 -46t58 -131q0 -152 -145 -216zM218 374h56q66 0 95.5 39.5t29.5 95.5q0 43 -23.5 62t-73.5 19h-54zM473 932l48 -57l-144 -124h-82l-110 128l54 53l107 -84z" />
    <glyph glyph-name="Rcommaaccent" unicode="&#x156;" horiz-adv-x="550" 
d="M397 299l115 -299h-148l-95 273h-66l-38 -273h-139l97 692h188q115 0 173 -46t58 -131q0 -152 -145 -216zM218 374h56q66 0 95.5 39.5t29.5 95.5q0 43 -23.5 62t-73.5 19h-54zM289.5 -89q17.5 -18 17.5 -44q0 -21 -7.5 -39.5t-28.5 -53.5l-53 -89h-68l43 117
q-25 18 -25 49q0 34 22 56t53 22q29 0 46.5 -18z" />
    <glyph glyph-name="uni0210" unicode="&#x210;" horiz-adv-x="550" 
d="M397 299l115 -299h-148l-95 273h-66l-38 -273h-139l97 692h188q115 0 173 -46t58 -131q0 -152 -145 -216zM218 374h56q66 0 95.5 39.5t29.5 95.5q0 43 -23.5 62t-73.5 19h-54zM249 977l61 -191l-77 -32l-85 178zM402 976l53 -189l-77 -28l-78 175z" />
    <glyph glyph-name="uni1E5A" unicode="&#x1e5a;" horiz-adv-x="550" 
d="M397 299l115 -299h-148l-95 273h-66l-38 -273h-139l97 692h188q115 0 173 -46t58 -131q0 -152 -145 -216zM218 374h56q66 0 95.5 39.5t29.5 95.5q0 43 -23.5 62t-73.5 19h-54zM292.5 -85q19.5 -20 19.5 -51q0 -39 -25.5 -64.5t-64.5 -25.5q-33 0 -52.5 19.5t-19.5 51.5
q0 39 26 64.5t64 25.5q33 0 52.5 -20z" />
    <glyph glyph-name="uni0212" unicode="&#x212;" horiz-adv-x="550" 
d="M397 299l115 -299h-148l-95 273h-66l-38 -273h-139l97 692h188q115 0 173 -46t58 -131q0 -152 -145 -216zM218 374h56q66 0 95.5 39.5t29.5 95.5q0 43 -23.5 62t-73.5 19h-54zM187 784q17 71 62 114t111 43q68 0 102 -45t31 -116l-77 -11q-6 76 -65 76q-31 0 -53.5 -20.5
t-35.5 -58.5z" />
    <glyph glyph-name="uni024C" unicode="&#x24c;" horiz-adv-x="560" 
d="M407 299l115 -299h-148l-95 273h-66l-38 -273h-139l38 274h-61l14 100h61l45 318h188q115 0 173 -46t58 -131q0 -152 -145 -216zM258 590l-30 -216h56q66 0 95.5 39.5t29.5 95.5q0 43 -23.5 62t-73.5 19h-54z" />
    <glyph glyph-name="uni2C64" unicode="&#x2c64;" horiz-adv-x="550" 
d="M397 299l115 -299h-148l-95 273h-66l-38 -273l-7 -56q-1 -5 -1 -15q0 -43 39 -43q18 0 30.5 4t34.5 15l36 -84q-56 -40 -127 -40q-72 0 -112 36.5t-40 105.5q0 21 2 33l6 44l97 692h188q115 0 173 -46t58 -131q0 -152 -145 -216zM218 374h56q66 0 95.5 39.5t29.5 95.5
q0 43 -23.5 62t-73.5 19h-54z" />
    <glyph glyph-name="S" unicode="S" horiz-adv-x="506" 
d="M518 619l-74 -74q-28 29 -58.5 42.5t-67.5 13.5q-47 0 -75.5 -25t-28.5 -65q0 -33 21.5 -52.5t84.5 -45.5q77 -32 115.5 -75t38.5 -115q0 -64 -31.5 -118.5t-92.5 -87.5t-146 -33q-136 0 -223 98l80 77q32 -33 66.5 -49.5t79.5 -16.5q56 0 89 30t33 81q0 38 -22 60.5
t-83 48.5q-82 33 -118 74t-36 107q0 56 29.5 105t85.5 78.5t130 29.5q126 0 203 -88z" />
    <glyph glyph-name="Sacute" unicode="&#x15a;" horiz-adv-x="506" 
d="M518 619l-74 -74q-28 29 -58.5 42.5t-67.5 13.5q-47 0 -75.5 -25t-28.5 -65q0 -33 21.5 -52.5t84.5 -45.5q77 -32 115.5 -75t38.5 -115q0 -64 -31.5 -118.5t-92.5 -87.5t-146 -33q-136 0 -223 98l80 77q32 -33 66.5 -49.5t79.5 -16.5q56 0 89 30t33 81q0 38 -22 60.5
t-83 48.5q-82 33 -118 74t-36 107q0 56 29.5 105t85.5 78.5t130 29.5q126 0 203 -88zM424 933l45 -102l-219 -82l-31 67z" />
    <glyph glyph-name="uniA78B" unicode="&#xa78b;" horiz-adv-x="222" 
d="M73 338l33 354h130l-68 -354h-95z" />
    <glyph glyph-name="Scaron" unicode="&#x160;" horiz-adv-x="506" 
d="M518 619l-74 -74q-28 29 -58.5 42.5t-67.5 13.5q-47 0 -75.5 -25t-28.5 -65q0 -33 21.5 -52.5t84.5 -45.5q77 -32 115.5 -75t38.5 -115q0 -64 -31.5 -118.5t-92.5 -87.5t-146 -33q-136 0 -223 98l80 77q32 -33 66.5 -49.5t79.5 -16.5q56 0 89 30t33 81q0 38 -22 60.5
t-83 48.5q-82 33 -118 74t-36 107q0 56 29.5 105t85.5 78.5t130 29.5q126 0 203 -88zM464 932l48 -57l-144 -124h-82l-110 128l54 53l107 -84z" />
    <glyph glyph-name="Scedilla" unicode="&#x15e;" horiz-adv-x="506" 
d="M435.5 338q38.5 -43 38.5 -115q0 -57 -25.5 -107.5t-75.5 -84.5t-120 -44l-6 -40q39 -4 59.5 -26t20.5 -57q0 -29 -15 -56.5t-47 -45t-81 -17.5q-57 0 -96 30l40 62q27 -15 54 -15q21 0 34 9.5t13 27.5q0 19 -16.5 26t-59.5 7l23 93q-118 9 -195 97l80 77
q32 -33 66.5 -49.5t79.5 -16.5q56 0 89 30t33 81q0 38 -22 60.5t-83 48.5q-82 33 -118 74t-36 107q0 56 29.5 105t85.5 78.5t130 29.5q126 0 203 -88l-74 -74q-28 29 -58.5 42.5t-67.5 13.5q-47 0 -75.5 -25t-28.5 -65q0 -33 21.5 -52.5t84.5 -45.5q77 -32 115.5 -75z" />
    <glyph glyph-name="Scircumflex" unicode="&#x15c;" horiz-adv-x="506" 
d="M518 619l-74 -74q-28 29 -58.5 42.5t-67.5 13.5q-47 0 -75.5 -25t-28.5 -65q0 -33 21.5 -52.5t84.5 -45.5q77 -32 115.5 -75t38.5 -115q0 -64 -31.5 -118.5t-92.5 -87.5t-146 -33q-136 0 -223 98l80 77q32 -33 66.5 -49.5t79.5 -16.5q56 0 89 30t33 81q0 38 -22 60.5
t-83 48.5q-82 33 -118 74t-36 107q0 56 29.5 105t85.5 78.5t130 29.5q126 0 203 -88zM210 757l-48 56l144 125h82l110 -128l-54 -53l-107 83z" />
    <glyph glyph-name="Scommaaccent" unicode="&#x218;" horiz-adv-x="506" 
d="M518 619l-74 -74q-28 29 -58.5 42.5t-67.5 13.5q-47 0 -75.5 -25t-28.5 -65q0 -33 21.5 -52.5t84.5 -45.5q77 -32 115.5 -75t38.5 -115q0 -64 -31.5 -118.5t-92.5 -87.5t-146 -33q-136 0 -223 98l80 77q32 -33 66.5 -49.5t79.5 -16.5q56 0 89 30t33 81q0 38 -22 60.5
t-83 48.5q-82 33 -118 74t-36 107q0 56 29.5 105t85.5 78.5t130 29.5q126 0 203 -88zM252.5 -89q17.5 -18 17.5 -44q0 -21 -7.5 -39.5t-28.5 -53.5l-53 -89h-68l43 117q-25 18 -25 49q0 34 22 56t53 22q29 0 46.5 -18z" />
    <glyph glyph-name="uni1E60" unicode="&#x1e60;" horiz-adv-x="506" 
d="M518 619l-74 -74q-28 29 -58.5 42.5t-67.5 13.5q-47 0 -75.5 -25t-28.5 -65q0 -33 21.5 -52.5t84.5 -45.5q77 -32 115.5 -75t38.5 -115q0 -64 -31.5 -118.5t-92.5 -87.5t-146 -33q-136 0 -223 98l80 77q32 -33 66.5 -49.5t79.5 -16.5q56 0 89 30t33 81q0 38 -22 60.5
t-83 48.5q-82 33 -118 74t-36 107q0 56 29.5 105t85.5 78.5t130 29.5q126 0 203 -88zM280.5 785q-19.5 20 -19.5 51q0 39 25.5 64.5t64.5 25.5q33 0 52.5 -19.5t19.5 -51.5q0 -39 -26 -64.5t-64 -25.5q-33 0 -52.5 20z" />
    <glyph glyph-name="uni1E62" unicode="&#x1e62;" horiz-adv-x="506" 
d="M518 619l-74 -74q-28 29 -58.5 42.5t-67.5 13.5q-47 0 -75.5 -25t-28.5 -65q0 -33 21.5 -52.5t84.5 -45.5q77 -32 115.5 -75t38.5 -115q0 -64 -31.5 -118.5t-92.5 -87.5t-146 -33q-136 0 -223 98l80 77q32 -33 66.5 -49.5t79.5 -16.5q56 0 89 30t33 81q0 38 -22 60.5
t-83 48.5q-82 33 -118 74t-36 107q0 56 29.5 105t85.5 78.5t130 29.5q126 0 203 -88zM255.5 -85q19.5 -20 19.5 -51q0 -39 -25.5 -64.5t-64.5 -25.5q-33 0 -52.5 19.5t-19.5 51.5q0 39 26 64.5t64 25.5q33 0 52.5 -20z" />
    <glyph glyph-name="uni1E9E" unicode="&#x1e9e;" horiz-adv-x="596" 
d="M585 634l-9 -70l-164 -178q70 -12 110.5 -51.5t40.5 -110.5q0 -72 -31 -126t-86 -83.5t-125 -29.5t-113 26l53 92q23 -10 53 -10q48 0 75.5 35.5t27.5 91.5q0 48 -32.5 71.5t-101.5 26.5l11 82l161 179q-61 22 -119 22q-44 0 -69 -25t-32 -78l-70 -498h-139l70 497
q14 102 75 156t166 54q121 0 248 -73z" />
    <glyph glyph-name="uni018F" unicode="&#x18f;" horiz-adv-x="578" 
d="M503.5 644.5q58.5 -62.5 58.5 -186.5q0 -130 -36 -237.5t-108 -171.5t-177 -64q-104 0 -159 65t-55 181q0 88 23 169h369q4 35 4 67q0 72 -25.5 103t-77.5 31q-43 0 -79 -16t-72 -44l-55 81q53 43 107.5 64t118.5 21q105 0 163.5 -62.5zM343.5 137q39.5 47 60.5 160
l-242 -1q-6 -40 -6 -76q0 -67 22.5 -98.5t67.5 -31.5q58 0 97.5 47z" />
    <glyph glyph-name="T" unicode="T" horiz-adv-x="478" 
d="M536 692l-30 -111h-153l-82 -581h-139l82 581h-162l16 111h468z" />
    <glyph glyph-name="Tbar" unicode="&#x166;" horiz-adv-x="478" 
d="M506 581h-153l-27 -191h102l-12 -85h-102l-43 -305h-139l43 305h-102l11 85h103l27 191h-162l16 111h468z" />
    <glyph glyph-name="Tcaron" unicode="&#x164;" horiz-adv-x="478" 
d="M536 692l-30 -111h-153l-82 -581h-139l82 581h-162l16 111h468zM444 932l48 -57l-144 -124h-82l-110 128l54 53l107 -84z" />
    <glyph glyph-name="uni0162" unicode="&#x162;" horiz-adv-x="478" 
d="M536 692l-30 -111h-153l-82 -581l-7 -51q39 -4 58.5 -26.5t19.5 -56.5q0 -29 -14.5 -56.5t-46.5 -46t-82 -18.5q-30 0 -54.5 8.5t-40.5 21.5l39 63q26 -16 53 -16q20 0 34 9.5t15 27.5q1 19 -16.5 26t-60.5 7l26 108h-62l82 581h-162l16 111h468z" />
    <glyph glyph-name="uni1E70" unicode="&#x1e70;" horiz-adv-x="478" 
d="M536 692l-30 -111h-153l-82 -581h-139l82 581h-162l16 111h468zM53 -251l-46 57l144 129h82l109 -132l-56 -54l-104 89z" />
    <glyph glyph-name="uni021A" unicode="&#x21a;" horiz-adv-x="478" 
d="M536 692l-30 -111h-153l-82 -581h-139l82 581h-162l16 111h468zM239.5 -89q17.5 -18 17.5 -44q0 -21 -7.5 -39.5t-28.5 -53.5l-53 -89h-68l43 117q-25 18 -25 49q0 34 22 56t53 22q29 0 46.5 -18z" />
    <glyph glyph-name="uni023E" unicode="&#x23e;" horiz-adv-x="479" 
d="M507 585h-75l-118 -228l-49 -357h-125l3 23l-49 -96l-41 20l109 213l60 425h-169l15 107h368l31 61l41 -19l-22 -42h51zM333 492l48 93h-35z" />
    <glyph glyph-name="uni1E6A" unicode="&#x1e6a;" horiz-adv-x="478" 
d="M536 692l-30 -111h-153l-82 -581h-139l82 581h-162l16 111h468zM260.5 785q-19.5 20 -19.5 51q0 39 25.5 64.5t64.5 25.5q33 0 52.5 -19.5t19.5 -51.5q0 -39 -26 -64.5t-64 -25.5q-33 0 -52.5 20z" />
    <glyph glyph-name="uni1E6C" unicode="&#x1e6c;" horiz-adv-x="478" 
d="M536 692l-30 -111h-153l-82 -581h-139l82 581h-162l16 111h468zM242.5 -85q19.5 -20 19.5 -51q0 -39 -25.5 -64.5t-64.5 -25.5q-33 0 -52.5 19.5t-19.5 51.5q0 39 26 64.5t64 25.5q33 0 52.5 -20z" />
    <glyph glyph-name="uni01AC" unicode="&#x1ac;" horiz-adv-x="527" 
d="M555 581h-154l-81 -581h-139l81 581h-59q-24 0 -36.5 -14t-12.5 -39q0 -22 9 -54l-95 -37q-23 52 -23 96q0 73 45.5 116t121.5 43h373z" />
    <glyph glyph-name="uni1E6E" unicode="&#x1e6e;" horiz-adv-x="478" 
d="M536 692l-30 -111h-153l-82 -581h-139l82 581h-162l16 111h468zM63 -89h267l-14 -96h-267z" />
    <glyph glyph-name="uni01BC" unicode="&#x1bc;" horiz-adv-x="482" 
d="M-12 82l83 67q22 -30 48.5 -45t61.5 -15q69 0 100 55t31 125q0 83 -70 83q-39 0 -86 -24h-94l51 364h368l-29 -100h-226l-24 -169q47 25 100 25q68 0 107.5 -45.5t39.5 -128.5q0 -73 -29 -139.5t-91 -108.5t-154 -42q-120 0 -187 98z" />
    <glyph glyph-name="uni0184" unicode="&#x184;" horiz-adv-x="540" 
d="M464.5 401q59.5 -49 59.5 -142q0 -67 -28 -126t-90.5 -96t-158.5 -37h-209l70 502l-59 48q60 57 109 142h116l-34 -242h59q106 0 165.5 -49zM348 148q29 43 29 105q0 50 -23 73t-70 23h-58l-34 -244h58q69 0 98 43z" />
    <glyph glyph-name="uni01A7" unicode="&#x1a7;" horiz-adv-x="493" 
d="M463.5 663.5q51.5 -43.5 51.5 -119.5q0 -91 -54.5 -143t-168.5 -92q-77 -26 -106.5 -57.5t-29.5 -83.5q0 -36 21.5 -55.5t60.5 -19.5q78 0 161 66l61 -80q-99 -94 -242 -94q-95 0 -150.5 49t-55.5 129q0 96 54 154.5t162 93.5q55 18 85.5 34.5t44.5 38.5t14 55
q0 62 -70 62q-40 0 -75 -14t-73 -43l-55 79q51 42 106.5 63t120.5 21q86 0 137.5 -43.5z" />
    <glyph glyph-name="uni01AE" unicode="&#x1ae;" horiz-adv-x="478" 
d="M264 -56q-1 -5 -1 -15q0 -43 39 -43q18 0 30.5 4t34.5 15l36 -84q-56 -40 -127 -40q-72 0 -112 36.5t-40 105.5q0 21 2 33l6 44l82 581h-162l16 111h468l-30 -111h-153l-82 -581z" />
    <glyph glyph-name="U" unicode="U" horiz-adv-x="581" 
d="M519 206q-9 -63 -42.5 -113t-90.5 -79t-132 -29q-104 0 -158 52t-54 137q0 19 3 38l68 480h139l-68 -486q-2 -20 -2 -30q0 -83 82 -83q51 0 79.5 31t36.5 86l68 482h139z" />
    <glyph glyph-name="Uacute" unicode="&#xda;" horiz-adv-x="581" 
d="M519 206q-9 -63 -42.5 -113t-90.5 -79t-132 -29q-104 0 -158 52t-54 137q0 19 3 38l68 480h139l-68 -486q-2 -20 -2 -30q0 -83 82 -83q51 0 79.5 31t36.5 86l68 482h139zM455 933l45 -102l-219 -82l-31 67z" />
    <glyph glyph-name="uni0244" unicode="&#x244;" horiz-adv-x="611" 
d="M627 503h-52l-42 -297q-9 -63 -42.5 -113t-90.5 -79t-132 -29q-104 0 -158 52t-54 137q0 19 3 38l41 291h-50l12 84h50l15 105h139l-15 -105h196l15 105h139l-15 -105h53zM435 503h-195l-42 -297q-2 -20 -2 -30q0 -83 82 -83q51 0 79.5 31t36.5 86z" />
    <glyph glyph-name="Ubreve" unicode="&#x16c;" horiz-adv-x="581" 
d="M519 206q-9 -63 -42.5 -113t-90.5 -79t-132 -29q-104 0 -158 52t-54 137q0 19 3 38l68 480h139l-68 -486q-2 -20 -2 -30q0 -83 82 -83q51 0 79.5 31t36.5 86l68 482h139zM257.5 796.5q-34.5 43.5 -30.5 107.5l74 12q7 -66 64 -66q31 0 52.5 18.5t34.5 50.5l75 -19
q-14 -65 -58 -106t-110 -41q-67 0 -101.5 43.5z" />
    <glyph glyph-name="uni01D3" unicode="&#x1d3;" horiz-adv-x="581" 
d="M519 206q-9 -63 -42.5 -113t-90.5 -79t-132 -29q-104 0 -158 52t-54 137q0 19 3 38l68 480h139l-68 -486q-2 -20 -2 -30q0 -83 82 -83q51 0 79.5 31t36.5 86l68 482h139zM495 932l48 -57l-144 -124h-82l-110 128l54 53l107 -84z" />
    <glyph glyph-name="Ucircumflex" unicode="&#xdb;" horiz-adv-x="581" 
d="M519 206q-9 -63 -42.5 -113t-90.5 -79t-132 -29q-104 0 -158 52t-54 137q0 19 3 38l68 480h139l-68 -486q-2 -20 -2 -30q0 -83 82 -83q51 0 79.5 31t36.5 86l68 482h139zM241 757l-48 56l144 125h82l110 -128l-54 -53l-107 83z" />
    <glyph glyph-name="uni0214" unicode="&#x214;" horiz-adv-x="581" 
d="M519 206q-9 -63 -42.5 -113t-90.5 -79t-132 -29q-104 0 -158 52t-54 137q0 19 3 38l68 480h139l-68 -486q-2 -20 -2 -30q0 -83 82 -83q51 0 79.5 31t36.5 86l68 482h139zM271 977l61 -191l-77 -32l-85 178zM424 976l53 -189l-77 -28l-78 175z" />
    <glyph glyph-name="Udieresis" unicode="&#xdc;" horiz-adv-x="581" 
d="M519 206q-9 -63 -42.5 -113t-90.5 -79t-132 -29q-104 0 -158 52t-54 137q0 19 3 38l68 480h139l-68 -486q-2 -20 -2 -30q0 -83 82 -83q51 0 79.5 31t36.5 86l68 482h139zM213.5 789.5q-17.5 17.5 -17.5 44.5q0 34 23 57t56 23q29 0 46.5 -17t17.5 -45q0 -35 -23 -57.5
t-56 -22.5q-29 0 -46.5 17.5zM418.5 789.5q-17.5 17.5 -17.5 44.5q0 34 23 57t56 23q29 0 46.5 -17.5t17.5 -44.5q0 -34 -23 -57t-56 -23q-29 0 -46.5 17.5z" />
    <glyph glyph-name="uni01D7" unicode="&#x1d7;" horiz-adv-x="581" 
d="M519 206q-9 -63 -42.5 -113t-90.5 -79t-132 -29q-104 0 -158 52t-54 137q0 19 3 38l68 480h139l-68 -486q-2 -20 -2 -30q0 -83 82 -83q51 0 79.5 31t36.5 86l68 482h139zM464 1069l67 -71l-158 -139l-48 45zM205.5 765.5q-17.5 17.5 -17.5 45.5q0 34 23.5 56.5t56.5 22.5
q29 0 46.5 -17.5t17.5 -44.5q0 -34 -23.5 -57t-56.5 -23q-29 0 -46.5 17.5zM419 765.5q-17 17.5 -17 45.5q0 34 23 56.5t56 22.5q29 0 46.5 -17.5t17.5 -44.5q0 -34 -23.5 -57t-56.5 -23q-29 0 -46 17.5z" />
    <glyph glyph-name="uni01D9" unicode="&#x1d9;" horiz-adv-x="581" 
d="M519 206q-9 -63 -42.5 -113t-90.5 -79t-132 -29q-104 0 -158 52t-54 137q0 19 3 38l68 480h139l-68 -486q-2 -20 -2 -30q0 -83 82 -83q51 0 79.5 31t36.5 86l68 482h139zM509 1073l48 -57l-144 -124h-82l-110 128l54 53l107 -84zM204.5 765.5q-17.5 17.5 -17.5 45.5
q0 34 23.5 56.5t56.5 22.5q29 0 46.5 -17.5t17.5 -44.5q0 -34 -23.5 -57t-56.5 -23q-29 0 -46.5 17.5zM417.5 765.5q-17.5 17.5 -17.5 45.5q0 34 23.5 56.5t56.5 22.5q29 0 46.5 -17.5t17.5 -44.5q0 -34 -23.5 -57t-56.5 -23q-29 0 -46.5 17.5z" />
    <glyph glyph-name="uni01DB" unicode="&#x1db;" horiz-adv-x="581" 
d="M519 206q-9 -63 -42.5 -113t-90.5 -79t-132 -29q-104 0 -158 52t-54 137q0 19 3 38l68 480h139l-68 -486q-2 -20 -2 -30q0 -83 82 -83q51 0 79.5 31t36.5 86l68 482h139zM329 1067l93 -167l-56 -41l-120 144zM203.5 765.5q-17.5 17.5 -17.5 45.5q0 34 23.5 56.5
t56.5 22.5q29 0 46.5 -17.5t17.5 -44.5q0 -34 -23.5 -57t-56.5 -23q-29 0 -46.5 17.5zM417 765.5q-17 17.5 -17 45.5q0 34 23 56.5t56 22.5q29 0 46.5 -17.5t17.5 -44.5q0 -34 -23.5 -57t-56.5 -23q-29 0 -46 17.5z" />
    <glyph glyph-name="uni01D5" unicode="&#x1d5;" horiz-adv-x="581" 
d="M519 206q-9 -63 -42.5 -113t-90.5 -79t-132 -29q-104 0 -158 52t-54 137q0 19 3 38l68 480h139l-68 -486q-2 -20 -2 -30q0 -83 82 -83q51 0 79.5 31t36.5 86l68 482h139zM206.5 763.5q-17.5 17.5 -17.5 44.5q0 34 23 57t56 23q29 0 46.5 -17t17.5 -45q0 -35 -23 -57.5
t-56 -22.5q-29 0 -46.5 17.5zM411.5 763.5q-17.5 17.5 -17.5 44.5q0 34 23 57t56 23q29 0 46.5 -17.5t17.5 -44.5q0 -34 -23 -57t-56 -23q-29 0 -46.5 17.5zM509 930h-267l14 96h267z" />
    <glyph glyph-name="uni1EE4" unicode="&#x1ee4;" horiz-adv-x="581" 
d="M519 206q-9 -63 -42.5 -113t-90.5 -79t-132 -29q-104 0 -158 52t-54 137q0 19 3 38l68 480h139l-68 -486q-2 -20 -2 -30q0 -83 82 -83q51 0 79.5 31t36.5 86l68 482h139zM293.5 -85q19.5 -20 19.5 -51q0 -39 -25.5 -64.5t-64.5 -25.5q-33 0 -52.5 19.5t-19.5 51.5
q0 39 26 64.5t64 25.5q33 0 52.5 -20z" />
    <glyph glyph-name="Ugrave" unicode="&#xd9;" horiz-adv-x="581" 
d="M519 206q-9 -63 -42.5 -113t-90.5 -79t-132 -29q-104 0 -158 52t-54 137q0 19 3 38l68 480h139l-68 -486q-2 -20 -2 -30q0 -83 82 -83q51 0 79.5 31t36.5 86l68 482h139zM316 931l178 -116l-39 -65l-197 80z" />
    <glyph glyph-name="uni1EE6" unicode="&#x1ee6;" horiz-adv-x="581" 
d="M519 206q-9 -63 -42.5 -113t-90.5 -79t-132 -29q-104 0 -158 52t-54 137q0 19 3 38l68 480h139l-68 -486q-2 -20 -2 -30q0 -83 82 -83q51 0 79.5 31t36.5 86l68 482h139zM331 851q35 3 52.5 13.5t17.5 33.5q0 26 -31 26q-25 0 -53 -14l-18 63q43 24 93 24q49 0 76 -25.5
t27 -66.5q0 -81 -88 -97l-6 -44h-80z" />
    <glyph glyph-name="Uhorn" unicode="&#x1af;" horiz-adv-x="640" 
d="M677 606.5q-38 -37.5 -108 -40.5l-50 -360q-9 -63 -42.5 -113t-90.5 -79t-132 -29q-104 0 -158 52t-54 137q0 19 3 38l68 480h139l-68 -486q-2 -20 -2 -30q0 -83 82 -83q51 0 79.5 31t36.5 86l68 482h139l-7 -53q22 6 32 24.5t10 49.5q0 19 -4 47l89 11q8 -28 8 -57
q0 -70 -38 -107.5z" />
    <glyph glyph-name="uni1EE8" unicode="&#x1ee8;" horiz-adv-x="640" 
d="M500 831l-219 -82l-31 67l205 117zM677 606.5q-38 -37.5 -108 -40.5l-50 -360q-9 -63 -42.5 -113t-90.5 -79t-132 -29q-104 0 -158 52t-54 137q0 19 3 38l68 480h139l-68 -486q-2 -20 -2 -30q0 -83 82 -83q51 0 79.5 31t36.5 86l68 482h139l-7 -53q22 6 32 24.5t10 49.5
q0 19 -4 47l89 11q8 -28 8 -57q0 -70 -38 -107.5z" />
    <glyph glyph-name="uni1EF0" unicode="&#x1ef0;" horiz-adv-x="640" 
d="M677 606.5q-38 -37.5 -108 -40.5l-50 -360q-9 -63 -42.5 -113t-90.5 -79t-132 -29q-104 0 -158 52t-54 137q0 19 3 38l68 480h139l-68 -486q-2 -20 -2 -30q0 -83 82 -83q51 0 79.5 31t36.5 86l68 482h139l-7 -53q22 6 32 24.5t10 49.5q0 19 -4 47l89 11q8 -28 8 -57
q0 -70 -38 -107.5zM293.5 -85q19.5 -20 19.5 -51q0 -39 -25.5 -64.5t-64.5 -25.5q-33 0 -52.5 19.5t-19.5 51.5q0 39 26 64.5t64 25.5q33 0 52.5 -20z" />
    <glyph glyph-name="uni1EEA" unicode="&#x1eea;" horiz-adv-x="640" 
d="M494 815l-39 -65l-197 80l58 101zM677 606.5q-38 -37.5 -108 -40.5l-50 -360q-9 -63 -42.5 -113t-90.5 -79t-132 -29q-104 0 -158 52t-54 137q0 19 3 38l68 480h139l-68 -486q-2 -20 -2 -30q0 -83 82 -83q51 0 79.5 31t36.5 86l68 482h139l-7 -53q22 6 32 24.5t10 49.5
q0 19 -4 47l89 11q8 -28 8 -57q0 -70 -38 -107.5z" />
    <glyph glyph-name="uni1EEC" unicode="&#x1eec;" horiz-adv-x="640" 
d="M317 910l-18 63q43 24 93 24q49 0 76 -25.5t27 -66.5q0 -81 -88 -97l-6 -44h-80l10 87q35 3 52.5 13.5t17.5 33.5q0 26 -31 26q-25 0 -53 -14zM677 606.5q-38 -37.5 -108 -40.5l-50 -360q-9 -63 -42.5 -113t-90.5 -79t-132 -29q-104 0 -158 52t-54 137q0 19 3 38l68 480
h139l-68 -486q-2 -20 -2 -30q0 -83 82 -83q51 0 79.5 31t36.5 86l68 482h139l-7 -53q22 6 32 24.5t10 49.5q0 19 -4 47l89 11q8 -28 8 -57q0 -70 -38 -107.5z" />
    <glyph glyph-name="uni1EEE" unicode="&#x1eee;" horiz-adv-x="640" 
d="M290 803q-12 -11 -27 -34l-63 36q25 48 57 77.5t67 29.5q20 0 33 -7t32 -21q13 -10 20 -14t16 -4q14 0 25.5 10.5t26.5 33.5l63 -37q-24 -49 -56 -77t-66 -28q-17 0 -31.5 7t-31.5 20q-12 10 -20.5 14.5t-17.5 4.5q-15 0 -27 -11zM677 606.5q-38 -37.5 -108 -40.5
l-50 -360q-9 -63 -42.5 -113t-90.5 -79t-132 -29q-104 0 -158 52t-54 137q0 19 3 38l68 480h139l-68 -486q-2 -20 -2 -30q0 -83 82 -83q51 0 79.5 31t36.5 86l68 482h139l-7 -53q22 6 32 24.5t10 49.5q0 19 -4 47l89 11q8 -28 8 -57q0 -70 -38 -107.5z" />
    <glyph glyph-name="Uhungarumlaut" unicode="&#x170;" horiz-adv-x="581" 
d="M519 206q-9 -63 -42.5 -113t-90.5 -79t-132 -29q-104 0 -158 52t-54 137q0 19 3 38l68 480h139l-68 -486q-2 -20 -2 -30q0 -83 82 -83q51 0 79.5 31t36.5 86l68 482h139zM499 977l85 -50l-130 -173l-66 34zM346 976l86 -46l-123 -171l-67 31z" />
    <glyph glyph-name="uni0216" unicode="&#x216;" horiz-adv-x="581" 
d="M519 206q-9 -63 -42.5 -113t-90.5 -79t-132 -29q-104 0 -158 52t-54 137q0 19 3 38l68 480h139l-68 -486q-2 -20 -2 -30q0 -83 82 -83q51 0 79.5 31t36.5 86l68 482h139zM209 784q17 71 62 114t111 43q68 0 102 -45t31 -116l-77 -11q-6 76 -65 76q-31 0 -53.5 -20.5
t-35.5 -58.5z" />
    <glyph glyph-name="Umacron" unicode="&#x16a;" horiz-adv-x="581" 
d="M519 206q-9 -63 -42.5 -113t-90.5 -79t-132 -29q-104 0 -158 52t-54 137q0 19 3 38l68 480h139l-68 -486q-2 -20 -2 -30q0 -83 82 -83q51 0 79.5 31t36.5 86l68 482h139zM496 785h-267l14 96h267z" />
    <glyph glyph-name="Uogonek" unicode="&#x172;" horiz-adv-x="581" 
d="M587 692l-68 -486q-10 -74 -54.5 -129.5t-117.5 -78.5q-64 -27 -88 -54.5t-24 -56.5q0 -39 43 -39q28 0 56 7l-18 -88q-30 -8 -62 -8q-55 0 -88 28t-33 74q0 42 25.5 73t69.5 52q-91 7 -138.5 58t-47.5 131q0 18 3 37l68 480h139l-68 -486q-2 -20 -2 -30q0 -83 82 -83
q51 0 79.5 31t36.5 86l68 482h139z" />
    <glyph glyph-name="uni01B1" unicode="&#x1b1;" horiz-adv-x="626" 
d="M101 55q-62 70 -62 187q0 240 170 347h-105l14 103h214l-14 -101q-71 -47 -103.5 -147.5t-32.5 -209.5q0 -144 100 -144q63 0 104 51t59 128.5t18 158.5q0 62 -14.5 99t-45.5 66l14 99h213l-14 -105h-104q44 -34 67 -80t23 -114q0 -107 -39 -200.5t-113.5 -150.5
t-175.5 -57q-111 0 -173 70z" />
    <glyph glyph-name="Uring" unicode="&#x16e;" horiz-adv-x="581" 
d="M519 206q-9 -63 -42.5 -113t-90.5 -79t-132 -29q-104 0 -158 52t-54 137q0 19 3 38l68 480h139l-68 -486q-2 -20 -2 -30q0 -83 82 -83q51 0 79.5 31t36.5 86l68 482h139zM467.5 951q29.5 -31 29.5 -79q0 -36 -17.5 -67t-48.5 -49t-71 -18q-49 0 -78.5 30.5t-29.5 78.5
q0 36 17.5 67t48.5 49.5t70 18.5q50 0 79.5 -31zM345 894.5q-14 -18.5 -14 -44.5q0 -21 9 -32t26 -11q24 0 38 18.5t14 44.5q0 21 -9 32t-26 11q-24 0 -38 -18.5z" />
    <glyph glyph-name="Utilde" unicode="&#x168;" horiz-adv-x="581" 
d="M519 206q-9 -63 -42.5 -113t-90.5 -79t-132 -29q-104 0 -158 52t-54 137q0 19 3 38l68 480h139l-68 -486q-2 -20 -2 -30q0 -83 82 -83q51 0 79.5 31t36.5 86l68 482h139zM386.5 775q-14.5 7 -31.5 20q-12 10 -20.5 14.5t-17.5 4.5q-15 0 -27 -11t-27 -34l-63 36
q25 48 57 77.5t67 29.5q20 0 33 -7t32 -21q13 -10 20 -14t16 -4q14 0 25.5 10.5t26.5 33.5l63 -37q-24 -49 -56 -77t-66 -28q-17 0 -31.5 7z" />
    <glyph glyph-name="uni1E78" unicode="&#x1e78;" horiz-adv-x="581" 
d="M519 206q-9 -63 -42.5 -113t-90.5 -79t-132 -29q-104 0 -158 52t-54 137q0 19 3 38l68 480h139l-68 -486q-2 -20 -2 -30q0 -83 82 -83q51 0 79.5 31t36.5 86l68 482h139zM383.5 764q-14.5 7 -31.5 20q-12 10 -20.5 14.5t-17.5 4.5q-15 0 -27 -11t-27 -34l-63 36
q25 48 57 77.5t67 29.5q20 0 33 -7t32 -21q13 -10 20 -14t16 -4q14 0 25.5 10.5t26.5 33.5l63 -37q-24 -49 -56 -77t-66 -28q-17 0 -31.5 7zM462 1104l45 -102l-219 -82l-31 67z" />
    <glyph glyph-name="V" unicode="V" horiz-adv-x="512" 
d="M578 692l-269 -692h-173l-82 692h143l42 -573l195 573h144z" />
    <glyph glyph-name="uni01B2" unicode="&#x1b2;" horiz-adv-x="575" 
d="M541 677.5q30 -29.5 30 -87.5q0 -17 -3 -37l-38 -278q-19 -138 -96.5 -214t-195.5 -76q-92 0 -144 51t-52 132q0 18 3 37l68 487h140l-69 -492q-2 -11 -2 -30q0 -38 17 -57.5t51 -19.5q54 0 90.5 46.5t49.5 140.5l39 289l1 11q0 24 -21 24q-12 0 -25 -5l-12 91
q39 17 82 17q57 0 87 -29.5z" />
    <glyph glyph-name="uni0245" unicode="&#x245;" horiz-adv-x="530" 
d="M410 692l89 -692h-142l-47 587l-207 -587h-147l284 692h170z" />
    <glyph glyph-name="W" unicode="W" horiz-adv-x="756" 
d="M803 692l-202 -692h-181l-4 547l-158 -547h-178l-7 692h136l-15 -581l170 581h147l3 -581l156 581h133z" />
    <glyph glyph-name="Wacute" unicode="&#x1e82;" horiz-adv-x="756" 
d="M803 692l-202 -692h-181l-4 547l-158 -547h-178l-7 692h136l-15 -581l170 581h147l3 -581l156 581h133zM544 933l45 -102l-219 -82l-31 67z" />
    <glyph glyph-name="Wcircumflex" unicode="&#x174;" horiz-adv-x="756" 
d="M803 692l-202 -692h-181l-4 547l-158 -547h-178l-7 692h136l-15 -581l170 581h147l3 -581l156 581h133zM330 757l-48 56l144 125h82l110 -128l-54 -53l-107 83z" />
    <glyph glyph-name="Wdieresis" unicode="&#x1e84;" horiz-adv-x="756" 
d="M803 692l-202 -692h-181l-4 547l-158 -547h-178l-7 692h136l-15 -581l170 581h147l3 -581l156 581h133zM302.5 789.5q-17.5 17.5 -17.5 44.5q0 34 23 57t56 23q29 0 46.5 -17t17.5 -45q0 -35 -23 -57.5t-56 -22.5q-29 0 -46.5 17.5zM507.5 789.5q-17.5 17.5 -17.5 44.5
q0 34 23 57t56 23q29 0 46.5 -17.5t17.5 -44.5q0 -34 -23 -57t-56 -23q-29 0 -46.5 17.5z" />
    <glyph glyph-name="Wgrave" unicode="&#x1e80;" horiz-adv-x="756" 
d="M803 692l-202 -692h-181l-4 547l-158 -547h-178l-7 692h136l-15 -581l170 581h147l3 -581l156 581h133zM405 931l178 -116l-39 -65l-197 80z" />
    <glyph glyph-name="uni2C72" unicode="&#x2c72;" horiz-adv-x="796" 
d="M258 0l158 547l4 -547h179l148 557q7 26 19.5 37t31.5 11q21 0 43 -15l52 77q-43 40 -108 40q-61 0 -99.5 -32t-56.5 -107l-115 -458l-3 582h-147l-170 -581l15 581h-136l7 -692h178z" />
    <glyph glyph-name="uni01F7" unicode="&#x1f7;" horiz-adv-x="530" 
d="M508 663q42 -44 42 -121q0 -81 -36 -138.5t-97 -96.5t-150 -75l-74 -29l-28 -203h-139l97 692h139l-6 -40q63 55 143 55q67 0 109 -44zM405 530q0 74 -62 74q-52 0 -100 -46l-35 -251l45 21q152 75 152 202z" />
    <glyph glyph-name="X" unicode="X" horiz-adv-x="511" 
d="M557 692l-207 -319l126 -373h-148l-71 282l-146 -282h-152l225 368l-114 324h148l58 -241l131 241h150z" />
    <glyph glyph-name="Y" unicode="Y" horiz-adv-x="522" 
d="M588 692l-258 -431l-36 -261h-140l36 261l-136 431h148l74 -319l162 319h150z" />
    <glyph glyph-name="Yacute" unicode="&#xdd;" horiz-adv-x="522" 
d="M588 692l-258 -431l-36 -261h-140l36 261l-136 431h148l74 -319l162 319h150zM425 933l45 -102l-219 -82l-31 67z" />
    <glyph glyph-name="Ycircumflex" unicode="&#x176;" horiz-adv-x="522" 
d="M588 692l-258 -431l-36 -261h-140l36 261l-136 431h148l74 -319l162 319h150zM211 757l-48 56l144 125h82l110 -128l-54 -53l-107 83z" />
    <glyph glyph-name="Ydieresis" unicode="&#x178;" horiz-adv-x="522" 
d="M588 692l-258 -431l-36 -261h-140l36 261l-136 431h148l74 -319l162 319h150zM183.5 789.5q-17.5 17.5 -17.5 44.5q0 34 23 57t56 23q29 0 46.5 -17t17.5 -45q0 -35 -23 -57.5t-56 -22.5q-29 0 -46.5 17.5zM388.5 789.5q-17.5 17.5 -17.5 44.5q0 34 23 57t56 23
q29 0 46.5 -17.5t17.5 -44.5q0 -34 -23 -57t-56 -23q-29 0 -46.5 17.5z" />
    <glyph glyph-name="uni1EF4" unicode="&#x1ef4;" horiz-adv-x="522" 
d="M588 692l-258 -431l-36 -261h-140l36 261l-136 431h148l74 -319l162 319h150zM264.5 -85q19.5 -20 19.5 -51q0 -39 -25.5 -64.5t-64.5 -25.5q-33 0 -52.5 19.5t-19.5 51.5q0 39 26 64.5t64 25.5q33 0 52.5 -20z" />
    <glyph glyph-name="Ygrave" unicode="&#x1ef2;" horiz-adv-x="522" 
d="M588 692l-258 -431l-36 -261h-140l36 261l-136 431h148l74 -319l162 319h150zM286 931l178 -116l-39 -65l-197 80z" />
    <glyph glyph-name="uni01B3" unicode="&#x1b3;" horiz-adv-x="548" 
d="M190 261l-136 431h148l73 -319l102 212q29 66 65.5 94t94.5 28q63 0 108 -40l-52 -77q-22 15 -43 15q-19 0 -31 -10t-26 -37l-162 -296l-38 -262h-139z" />
    <glyph glyph-name="uni1EF6" unicode="&#x1ef6;" horiz-adv-x="522" 
d="M588 692l-258 -431l-36 -261h-140l36 261l-136 431h148l74 -319l162 319h150zM301 851q35 3 52.5 13.5t17.5 33.5q0 26 -31 26q-25 0 -53 -14l-18 63q43 24 93 24q49 0 76 -25.5t27 -66.5q0 -81 -88 -97l-6 -44h-80z" />
    <glyph glyph-name="uni0232" unicode="&#x232;" horiz-adv-x="522" 
d="M588 692l-258 -431l-36 -261h-140l36 261l-136 431h148l74 -319l162 319h150zM466 785h-267l14 96h267z" />
    <glyph glyph-name="uni01A6" unicode="&#x1a6;" horiz-adv-x="552" 
d="M383 183l115 -300h-148l-95 273h-68l-22 -156h-139l97 692h139l-16 -117h50q116 0 174 -44.5t58 -130.5q0 -153 -145 -217zM201 256h59q67 0 96 40.5t29 96.5q0 42 -23.5 61t-73.5 19h-57z" />
    <glyph glyph-name="uni024E" unicode="&#x24e;" horiz-adv-x="523" 
d="M540 611h36l-12 -84h-74l-159 -266l-36 -261h-140l36 261l-84 266h-74l12 84h36l-26 81h138l20 -81h193l43 81h139zM276 364l86 163h-127z" />
    <glyph glyph-name="uni1EF8" unicode="&#x1ef8;" horiz-adv-x="522" 
d="M588 692l-258 -431l-36 -261h-140l36 261l-136 431h148l74 -319l162 319h150zM356.5 775q-14.5 7 -31.5 20q-12 10 -20.5 14.5t-17.5 4.5q-15 0 -27 -11t-27 -34l-63 36q25 48 57 77.5t67 29.5q20 0 33 -7t32 -21q13 -10 20 -14t16 -4q14 0 25.5 10.5t26.5 33.5l63 -37
q-24 -49 -56 -77t-66 -28q-17 0 -31.5 7z" />
    <glyph glyph-name="Z" unicode="Z" horiz-adv-x="479" 
d="M-21 0l15 107l345 473h-251l16 112h406l-16 -109l-343 -469h284l-32 -114h-424z" />
    <glyph glyph-name="Zacute" unicode="&#x179;" horiz-adv-x="479" 
d="M-21 0l15 107l345 473h-251l16 112h406l-16 -109l-343 -469h284l-32 -114h-424zM410 933l45 -102l-219 -82l-31 67z" />
    <glyph glyph-name="Zcaron" unicode="&#x17d;" horiz-adv-x="479" 
d="M-21 0l15 107l345 473h-251l16 112h406l-16 -109l-343 -469h284l-32 -114h-424zM450 932l48 -57l-144 -124h-82l-110 128l54 53l107 -84z" />
    <glyph glyph-name="Zdotaccent" unicode="&#x17b;" horiz-adv-x="479" 
d="M-21 0l15 107l345 473h-251l16 112h406l-16 -109l-343 -469h284l-32 -114h-424zM266.5 785q-19.5 20 -19.5 51q0 39 25.5 64.5t64.5 25.5q33 0 52.5 -19.5t19.5 -51.5q0 -39 -26 -64.5t-64 -25.5q-33 0 -52.5 20z" />
    <glyph glyph-name="uni1E92" unicode="&#x1e92;" horiz-adv-x="479" 
d="M-21 0l15 107l345 473h-251l16 112h406l-16 -109l-343 -469h284l-32 -114h-424zM231.5 -85q19.5 -20 19.5 -51q0 -39 -25.5 -64.5t-64.5 -25.5q-33 0 -52.5 19.5t-19.5 51.5q0 39 26 64.5t64 25.5q33 0 52.5 -20z" />
    <glyph glyph-name="uni0224" unicode="&#x224;" horiz-adv-x="473" 
d="M494 583l-342 -469h274l-17 -114l-8 -52q-13 -81 -62.5 -124t-123.5 -43q-71 0 -121 42l55 80q17 -10 29.5 -15t29.5 -5q25 0 41 16.5t20 48.5l7 52h-297l15 107l345 473h-251l16 112h406z" />
    <glyph glyph-name="uni01B5" unicode="&#x1b5;" horiz-adv-x="479" 
d="M510 692l-16 -109l-143 -191h73l-14 -92h-127l-139 -186h291l-32 -114h-424l15 107l144 193h-78l14 92h133l141 188h-260l16 112h406z" />
    <glyph glyph-name="Cacute.loclPLK" horiz-adv-x="514" 
d="M553 630l-75 -74q-25 22 -50 33t-55 11q-66 0 -108.5 -54.5t-61 -135t-18.5 -160.5q0 -79 28 -116.5t80 -37.5q34 0 62.5 14t66.5 41l54 -83q-92 -84 -206 -84q-105 0 -167.5 70.5t-62.5 200.5q0 112 35.5 215.5t110.5 170t186 66.5q112 0 181 -77zM424 952l92 -60
l-147 -153l-56 37z" />
    <glyph glyph-name="Nacute.loclPLK" horiz-adv-x="595" 
d="M494 0h-174l-116 574v-42q0 -131 -17 -263l-37 -269h-124l97 692h173l117 -574v58q0 113 13 211l42 305h123zM409 952l92 -60l-147 -153l-56 37z" />
    <glyph glyph-name="Oacute.loclPLK" horiz-adv-x="624" 
d="M545.5 638q60.5 -69 60.5 -199q0 -111 -34 -215t-109 -172t-190 -68q-111 0 -172 69.5t-61 198.5q0 110 34.5 214t109.5 172.5t190 68.5q111 0 171.5 -69zM257.5 541q-40.5 -60 -57.5 -143.5t-17 -161.5q0 -76 25 -110.5t74 -34.5q66 0 107 59.5t57.5 143t16.5 162.5
q0 76 -24.5 110.5t-74.5 34.5q-66 0 -106.5 -60zM421 952l92 -60l-147 -153l-56 37z" />
    <glyph glyph-name="Sacute.loclPLK" horiz-adv-x="506" 
d="M518 619l-74 -74q-28 29 -58.5 42.5t-67.5 13.5q-47 0 -75.5 -25t-28.5 -65q0 -33 21.5 -52.5t84.5 -45.5q77 -32 115.5 -75t38.5 -115q0 -64 -31.5 -118.5t-92.5 -87.5t-146 -33q-136 0 -223 98l80 77q32 -33 66.5 -49.5t79.5 -16.5q56 0 89 30t33 81q0 38 -22 60.5
t-83 48.5q-82 33 -118 74t-36 107q0 56 29.5 105t85.5 78.5t130 29.5q126 0 203 -88zM366 952l92 -60l-147 -153l-56 37z" />
    <glyph glyph-name="Zacute.loclPLK" horiz-adv-x="479" 
d="M-21 0l15 107l345 473h-251l16 112h406l-16 -109l-343 -469h284l-32 -114h-424zM352 952l92 -60l-147 -153l-56 37z" />
    <glyph glyph-name="Eng.ss01" horiz-adv-x="586" 
d="M530.5 666q36.5 -41 36.5 -107q0 -11 -2 -33l-73 -526l-7 -48q-13 -84 -64.5 -127.5t-128.5 -43.5q-71 0 -121 42l56 82q16 -10 28.5 -14.5t29.5 -4.5q25 0 41 16t20 46l7 52l71 513q2 18 2 25q0 62 -56 62q-33 0 -63 -17t-67 -52l-75 -531h-139l97 692h121l1 -64
q42 39 84.5 59t93.5 20q71 0 107.5 -41z" />
    <glyph glyph-name="uni019D.ss01" horiz-adv-x="586" 
d="M530 666q37 -41 37 -107q0 -22 -2 -34l-73 -525h-139l71 513q2 18 2 26q0 61 -56 61q-33 0 -63 -17t-67 -52l-75 -531l-7 -48q-13 -84 -64.5 -127.5t-128.5 -43.5q-71 0 -121 42l56 82q16 -10 28.5 -14.5t29.5 -4.5q25 0 41 16t20 46l7 52l97 692h122l1 -63
q41 39 84 58.5t92 19.5q71 0 108 -41z" />
    <glyph glyph-name="uni2C64.ss01" horiz-adv-x="387" 
d="M452 696l-40 -135q-22 8 -50 8q-52 0 -83.5 -34t-54.5 -105l-59 -430l-7 -56q-1 -5 -1 -15q0 -43 39 -43q18 0 30.5 4t34.5 15l36 -84q-56 -40 -127 -40q-72 0 -112 36.5t-40 105.5q0 21 2 33l6 44l97 692h121l-2 -90q26 51 63 77.5t89 26.5q35 0 58 -10z" />
    <glyph glyph-name="uni0181.ss02" horiz-adv-x="531" 
d="M452 393q59 -48 59 -138q0 -65 -27.5 -123t-89.5 -95t-159 -37h-209l97 692h379l-31 -109h-224l-20 -142h60q106 0 165 -48zM335 146.5q30 41.5 30 104.5q0 89 -94 89h-58l-33 -235h57q68 0 98 41.5z" />
    <glyph glyph-name="uniA78D.ss02" horiz-adv-x="538" 
d="M437 0h-139l36 252h-307l62 440h139l-46 -328h167l46 328h139z" />
    <glyph glyph-name="uni0299" unicode="&#x299;" horiz-adv-x="485" 
d="M342 289q109 -11 109 -105q0 -91 -64.5 -137.5t-172.5 -46.5h-191l72 524q100 21 182 21q87 0 137 -33.5t50 -93.5q0 -103 -122 -129zM308 342.5q22 22.5 22 62.5q0 26 -15 37.5t-46 11.5q-30 0 -51 -4l-19 -130h49q38 0 60 22.5zM287.5 116.5q28.5 23.5 28.5 73.5
q0 29 -17 40.5t-53 11.5h-58l-21 -149h47q45 0 73.5 23.5z" />
    <glyph glyph-name="uni0262" unicode="&#x262;" horiz-adv-x="505" 
d="M410.5 527q41.5 -19 74.5 -53l-75 -71q-24 22 -47 32t-53 10q-71 0 -106.5 -74.5t-35.5 -179.5q0 -57 18.5 -81.5t56.5 -24.5q33 0 70 16l15 113h-64v93h202l-36 -262q-41 -27 -92 -43t-107 -16q-100 0 -151 52.5t-51 153.5q0 103 35.5 183.5t100 125.5t146.5 45
q58 0 99.5 -19z" />
    <glyph glyph-name="uni029B" unicode="&#x29b;" 
d="M664 717l-50 -82q-28 18 -57 18q-24 0 -37.5 -15.5t-18.5 -47.5l-17 -116l-66 -63q-28 17 -53.5 25.5t-55.5 8.5q-71 0 -106.5 -74.5t-35.5 -179.5q0 -57 19 -81.5t56 -24.5q34 0 71 16l15 113h-64v93h202l-36 -262q-92 -59 -200 -59q-99 0 -150 52.5t-51 153.5
q0 102 35.5 183t98 126t138.5 45q37 0 73 -13l10 70q11 75 52.5 114t111.5 39q67 0 116 -39z" />
    <glyph glyph-name="uni029C" unicode="&#x29c;" horiz-adv-x="523" 
d="M292 0l31 218h-136l-31 -218h-134l74 530h134l-29 -209h136l29 209h134l-74 -530h-134z" />
    <glyph glyph-name="uni026A" unicode="&#x26a;" horiz-adv-x="295" 
d="M306 433h-68l-47 -336h68l-14 -97h-269l14 97h67l46 336h-67l14 97h269z" />
    <glyph glyph-name="uni029F" unicode="&#x29f;" horiz-adv-x="398" 
d="M230 530l-57 -423h197l-30 -107h-318l74 530h134z" />
    <glyph glyph-name="uni0274" unicode="&#x274;" horiz-adv-x="524" 
d="M428 0h-160l-91 407q0 -66 -2.5 -118t-11.5 -120l-24 -169h-117l74 530h160l91 -407l-1 48q0 78 11 151l29 208h116z" />
    <glyph glyph-name="uni0276" unicode="&#x276;" horiz-adv-x="679" 
d="M671 434h-207q28 -51 28 -117v-1h140l-13 -95h-140q-18 -72 -63 -124h221l-14 -97h-317q-40 -16 -84 -16q-91 0 -142 56.5t-51 157.5q0 85 28 164.5t89 131t154 51.5q47 0 80 -15h318zM182.5 110.5q16.5 -23.5 50.5 -23.5q47 0 75 43.5t39.5 103.5t11.5 116q0 93 -67 93
q-46 0 -74.5 -42.5t-40 -102t-11.5 -114.5q0 -50 16.5 -73.5z" />
    <glyph glyph-name="uni0280" unicode="&#x280;" horiz-adv-x="480" 
d="M337 213l90 -213h-134l-70 190h-46l-26 -190h-129l74 530h159q93 0 142 -37.5t49 -112.5q0 -117 -109 -167zM190 282h37q43 0 65 24.5t22 68.5q0 32 -16.5 45.5t-51.5 13.5h-35z" />
    <glyph glyph-name="uni0281" unicode="&#x281;" horiz-adv-x="480" 
d="M420 194q0 -95 -62.5 -144.5t-168.5 -49.5h-167l74 530h129l-27 -190h48l121 190h135l-149 -216q67 -37 67 -120zM263.5 119q24.5 23 24.5 70q0 31 -17 44.5t-49 13.5h-37l-21 -151h31q44 0 68.5 23z" />
    <glyph glyph-name="uni028F" unicode="&#x28f;" horiz-adv-x="453" 
d="M492 530l-208 -335l-28 -195h-134l28 194l-114 336h141l52 -241l120 241h143z" />
    <glyph glyph-name="a" unicode="a" horiz-adv-x="521" 
d="M498 496l-51 -354q-3 -16 -3 -27q0 -15 5.5 -24t19.5 -15l-40 -90q-90 10 -106 83q-30 -41 -64 -63t-79 -22q-73 0 -113 53t-40 144q0 89 29.5 172t93.5 137.5t162 54.5q97 0 186 -49zM226.5 406q-31.5 -40 -46.5 -101.5t-15 -125.5q0 -50 14 -71.5t42 -21.5
q26 0 49 19.5t47 56.5l39 275q-24 9 -50 9q-48 0 -79.5 -40z" />
    <glyph glyph-name="aacute" unicode="&#xe1;" horiz-adv-x="521" 
d="M498 496l-51 -354q-3 -16 -3 -27q0 -15 5.5 -24t19.5 -15l-40 -90q-90 10 -106 83q-30 -41 -64 -63t-79 -22q-73 0 -113 53t-40 144q0 89 29.5 172t93.5 137.5t162 54.5q97 0 186 -49zM226.5 406q-31.5 -40 -46.5 -101.5t-15 -125.5q0 -50 14 -71.5t42 -21.5
q26 0 49 19.5t47 56.5l39 275q-24 9 -50 9q-48 0 -79.5 -40zM425 821l46 -102l-220 -91l-33 67z" />
    <glyph glyph-name="abreve" unicode="&#x103;" horiz-adv-x="521" 
d="M498 496l-51 -354q-3 -16 -3 -27q0 -15 5.5 -24t19.5 -15l-40 -90q-90 10 -106 83q-30 -41 -64 -63t-79 -22q-73 0 -113 53t-40 144q0 89 29.5 172t93.5 137.5t162 54.5q97 0 186 -49zM226.5 406q-31.5 -40 -46.5 -101.5t-15 -125.5q0 -50 14 -71.5t42 -21.5
q26 0 49 19.5t47 56.5l39 275q-24 9 -50 9q-48 0 -79.5 -40zM231 681q-35 45 -30 116l75 11q6 -75 63 -75q31 0 54 20.5t36 57.5l72 -18q-15 -71 -59 -114t-109 -43q-67 0 -102 45z" />
    <glyph glyph-name="uni1EAF" unicode="&#x1eaf;" horiz-adv-x="521" 
d="M441 962l67 -71l-158 -139l-48 45zM233.5 643.5q-34.5 43.5 -30.5 107.5l74 12q7 -66 64 -66q31 0 52.5 18.5t34.5 50.5l75 -19q-14 -65 -58 -106t-110 -41q-67 0 -101.5 43.5zM498 496l-51 -354q-3 -16 -3 -27q0 -15 5.5 -24t19.5 -15l-40 -90q-90 10 -106 83
q-30 -41 -64 -63t-79 -22q-73 0 -113 53t-40 144q0 89 29.5 172t93.5 137.5t162 54.5q97 0 186 -49zM226.5 406q-31.5 -40 -46.5 -101.5t-15 -125.5q0 -50 14 -71.5t42 -21.5q26 0 49 19.5t47 56.5l39 275q-24 9 -50 9q-48 0 -79.5 -40z" />
    <glyph glyph-name="uni1EB7" unicode="&#x1eb7;" horiz-adv-x="521" 
d="M498 496l-51 -354q-3 -16 -3 -27q0 -15 5.5 -24t19.5 -15l-40 -90q-90 10 -106 83q-30 -41 -64 -63t-79 -22q-73 0 -113 53t-40 144q0 89 29.5 172t93.5 137.5t162 54.5q97 0 186 -49zM226.5 406q-31.5 -40 -46.5 -101.5t-15 -125.5q0 -50 14 -71.5t42 -21.5
q26 0 49 19.5t47 56.5l39 275q-24 9 -50 9q-48 0 -79.5 -40zM231 681q-35 45 -30 116l75 11q6 -75 63 -75q31 0 54 20.5t36 57.5l72 -18q-15 -71 -59 -114t-109 -43q-67 0 -102 45zM286.5 -85q19.5 -20 19.5 -51q0 -39 -25.5 -64.5t-64.5 -25.5q-33 0 -52.5 19.5t-19.5 51.5
q0 39 26 64.5t64 25.5q33 0 52.5 -20z" />
    <glyph glyph-name="uni1EB1" unicode="&#x1eb1;" horiz-adv-x="521" 
d="M304 960l93 -167l-56 -41l-120 144zM232.5 643.5q-34.5 43.5 -30.5 107.5l74 12q7 -66 64 -66q31 0 52.5 18.5t34.5 50.5l75 -19q-14 -65 -58 -106t-110 -41q-67 0 -101.5 43.5zM498 496l-51 -354q-3 -16 -3 -27q0 -15 5.5 -24t19.5 -15l-40 -90q-90 10 -106 83
q-30 -41 -64 -63t-79 -22q-73 0 -113 53t-40 144q0 89 29.5 172t93.5 137.5t162 54.5q97 0 186 -49zM226.5 406q-31.5 -40 -46.5 -101.5t-15 -125.5q0 -50 14 -71.5t42 -21.5q26 0 49 19.5t47 56.5l39 275q-24 9 -50 9q-48 0 -79.5 -40z" />
    <glyph glyph-name="uni1EB3" unicode="&#x1eb3;" horiz-adv-x="521" 
d="M498 496l-51 -354q-3 -16 -3 -27q0 -15 5.5 -24t19.5 -15l-40 -90q-90 10 -106 83q-30 -41 -64 -63t-79 -22q-73 0 -113 53t-40 144q0 89 29.5 172t93.5 137.5t162 54.5q97 0 186 -49zM226.5 406q-31.5 -40 -46.5 -101.5t-15 -125.5q0 -50 14 -71.5t42 -21.5
q26 0 49 19.5t47 56.5l39 275q-24 9 -50 9q-48 0 -79.5 -40zM234.5 643.5q-34.5 43.5 -30.5 107.5l74 12q7 -66 64 -66q31 0 52.5 18.5t34.5 50.5l75 -19q-14 -65 -58 -106t-110 -41q-67 0 -101.5 43.5zM322 846q35 3 52.5 13.5t17.5 33.5q0 26 -30 26q-26 0 -54 -14l-17 63
q43 24 93 24q49 0 76 -25.5t27 -66.5t-23 -65t-65 -32l-8 -54h-81z" />
    <glyph glyph-name="uni1EB5" unicode="&#x1eb5;" horiz-adv-x="521" 
d="M378.5 795.5q-13.5 6.5 -31.5 19.5q-9 7 -19 12.5t-19 5.5q-15 0 -27 -10.5t-26 -32.5l-63 35q25 46 56.5 74t66.5 28q20 0 33.5 -6.5t30.5 -19.5q22 -18 36 -18t25.5 10t26.5 32l62 -35q-24 -47 -55.5 -74t-65.5 -27q-17 0 -30.5 6.5zM231.5 643.5
q-34.5 43.5 -30.5 107.5l74 12q7 -66 64 -66q31 0 52.5 18.5t34.5 50.5l75 -19q-14 -65 -58 -106t-110 -41q-67 0 -101.5 43.5zM498 496l-51 -354q-3 -16 -3 -27q0 -15 5.5 -24t19.5 -15l-40 -90q-90 10 -106 83q-30 -41 -64 -63t-79 -22q-73 0 -113 53t-40 144
q0 89 29.5 172t93.5 137.5t162 54.5q97 0 186 -49zM226.5 406q-31.5 -40 -46.5 -101.5t-15 -125.5q0 -50 14 -71.5t42 -21.5q26 0 49 19.5t47 56.5l39 275q-24 9 -50 9q-48 0 -79.5 -40z" />
    <glyph glyph-name="uni01CE" unicode="&#x1ce;" horiz-adv-x="521" 
d="M498 496l-51 -354q-3 -16 -3 -27q0 -15 5.5 -24t19.5 -15l-40 -90q-90 10 -106 83q-30 -41 -64 -63t-79 -22q-73 0 -113 53t-40 144q0 89 29.5 172t93.5 137.5t162 54.5q97 0 186 -49zM226.5 406q-31.5 -40 -46.5 -101.5t-15 -125.5q0 -50 14 -71.5t42 -21.5
q26 0 49 19.5t47 56.5l39 275q-24 9 -50 9q-48 0 -79.5 -40zM469 802l46 -56l-144 -129h-82l-108 129l53 56l104 -88z" />
    <glyph glyph-name="acircumflex" unicode="&#xe2;" horiz-adv-x="521" 
d="M498 496l-51 -354q-3 -16 -3 -27q0 -15 5.5 -24t19.5 -15l-40 -90q-90 10 -106 83q-30 -41 -64 -63t-79 -22q-73 0 -113 53t-40 144q0 89 29.5 172t93.5 137.5t162 54.5q97 0 186 -49zM226.5 406q-31.5 -40 -46.5 -101.5t-15 -125.5q0 -50 14 -71.5t42 -21.5
q26 0 49 19.5t47 56.5l39 275q-24 9 -50 9q-48 0 -79.5 -40zM219 626l-47 57l144 129h82l110 -132l-57 -54l-104 89z" />
    <glyph glyph-name="uni1EA5" unicode="&#x1ea5;" horiz-adv-x="521" 
d="M569 935l67 -71l-158 -139l-48 45zM210 587l-48 56l144 125h82l110 -128l-54 -53l-107 83zM498 496l-51 -354q-3 -16 -3 -27q0 -15 5.5 -24t19.5 -15l-40 -90q-90 10 -106 83q-30 -41 -64 -63t-79 -22q-73 0 -113 53t-40 144q0 89 29.5 172t93.5 137.5t162 54.5
q97 0 186 -49zM226.5 406q-31.5 -40 -46.5 -101.5t-15 -125.5q0 -50 14 -71.5t42 -21.5q26 0 49 19.5t47 56.5l39 275q-24 9 -50 9q-48 0 -79.5 -40z" />
    <glyph glyph-name="uni1EAD" unicode="&#x1ead;" horiz-adv-x="521" 
d="M498 496l-51 -354q-3 -16 -3 -27q0 -15 5.5 -24t19.5 -15l-40 -90q-90 10 -106 83q-30 -41 -64 -63t-79 -22q-73 0 -113 53t-40 144q0 89 29.5 172t93.5 137.5t162 54.5q97 0 186 -49zM226.5 406q-31.5 -40 -46.5 -101.5t-15 -125.5q0 -50 14 -71.5t42 -21.5
q26 0 49 19.5t47 56.5l39 275q-24 9 -50 9q-48 0 -79.5 -40zM219 626l-47 57l144 129h82l110 -132l-57 -54l-104 89zM286.5 -85q19.5 -20 19.5 -51q0 -39 -25.5 -64.5t-64.5 -25.5q-33 0 -52.5 19.5t-19.5 51.5q0 39 26 64.5t64 25.5q33 0 52.5 -20z" />
    <glyph glyph-name="uni1EA7" unicode="&#x1ea7;" horiz-adv-x="521" 
d="M166 933l93 -167l-56 -41l-120 144zM210 587l-48 56l144 125h82l110 -128l-54 -53l-107 83zM498 496l-51 -354q-3 -16 -3 -27q0 -15 5.5 -24t19.5 -15l-40 -90q-90 10 -106 83q-30 -41 -64 -63t-79 -22q-73 0 -113 53t-40 144q0 89 29.5 172t93.5 137.5t162 54.5
q97 0 186 -49zM226.5 406q-31.5 -40 -46.5 -101.5t-15 -125.5q0 -50 14 -71.5t42 -21.5q26 0 49 19.5t47 56.5l39 275q-24 9 -50 9q-48 0 -79.5 -40z" />
    <glyph glyph-name="uni1EA9" unicode="&#x1ea9;" horiz-adv-x="521" 
d="M498 496l-51 -354q-3 -16 -3 -27q0 -15 5.5 -24t19.5 -15l-40 -90q-90 10 -106 83q-30 -41 -64 -63t-79 -22q-73 0 -113 53t-40 144q0 89 29.5 172t93.5 137.5t162 54.5q97 0 186 -49zM226.5 406q-31.5 -40 -46.5 -101.5t-15 -125.5q0 -50 14 -71.5t42 -21.5
q26 0 49 19.5t47 56.5l39 275q-24 9 -50 9q-48 0 -79.5 -40zM207 587l-48 56l144 125h82l110 -128l-54 -53l-107 83zM454 838q35 3 52.5 13.5t17.5 33.5q0 26 -30 26q-26 0 -54 -14l-17 63q43 24 93 24q49 0 76 -25.5t27 -66.5t-23 -65t-65 -32l-8 -54h-81z" />
    <glyph glyph-name="uni1EAB" unicode="&#x1eab;" horiz-adv-x="521" 
d="M380.5 795.5q-13.5 6.5 -31.5 19.5q-9 7 -19 12.5t-19 5.5q-15 0 -27 -10.5t-26 -32.5l-63 35q25 46 56.5 74t66.5 28q20 0 33.5 -6.5t30.5 -19.5q22 -18 36 -18t25.5 10t26.5 32l62 -35q-24 -47 -55.5 -74t-65.5 -27q-17 0 -30.5 6.5zM209 581l-48 56l144 125h82
l110 -128l-54 -53l-107 83zM498 496l-51 -354q-3 -16 -3 -27q0 -15 5.5 -24t19.5 -15l-40 -90q-90 10 -106 83q-30 -41 -64 -63t-79 -22q-73 0 -113 53t-40 144q0 89 29.5 172t93.5 137.5t162 54.5q97 0 186 -49zM226.5 406q-31.5 -40 -46.5 -101.5t-15 -125.5
q0 -50 14 -71.5t42 -21.5q26 0 49 19.5t47 56.5l39 275q-24 9 -50 9q-48 0 -79.5 -40z" />
    <glyph glyph-name="uni0201" unicode="&#x201;" horiz-adv-x="521" 
d="M498 496l-51 -354q-3 -16 -3 -27q0 -15 5.5 -24t19.5 -15l-40 -90q-90 10 -106 83q-30 -41 -64 -63t-79 -22q-73 0 -113 53t-40 144q0 89 29.5 172t93.5 137.5t162 54.5q97 0 186 -49zM226.5 406q-31.5 -40 -46.5 -101.5t-15 -125.5q0 -50 14 -71.5t42 -21.5
q26 0 49 19.5t47 56.5l39 275q-24 9 -50 9q-48 0 -79.5 -40zM249 851l61 -191l-77 -32l-85 178zM402 850l53 -189l-77 -28l-78 175z" />
    <glyph glyph-name="adieresis" unicode="&#xe4;" horiz-adv-x="521" 
d="M498 496l-51 -354q-3 -16 -3 -27q0 -15 5.5 -24t19.5 -15l-40 -90q-90 10 -106 83q-30 -41 -64 -63t-79 -22q-73 0 -113 53t-40 144q0 89 29.5 172t93.5 137.5t162 54.5q97 0 186 -49zM226.5 406q-31.5 -40 -46.5 -101.5t-15 -125.5q0 -50 14 -71.5t42 -21.5
q26 0 49 19.5t47 56.5l39 275q-24 9 -50 9q-48 0 -79.5 -40zM189.5 663.5q-17.5 17.5 -17.5 44.5q0 34 23 57t56 23q29 0 46.5 -17t17.5 -45q0 -35 -23 -57.5t-56 -22.5q-29 0 -46.5 17.5zM394.5 663.5q-17.5 17.5 -17.5 44.5q0 34 23 57t56 23q29 0 46.5 -17.5t17.5 -44.5
q0 -34 -23 -57t-56 -23q-29 0 -46.5 17.5z" />
    <glyph glyph-name="uni01DF" unicode="&#x1df;" horiz-adv-x="521" 
d="M498 496l-51 -354q-3 -16 -3 -27q0 -15 5.5 -24t19.5 -15l-40 -90q-90 10 -106 83q-30 -41 -64 -63t-79 -22q-73 0 -113 53t-40 144q0 89 29.5 172t93.5 137.5t162 54.5q97 0 186 -49zM226.5 406q-31.5 -40 -46.5 -101.5t-15 -125.5q0 -50 14 -71.5t42 -21.5
q26 0 49 19.5t47 56.5l39 275q-24 9 -50 9q-48 0 -79.5 -40zM182.5 627.5q-17.5 17.5 -17.5 44.5q0 34 23 57t56 23q29 0 46.5 -17t17.5 -45q0 -35 -23 -57.5t-56 -22.5q-29 0 -46.5 17.5zM387.5 627.5q-17.5 17.5 -17.5 44.5q0 34 23 57t56 23q29 0 46.5 -17.5t17.5 -44.5
q0 -34 -23 -57t-56 -23q-29 0 -46.5 17.5zM485 799h-267l14 96h267z" />
    <glyph glyph-name="uni0227" unicode="&#x227;" horiz-adv-x="521" 
d="M498 496l-51 -354q-3 -16 -3 -27q0 -15 5.5 -24t19.5 -15l-40 -90q-90 10 -106 83q-30 -41 -64 -63t-79 -22q-73 0 -113 53t-40 144q0 89 29.5 172t93.5 137.5t162 54.5q97 0 186 -49zM226.5 406q-31.5 -40 -46.5 -101.5t-15 -125.5q0 -50 14 -71.5t42 -21.5
q26 0 49 19.5t47 56.5l39 275q-24 9 -50 9q-48 0 -79.5 -40zM283.5 659q-19.5 20 -19.5 51q0 39 25.5 64.5t64.5 25.5q33 0 52.5 -19.5t19.5 -51.5q0 -39 -26 -64.5t-64 -25.5q-33 0 -52.5 20z" />
    <glyph glyph-name="uni1EA1" unicode="&#x1ea1;" horiz-adv-x="521" 
d="M498 496l-51 -354q-3 -16 -3 -27q0 -15 5.5 -24t19.5 -15l-40 -90q-90 10 -106 83q-30 -41 -64 -63t-79 -22q-73 0 -113 53t-40 144q0 89 29.5 172t93.5 137.5t162 54.5q97 0 186 -49zM226.5 406q-31.5 -40 -46.5 -101.5t-15 -125.5q0 -50 14 -71.5t42 -21.5
q26 0 49 19.5t47 56.5l39 275q-24 9 -50 9q-48 0 -79.5 -40zM286.5 -85q19.5 -20 19.5 -51q0 -39 -25.5 -64.5t-64.5 -25.5q-33 0 -52.5 19.5t-19.5 51.5q0 39 26 64.5t64 25.5q33 0 52.5 -20z" />
    <glyph glyph-name="uni01E1" unicode="&#x1e1;" horiz-adv-x="521" 
d="M498 496l-51 -354q-3 -16 -3 -27q0 -15 5.5 -24t19.5 -15l-40 -90q-90 10 -106 83q-30 -41 -64 -63t-79 -22q-73 0 -113 53t-40 144q0 89 29.5 172t93.5 137.5t162 54.5q97 0 186 -49zM226.5 406q-31.5 -40 -46.5 -101.5t-15 -125.5q0 -50 14 -71.5t42 -21.5
q26 0 49 19.5t47 56.5l39 275q-24 9 -50 9q-48 0 -79.5 -40zM277.5 618q-19.5 20 -19.5 51q0 39 25.5 64.5t64.5 25.5q33 0 52.5 -19.5t19.5 -51.5q0 -39 -26 -64.5t-64 -25.5q-33 0 -52.5 20zM488 794h-267l14 96h267z" />
    <glyph glyph-name="agrave" unicode="&#xe0;" horiz-adv-x="521" 
d="M498 496l-51 -354q-3 -16 -3 -27q0 -15 5.5 -24t19.5 -15l-40 -90q-90 10 -106 83q-30 -41 -64 -63t-79 -22q-73 0 -113 53t-40 144q0 89 29.5 172t93.5 137.5t162 54.5q97 0 186 -49zM226.5 406q-31.5 -40 -46.5 -101.5t-15 -125.5q0 -50 14 -71.5t42 -21.5
q26 0 49 19.5t47 56.5l39 275q-24 9 -50 9q-48 0 -79.5 -40zM296 820l178 -127l-40 -64l-198 90z" />
    <glyph glyph-name="uni1EA3" unicode="&#x1ea3;" horiz-adv-x="521" 
d="M498 496l-51 -354q-3 -16 -3 -27q0 -15 5.5 -24t19.5 -15l-40 -90q-90 10 -106 83q-30 -41 -64 -63t-79 -22q-73 0 -113 53t-40 144q0 89 29.5 172t93.5 137.5t162 54.5q97 0 186 -49zM226.5 406q-31.5 -40 -46.5 -101.5t-15 -125.5q0 -50 14 -71.5t42 -21.5
q26 0 49 19.5t47 56.5l39 275q-24 9 -50 9q-48 0 -79.5 -40zM301 704q35 3 52.5 13.5t17.5 33.5q0 26 -30 26q-26 0 -54 -14l-17 63q43 24 93 24q49 0 76 -25.5t27 -66.5t-23 -65t-65 -32l-8 -54h-81z" />
    <glyph glyph-name="uni0203" unicode="&#x203;" horiz-adv-x="521" 
d="M498 496l-51 -354q-3 -16 -3 -27q0 -15 5.5 -24t19.5 -15l-40 -90q-90 10 -106 83q-30 -41 -64 -63t-79 -22q-73 0 -113 53t-40 144q0 89 29.5 172t93.5 137.5t162 54.5q97 0 186 -49zM226.5 406q-31.5 -40 -46.5 -101.5t-15 -125.5q0 -50 14 -71.5t42 -21.5
q26 0 49 19.5t47 56.5l39 275q-24 9 -50 9q-48 0 -79.5 -40zM179 622q17 71 62 114t111 43q68 0 102 -45t31 -116l-77 -11q-6 76 -65 76q-31 0 -53.5 -20.5t-35.5 -58.5z" />
    <glyph glyph-name="uni0251" unicode="&#x251;" horiz-adv-x="522" 
d="M445 129.5q-1 -6.5 -1 -14.5q0 -15 6 -24t20 -15l-41 -90q-90 10 -106 83q-29 -41 -63.5 -63t-79.5 -22q-73 0 -113 53t-40 144q0 90 29 174t84.5 137t129.5 53q40 0 67.5 -16t45.5 -51l23 52h97l-56 -388q-1 -6 -2 -12.5zM349 387q-20 59 -68 59q-36 0 -62.5 -39
t-40 -100.5t-13.5 -126.5q0 -51 14.5 -72.5t42.5 -21.5q26 0 48.5 19.5t46.5 56.5z" />
    <glyph glyph-name="uni0252" unicode="&#x252;" horiz-adv-x="522" 
d="M455 493q40 -53 40 -144q0 -90 -29 -174t-84.5 -137t-129.5 -53q-40 0 -67.5 16t-45.5 51l-23 -52h-97l56 388q1 6 2 12.5t1 14.5q0 15 -6 24t-20 15l41 90q90 -10 106 -83q29 41 63.5 63t79.5 22q73 0 113 -53zM303.5 123q26.5 39 40 100.5t13.5 126.5q0 51 -14.5 72.5
t-42.5 21.5q-26 0 -48.5 -19.5t-46.5 -56.5l-32 -225q20 -59 68 -59q36 0 62.5 39z" />
    <glyph glyph-name="amacron" unicode="&#x101;" horiz-adv-x="521" 
d="M498 496l-51 -354q-3 -16 -3 -27q0 -15 5.5 -24t19.5 -15l-40 -90q-90 10 -106 83q-30 -41 -64 -63t-79 -22q-73 0 -113 53t-40 144q0 89 29.5 172t93.5 137.5t162 54.5q97 0 186 -49zM226.5 406q-31.5 -40 -46.5 -101.5t-15 -125.5q0 -50 14 -71.5t42 -21.5
q26 0 49 19.5t47 56.5l39 275q-24 9 -50 9q-48 0 -79.5 -40zM471 659h-267l14 96h267z" />
    <glyph glyph-name="aogonek" unicode="&#x105;" horiz-adv-x="521" 
d="M444 115q0 -15 5.5 -24t19.5 -15l-40 -90q-72 -30 -97.5 -59.5t-25.5 -58.5q0 -34 42 -34q24 0 54 6l-20 -87q-27 -7 -61 -7q-51 0 -83 28t-32 74q0 105 151 165q-25 19 -34 56q-30 -41 -64 -63t-79 -22q-73 0 -113 53t-40 144q0 89 29.5 172t93.5 137.5t162 54.5
q97 0 186 -49l-51 -354q-3 -16 -3 -27zM356 437q-24 9 -50 9q-48 0 -79.5 -40t-46.5 -101.5t-15 -125.5q0 -50 14 -71.5t42 -21.5q26 0 49 19.5t47 56.5z" />
    <glyph glyph-name="aring" unicode="&#xe5;" horiz-adv-x="521" 
d="M498 496l-51 -354q-3 -16 -3 -27q0 -15 5.5 -24t19.5 -15l-40 -90q-90 10 -106 83q-30 -41 -64 -63t-79 -22q-73 0 -113 53t-40 144q0 89 29.5 172t93.5 137.5t162 54.5q97 0 186 -49zM226.5 406q-31.5 -40 -46.5 -101.5t-15 -125.5q0 -50 14 -71.5t42 -21.5
q26 0 49 19.5t47 56.5l39 275q-24 9 -50 9q-48 0 -79.5 -40zM440.5 825q29.5 -31 29.5 -79q0 -36 -17.5 -67t-48.5 -49t-71 -18q-49 0 -78.5 30.5t-29.5 78.5q0 36 17.5 67t48.5 49.5t70 18.5q50 0 79.5 -31zM318 768.5q-14 -18.5 -14 -44.5q0 -21 9 -32t26 -11
q24 0 38 18.5t14 44.5q0 21 -9 32t-26 11q-24 0 -38 -18.5z" />
    <glyph glyph-name="aringacute" unicode="&#x1fb;" horiz-adv-x="521" 
d="M498 496l-51 -354q-3 -16 -3 -27q0 -15 5.5 -24t19.5 -15l-40 -90q-90 10 -106 83q-30 -41 -64 -63t-79 -22q-73 0 -113 53t-40 144q0 89 29.5 172t93.5 137.5t162 54.5q97 0 186 -49zM226.5 406q-31.5 -40 -46.5 -101.5t-15 -125.5q0 -50 14 -71.5t42 -21.5
q26 0 49 19.5t47 56.5l39 275q-24 9 -50 9q-48 0 -79.5 -40zM436.5 793q29.5 -31 29.5 -79q0 -36 -17.5 -67t-48.5 -49t-71 -18q-49 0 -78.5 30.5t-29.5 78.5q0 36 17.5 67t48.5 49.5t70 18.5q50 0 79.5 -31zM314 736.5q-14 -18.5 -14 -44.5q0 -21 9 -32t26 -11
q24 0 38 18.5t14 44.5q0 21 -9 32t-26 11q-24 0 -38 -18.5zM440 1013l45 -102l-219 -82l-31 67z" />
    <glyph glyph-name="uni2C65" unicode="&#x2c65;" horiz-adv-x="521" 
d="M444 115q0 -15 5.5 -24t19.5 -15l-40 -90q-90 10 -106 83q-29 -41 -63.5 -63t-79.5 -22h-7l-22 -57l-46 13l20 53q-48 18 -73 66.5t-25 121.5q0 89 29.5 172t93.5 137.5t162 54.5q16 0 24 -1l21 55l46 -13l-18 -48q59 -12 113 -42l-51 -354q-3 -16 -3 -27zM171 112
l129 339q-47 -2 -79 -44t-46.5 -103.5t-14.5 -126.5q0 -41 11 -65zM362 441l-13 4l-139 -363h9q53 0 102 78z" />
    <glyph glyph-name="atilde" unicode="&#xe3;" horiz-adv-x="521" 
d="M498 496l-51 -354q-3 -16 -3 -27q0 -15 5.5 -24t19.5 -15l-40 -90q-90 10 -106 83q-30 -41 -64 -63t-79 -22q-73 0 -113 53t-40 144q0 89 29.5 172t93.5 137.5t162 54.5q97 0 186 -49zM226.5 406q-31.5 -40 -46.5 -101.5t-15 -125.5q0 -50 14 -71.5t42 -21.5
q26 0 49 19.5t47 56.5l39 275q-24 9 -50 9q-48 0 -79.5 -40zM361.5 649q-14.5 7 -31.5 20q-12 10 -20.5 14.5t-17.5 4.5q-15 0 -27 -11t-27 -34l-63 36q25 48 57 77.5t67 29.5q20 0 33 -7t32 -21q13 -10 20 -14t16 -4q14 0 25.5 10.5t26.5 33.5l63 -37q-24 -49 -56 -77
t-66 -28q-17 0 -31.5 7z" />
    <glyph glyph-name="uni0250" unicode="&#x250;" horiz-adv-x="488" 
d="M177 164q-2 -18 -2 -23q0 -29 15.5 -41.5t52.5 -12.5q55 0 122 25l27 -90q-87 -37 -179 -37q-86 0 -129.5 35.5t-43.5 105.5q0 17 3 35l31 227q2 20 2 27q0 15 -5 24t-19 15l40 90q40 -5 65.5 -21.5t36.5 -49.5q57 72 147 72q63 0 100 -38t37 -103q0 -98 -67.5 -149
t-177.5 -51h-51zM207 388l-14 -106h36q54 0 83.5 28t29.5 81q0 28 -12 42t-35 14q-50 0 -88 -59z" />
    <glyph glyph-name="ae" unicode="&#xe6;" horiz-adv-x="757" 
d="M350.5 527.5q33.5 -17.5 55.5 -52.5q31 33 74.5 51.5t95.5 18.5q80 0 125.5 -39t45.5 -99q0 -102 -86.5 -149.5t-227.5 -62.5q1 -57 21.5 -82t62.5 -25q31 0 60 11.5t63 35.5l49 -82q-89 -69 -190 -69q-60 0 -103 22t-66 64q-38 -46 -80.5 -65.5t-92.5 -19.5
q-68 0 -107.5 38t-39.5 101q0 83 57 138t192 55h56q9 37 19 61q-6 31 -30.5 48t-60.5 17q-52 0 -127 -26l-19 92q88 36 168 36q52 0 85.5 -17.5zM482.5 402.5q-30.5 -48.5 -41.5 -120.5q173 17 173 119q0 23 -12 36.5t-38 13.5q-51 0 -81.5 -48.5zM261 236q-109 0 -109 -98
q0 -55 49 -55q26 0 50.5 17t51.5 53q-2 13 -2 47q0 27 1 36h-41z" />
    <glyph glyph-name="aeacute" unicode="&#x1fd;" horiz-adv-x="757" 
d="M350.5 527.5q33.5 -17.5 55.5 -52.5q31 33 74.5 51.5t95.5 18.5q80 0 125.5 -39t45.5 -99q0 -102 -86.5 -149.5t-227.5 -62.5q1 -57 21.5 -82t62.5 -25q31 0 60 11.5t63 35.5l49 -82q-89 -69 -190 -69q-60 0 -103 22t-66 64q-38 -46 -80.5 -65.5t-92.5 -19.5
q-68 0 -107.5 38t-39.5 101q0 83 57 138t192 55h56q9 37 19 61q-6 31 -30.5 48t-60.5 17q-52 0 -127 -26l-19 92q88 36 168 36q52 0 85.5 -17.5zM482.5 402.5q-30.5 -48.5 -41.5 -120.5q173 17 173 119q0 23 -12 36.5t-38 13.5q-51 0 -81.5 -48.5zM261 236q-109 0 -109 -98
q0 -55 49 -55q26 0 50.5 17t51.5 53q-2 13 -2 47q0 27 1 36h-41zM522 821l46 -102l-220 -91l-33 67z" />
    <glyph glyph-name="uni01E3" unicode="&#x1e3;" horiz-adv-x="757" 
d="M350.5 527.5q33.5 -17.5 55.5 -52.5q31 33 74.5 51.5t95.5 18.5q80 0 125.5 -39t45.5 -99q0 -102 -86.5 -149.5t-227.5 -62.5q1 -57 21.5 -82t62.5 -25q31 0 60 11.5t63 35.5l49 -82q-89 -69 -190 -69q-60 0 -103 22t-66 64q-38 -46 -80.5 -65.5t-92.5 -19.5
q-68 0 -107.5 38t-39.5 101q0 83 57 138t192 55h56q9 37 19 61q-6 31 -30.5 48t-60.5 17q-52 0 -127 -26l-19 92q88 36 168 36q52 0 85.5 -17.5zM482.5 402.5q-30.5 -48.5 -41.5 -120.5q173 17 173 119q0 23 -12 36.5t-38 13.5q-51 0 -81.5 -48.5zM261 236q-109 0 -109 -98
q0 -55 49 -55q26 0 50.5 17t51.5 53q-2 13 -2 47q0 27 1 36h-41zM568 659h-267l14 96h267z" />
    <glyph glyph-name="b" unicode="b" horiz-adv-x="530" 
d="M464.5 495.5q37.5 -49.5 37.5 -141.5q0 -97 -27.5 -180.5t-91.5 -136.5t-167 -53q-87 0 -191 41l101 716l135 15l-38 -273q28 30 63 46t72 16q69 0 106.5 -49.5zM209 381l-39 -284q31 -11 61 -11q46 0 76 40.5t44 101t14 123.5q0 50 -15 71.5t-43 21.5q-47 0 -98 -63z
" />
    <glyph glyph-name="uni1E03" unicode="&#x1e03;" horiz-adv-x="530" 
d="M464.5 495.5q37.5 -49.5 37.5 -141.5q0 -97 -27.5 -180.5t-91.5 -136.5t-167 -53q-87 0 -191 41l101 716l135 15l-38 -273q28 30 63 46t72 16q69 0 106.5 -49.5zM209 381l-39 -284q31 -11 61 -11q46 0 76 40.5t44 101t14 123.5q0 50 -15 71.5t-43 21.5q-47 0 -98 -63z
M317.5 834q-19.5 20 -19.5 51q0 39 25.5 64.5t64.5 25.5q33 0 52.5 -19.5t19.5 -51.5q0 -39 -26 -64.5t-64 -25.5q-33 0 -52.5 20z" />
    <glyph glyph-name="uni1E05" unicode="&#x1e05;" horiz-adv-x="530" 
d="M464.5 495.5q37.5 -49.5 37.5 -141.5q0 -97 -27.5 -180.5t-91.5 -136.5t-167 -53q-87 0 -191 41l101 716l135 15l-38 -273q28 30 63 46t72 16q69 0 106.5 -49.5zM209 381l-39 -284q31 -11 61 -11q46 0 76 40.5t44 101t14 123.5q0 50 -15 71.5t-43 21.5q-47 0 -98 -63z
M264.5 -85q19.5 -20 19.5 -51q0 -39 -25.5 -64.5t-64.5 -25.5q-33 0 -52.5 19.5t-19.5 51.5q0 39 26 64.5t64 25.5q33 0 52.5 -20z" />
    <glyph glyph-name="uniA7B5" unicode="&#xa7b5;" horiz-adv-x="540" 
d="M99 549q13 98 76 152.5t155 54.5q82 0 131 -46t49 -120q0 -66 -36.5 -118.5t-116.5 -69.5q62 -5 105.5 -44t43.5 -118q0 -58 -25 -117t-77 -98.5t-129 -39.5q-72 0 -120 42l-31 -231l-133 -16zM342 137q29 47 29 107q0 106 -102 106h-32l23 95h23q47 0 71.5 43.5
t24.5 95.5q0 74 -59 74q-37 0 -60.5 -28t-30.5 -85l-60 -425q32 -30 83 -30q61 0 90 47z" />
    <glyph glyph-name="uni0253" unicode="&#x253;" horiz-adv-x="530" 
d="M464.5 495.5q37.5 -49.5 37.5 -141.5q0 -97 -27.5 -180.5t-91.5 -136.5t-167 -53q-87 0 -191 41l71 504l9 66q11 73 61.5 117t133.5 44q68 0 127 -33l-49 -87q-33 17 -71 17q-32 0 -48 -17t-21 -54l-8 -53h1l-6 -46q26 29 61 45.5t72 16.5q69 0 106.5 -49.5zM307 126.5
q30 40.5 44 101t14 123.5q0 50 -15.5 71.5t-43.5 21.5q-46 0 -97 -63l-39 -284q31 -11 61 -11q46 0 76 40.5z" />
    <glyph glyph-name="uni02AD" unicode="&#x2ad;" horiz-adv-x="331" 
d="M318 399h-82l12 88h-104l-12 -88h-82l22 160h269zM262 -1h-82l12 88h-104l-12 -88h-82l22 160h269z" />
    <glyph glyph-name="uni0298" unicode="&#x298;" horiz-adv-x="718" 
d="M569.5 673q62.5 -34 96 -98.5t33.5 -153.5q0 -127 -48 -226t-134 -154.5t-198 -55.5q-84 0 -146.5 34.5t-96.5 99t-34 153.5q0 127 48.5 226t135 154t196.5 55q85 0 147.5 -34zM281.5 564q-54.5 -45 -81.5 -122.5t-27 -174.5q0 -94 40.5 -139t114.5 -45q78 0 132 44.5
t81 121.5t27 174q0 94 -40.5 140t-113.5 46q-78 0 -132.5 -45zM317.5 289q-17.5 18 -17.5 46q0 36 23 59t59 23q30 0 47.5 -17.5t17.5 -46.5q0 -36 -23.5 -59t-58.5 -23q-30 0 -47.5 18z" />
    <glyph glyph-name="uni02AC" unicode="&#x2ac;" horiz-adv-x="424" 
d="M449 667l-92 -267h-91l-5 195l-62 -195h-90l-21 267h68l7 -206l67 206h83l7 -207l63 207h66zM393 267l-92 -267h-91l-5 195l-62 -195h-90l-21 267h68l7 -206l67 206h83l7 -207l63 207h66z" />
    <glyph glyph-name="uni0180" unicode="&#x180;" horiz-adv-x="539" 
d="M473.5 495.5q37.5 -49.5 37.5 -141.5q0 -97 -27.5 -180.5t-91.5 -136.5t-167 -53q-87 0 -191 41l81 575h-56l12 85h56l8 56l135 15l-10 -71h127l-24 -85h-115l-16 -117q28 30 63 46t72 16q69 0 106.5 -49.5zM316 126.5q30 40.5 44 101t14 123.5q0 50 -15 71.5t-43 21.5
q-47 0 -98 -63l-39 -284q31 -11 61 -11q46 0 76 40.5z" />
    <glyph glyph-name="uni0183" unicode="&#x183;" horiz-adv-x="531" 
d="M464.5 486q37.5 -50 37.5 -145q0 -91 -27.5 -172t-91.5 -133t-167 -52q-87 0 -191 41l101 716h330l-30 -99h-180l-24 -168q28 30 63 46t73 16q69 0 106.5 -50zM307 126q30 40 44 98.5t14 115.5q0 52 -15.5 73.5t-43.5 21.5q-25 0 -50.5 -17t-47.5 -46l-38 -275
q31 -11 61 -11q46 0 76 40z" />
    <glyph glyph-name="c" unicode="c" horiz-adv-x="430" 
d="M453 481l-67 -77q-20 19 -39.5 27.5t-43.5 8.5q-70 0 -102 -75t-32 -170q0 -102 75 -102q25 0 46 8.5t50 27.5l50 -86q-78 -59 -164 -59q-93 0 -145 57.5t-52 157.5q0 85 30 164.5t91.5 130.5t150.5 51q92 0 152 -64z" />
    <glyph glyph-name="cacute" unicode="&#x107;" horiz-adv-x="430" 
d="M453 481l-67 -77q-20 19 -39.5 27.5t-43.5 8.5q-70 0 -102 -75t-32 -170q0 -102 75 -102q25 0 46 8.5t50 27.5l50 -86q-78 -59 -164 -59q-93 0 -145 57.5t-52 157.5q0 85 30 164.5t91.5 130.5t150.5 51q92 0 152 -64zM403 821l46 -102l-220 -91l-33 67z" />
    <glyph glyph-name="ccaron" unicode="&#x10d;" horiz-adv-x="430" 
d="M453 481l-67 -77q-20 19 -39.5 27.5t-43.5 8.5q-70 0 -102 -75t-32 -170q0 -102 75 -102q25 0 46 8.5t50 27.5l50 -86q-78 -59 -164 -59q-93 0 -145 57.5t-52 157.5q0 85 30 164.5t91.5 130.5t150.5 51q92 0 152 -64zM447 802l46 -56l-144 -129h-82l-108 129l53 56
l104 -88z" />
    <glyph glyph-name="ccedilla" unicode="&#xe7;" horiz-adv-x="430" 
d="M247 -15l-6 -38q39 -4 59.5 -26t20.5 -57q0 -29 -15 -56.5t-47 -45t-81 -17.5q-57 0 -96 30l40 62q27 -15 54 -15q21 0 34 9.5t13 27.5q0 19 -16.5 26t-59.5 7l24 98q-68 16 -105 70.5t-37 138.5q0 85 30 164.5t91.5 130.5t150.5 51q92 0 152 -64l-67 -77
q-20 19 -39.5 27.5t-43.5 8.5q-70 0 -102 -75t-32 -170q0 -102 75 -102q25 0 46 8.5t50 27.5l50 -86q-68 -52 -143 -58z" />
    <glyph glyph-name="ccircumflex" unicode="&#x109;" horiz-adv-x="430" 
d="M453 481l-67 -77q-20 19 -39.5 27.5t-43.5 8.5q-70 0 -102 -75t-32 -170q0 -102 75 -102q25 0 46 8.5t50 27.5l50 -86q-78 -59 -164 -59q-93 0 -145 57.5t-52 157.5q0 85 30 164.5t91.5 130.5t150.5 51q92 0 152 -64zM197 626l-47 57l144 129h82l110 -132l-57 -54
l-104 89z" />
    <glyph glyph-name="uni0255" unicode="&#x255;" horiz-adv-x="451" 
d="M393.5 218.5q28.5 -27.5 28.5 -75.5q0 -75 -52.5 -116.5t-132.5 -41.5q-39 0 -66 8l-40 -74l-61 29l40 73q-39 26 -60 72t-21 108q0 85 30 163.5t91.5 129.5t150.5 51q92 0 153 -64l-67 -77q-20 19 -40 27.5t-44 8.5q-70 0 -101.5 -75t-31.5 -170q0 -37 6 -60
q30 59 64 85t79 26q46 0 74.5 -27.5zM309 100.5q18 14.5 18 41.5t-24 27q-20 0 -38 -18t-40 -60q14 -5 36 -5q30 0 48 14.5z" />
    <glyph glyph-name="cdotaccent" unicode="&#x10b;" horiz-adv-x="430" 
d="M453 481l-67 -77q-20 19 -39.5 27.5t-43.5 8.5q-70 0 -102 -75t-32 -170q0 -102 75 -102q25 0 46 8.5t50 27.5l50 -86q-78 -59 -164 -59q-93 0 -145 57.5t-52 157.5q0 85 30 164.5t91.5 130.5t150.5 51q92 0 152 -64zM261.5 659q-19.5 20 -19.5 51q0 39 25.5 64.5
t64.5 25.5q33 0 52.5 -19.5t19.5 -51.5q0 -39 -26 -64.5t-64 -25.5q-33 0 -52.5 20z" />
    <glyph glyph-name="uni0188" unicode="&#x188;" horiz-adv-x="429" 
d="M632 717l-50 -82q-28 18 -57 18q-25 0 -38.5 -16t-18.5 -50l-15 -106l-59 -69q-48 28 -91 28q-70 0 -102 -75t-32 -170q0 -102 75 -102q24 0 45 8.5t51 27.5l50 -86q-78 -59 -164 -59q-93 0 -145 57.5t-52 157.5q0 84 29.5 164t88 131t139.5 51q31 0 56 -9l10 67
q11 75 52.5 114t111.5 39q67 0 116 -39z" />
    <glyph glyph-name="uni0297" unicode="&#x297;" horiz-adv-x="445" 
d="M403.5 529q36.5 -16 65.5 -48l-66 -75q-20 18 -39 26t-42 8q-53 0 -89 -60t-53.5 -152t-17.5 -186q0 -85 18.5 -118.5t54.5 -33.5q24 0 45 8.5t49 27.5l49 -85q-75 -59 -161 -59q-94 0 -144 65.5t-51 195.5q0 137 35 251.5t103 182.5t161 68q46 0 82.5 -16z" />
    <glyph glyph-name="uni023C" unicode="&#x23c;" horiz-adv-x="430" 
d="M290 101.5q21 8.5 50 27.5l50 -86q-78 -59 -164 -59q-21 0 -41 3l-23 -60l-46 13l23 60q-53 23 -81.5 74.5t-28.5 124.5q0 85 30 164.5t91.5 130.5t150.5 51q26 0 45 -4l22 58l45 -13l-22 -59q34 -16 62 -46l-67 -77q-16 15 -33 24l-127 -333q12 -2 18 -2q25 0 46 8.5z
M185 121l122 319h-4q-70 0 -102 -75t-32 -170q0 -48 16 -74z" />
    <glyph glyph-name="d" unicode="d" horiz-adv-x="533" 
d="M541 741l-104 -741h-119l2 74q-58 -90 -143 -90q-72 0 -110.5 52.5t-38.5 146.5q0 85 26 168.5t79 139t130 55.5q69 0 109 -55l36 264zM218.5 402q-27.5 -42 -40 -103t-12.5 -117q0 -96 56 -96q29 0 54 25t53 72l30 216q-13 23 -30 34t-40 11q-43 0 -70.5 -42z" />
    <glyph glyph-name="eth" unicode="&#xf0;" horiz-adv-x="527" 
d="M465.5 546.5q27.5 -66.5 27.5 -158.5q0 -110 -31.5 -202t-93 -146.5t-149.5 -54.5q-87 0 -140 53.5t-53 148.5q0 69 26.5 136.5t77 111t117.5 43.5q38 0 66 -13t50 -39q-4 55 -19 92.5t-49 71.5l-61 -58l-77 41l67 65q-31 14 -83 27l38 90q65 -14 123 -42l79 77l61 -60
l-65 -65q61 -52 88.5 -118.5zM315 149.5q28 63.5 41 177.5q-29 53 -82 53q-59 0 -86 -61t-27 -138q0 -95 68 -95q58 0 86 63.5z" />
    <glyph glyph-name="uni0238" unicode="&#x238;" horiz-adv-x="776" 
d="M712 493.5q35 -51.5 35 -145.5t-27 -177.5t-78 -134.5t-118 -51q-34 0 -60 19.5t-43 56.5l-17 -61h-103v66q-53 -81 -129 -81q-68 0 -106 54.5t-38 148.5q0 92 28 174t79.5 132.5t117.5 50.5q33 0 59 -17.5t40 -49.5l37 263l136 15l-39 -279q52 68 127 68q64 0 99 -51.5z
M263 103.5q21 17.5 44 57.5l33 229q-25 54 -63 54q-35 0 -60 -38.5t-37 -97t-12 -117.5q0 -57 13 -81t38 -24q23 0 44 17.5zM560.5 126q24.5 40 36.5 99.5t12 117.5q0 55 -13 77.5t-38 22.5q-44 0 -85 -61l-33 -233q12 -33 26.5 -48t35.5 -15q34 0 58.5 40z" />
    <glyph glyph-name="dcaron" unicode="&#x10f;" horiz-adv-x="603" 
d="M541 741l-104 -741h-119l2 74q-58 -90 -143 -90q-72 0 -110.5 52.5t-38.5 146.5q0 85 26 168.5t79 139t130 55.5q69 0 109 -55l36 264zM218.5 402q-27.5 -42 -40 -103t-12.5 -117q0 -96 56 -96q29 0 54 25t53 72l30 216q-13 23 -30 34t-40 11q-43 0 -70.5 -42zM593 753
l101 -13l-71 -204l-69 8z" />
    <glyph glyph-name="uni1E13" unicode="&#x1e13;" horiz-adv-x="533" 
d="M541 741l-104 -741h-119l2 74q-58 -90 -143 -90q-72 0 -110.5 52.5t-38.5 146.5q0 85 26 168.5t79 139t130 55.5q69 0 109 -55l36 264zM218.5 402q-27.5 -42 -40 -103t-12.5 -117q0 -96 56 -96q29 0 54 25t53 72l30 216q-13 23 -30 34t-40 11q-43 0 -70.5 -42zM83 -251
l-46 57l144 129h82l109 -132l-56 -54l-104 89z" />
    <glyph glyph-name="dcroat" unicode="&#x111;" horiz-adv-x="543" 
d="M577 599h-56l-84 -599h-119l2 74q-58 -90 -143 -90q-72 0 -110.5 52.5t-38.5 146.5q0 85 26 168.5t79 139t130 55.5q69 0 109 -55l15 108h-117l2 85h126l10 71l133 -14l-8 -57h57zM359 399q-13 23 -30 34t-40 11q-43 0 -70.5 -42t-40 -103t-12.5 -117q0 -96 56 -96
q29 0 54 25t53 72z" />
    <glyph glyph-name="uni0221" unicode="&#x221;" horiz-adv-x="700" 
d="M662 211q27 -26 27 -72q0 -74 -52.5 -114t-133.5 -40q-29 0 -48 4l-38 -70l-62 29l36 62q-44 26 -60 76q-32 -51 -70 -76.5t-84 -25.5q-73 0 -111 52.5t-38 146.5q0 85 25.5 169t79 139t132.5 55q69 0 107 -55l36 264l133 -14l-83 -588q-2 -20 -2 -26q29 58 60.5 84
t75.5 26q43 0 70 -26zM358 399q-13 23 -29 34t-40 11q-43 0 -70.5 -42t-40 -103t-12.5 -117q0 -96 56 -96q28 0 53.5 25t52.5 71zM578 99.5q18 13.5 18 37.5q0 23 -22 23q-16 0 -30.5 -15.5t-36.5 -57.5q7 -1 23 -1q30 0 48 13.5z" />
    <glyph glyph-name="uni1E0B" unicode="&#x1e0b;" horiz-adv-x="533" 
d="M541 741l-104 -741h-119l2 74q-58 -90 -143 -90q-72 0 -110.5 52.5t-38.5 146.5q0 85 26 168.5t79 139t130 55.5q69 0 109 -55l36 264zM218.5 402q-27.5 -42 -40 -103t-12.5 -117q0 -96 56 -96q29 0 54 25t53 72l30 216q-13 23 -30 34t-40 11q-43 0 -70.5 -42zM286.5 834
q-19.5 20 -19.5 51q0 39 25.5 64.5t64.5 25.5q33 0 52.5 -19.5t19.5 -51.5q0 -39 -26 -64.5t-64 -25.5q-33 0 -52.5 20z" />
    <glyph glyph-name="uni1E0D" unicode="&#x1e0d;" horiz-adv-x="533" 
d="M541 741l-104 -741h-119l2 74q-58 -90 -143 -90q-72 0 -110.5 52.5t-38.5 146.5q0 85 26 168.5t79 139t130 55.5q69 0 109 -55l36 264zM218.5 402q-27.5 -42 -40 -103t-12.5 -117q0 -96 56 -96q29 0 54 25t53 72l30 216q-13 23 -30 34t-40 11q-43 0 -70.5 -42zM272.5 -85
q19.5 -20 19.5 -51q0 -39 -25.5 -64.5t-64.5 -25.5q-33 0 -52.5 19.5t-19.5 51.5q0 39 26 64.5t64 25.5q33 0 52.5 -20z" />
    <glyph glyph-name="uni018D" unicode="&#x18d;" horiz-adv-x="522" 
d="M87 -202q-41 18 -71 51l70 67q23 -21 45.5 -31t51.5 -10q37 0 55 17.5t18 46.5q0 23 -15.5 39t-60.5 39q-77 38 -112.5 86t-35.5 123q0 69 27.5 143t87.5 125t152 51q60 0 104.5 -26.5t67.5 -73.5t23 -106q0 -98 -40.5 -167.5t-138.5 -113.5q37 -27 53.5 -56t16.5 -62
q0 -41 -22.5 -77.5t-67.5 -59.5t-109 -23q-58 0 -99 18zM333.5 203.5q22.5 58.5 22.5 140.5q0 47 -17 73t-50 26q-61 0 -90 -68.5t-29 -152.5q0 -44 17 -72t61 -53q63 48 85.5 106.5z" />
    <glyph glyph-name="uni02A4" unicode="&#x2a4;" horiz-adv-x="899" 
d="M877 434l-202 -226q86 -5 129.5 -47.5t43.5 -118.5q0 -78 -34.5 -137t-95.5 -91.5t-137 -32.5q-68 0 -115.5 25.5t-79.5 74.5l81 66q27 -32 53.5 -46t62.5 -14q58 0 92.5 42t34.5 111q0 47 -24 66.5t-76 19.5h-83l1 1l11 82l190 217h-232l-60 -426h-119l2 74
q-58 -90 -143 -90q-72 0 -110.5 52.5t-38.5 146.5q0 85 26 168.5t79 139t130 55.5q69 0 109 -55l36 264l133 -14l-30 -211h379zM359 399q-13 23 -30 34t-40 11q-43 0 -70.5 -42t-40 -103t-12.5 -117q0 -96 56 -96q29 0 54 25t53 72z" />
    <glyph glyph-name="uni0257" unicode="&#x257;" horiz-adv-x="533" 
d="M684 717l-52 -81q-14 9 -27 13t-29 4q-47 0 -56 -62l-9 -61l-74 -530h-119l2 74q-58 -90 -143 -90q-73 0 -111 52.5t-38 146.5q0 85 25.5 169t79 139t132.5 55q69 0 107 -55l5 39l9 60q10 77 57.5 121.5t124.5 44.5q65 0 116 -39zM358 399q-13 23 -29 34t-40 11
q-43 0 -70.5 -42t-40 -103t-12.5 -117q0 -96 56 -96q29 0 54 25t52 72z" />
    <glyph glyph-name="uni1E0F" unicode="&#x1e0f;" horiz-adv-x="533" 
d="M541 741l-104 -741h-119l2 74q-58 -90 -143 -90q-72 0 -110.5 52.5t-38.5 146.5q0 85 26 168.5t79 139t130 55.5q69 0 109 -55l36 264zM218.5 402q-27.5 -42 -40 -103t-12.5 -117q0 -96 56 -96q29 0 54 25t53 72l30 216q-13 23 -30 34t-40 11q-43 0 -70.5 -42zM93 -89
h267l-14 -96h-267z" />
    <glyph glyph-name="uni0256" unicode="&#x256;" horiz-adv-x="536" 
d="M573 -179q-56 -40 -129 -40q-70 0 -109.5 37t-39.5 106q0 21 2 33l6 43l9 66q-23 -37 -56.5 -59.5t-78.5 -22.5q-73 0 -111 52.5t-38 146.5q0 85 25.5 169t79 139t132.5 55q69 0 107 -55l36 264l133 -14l-104 -741l-8 -60q-1 -5 -1 -14q0 -43 43 -43q18 0 31 4t33 14z
M276 111q25 25 52 72l30 216q-13 23 -29 34t-40 11q-43 0 -70.5 -42t-40 -103t-12.5 -117q0 -96 56 -96q29 0 54 25z" />
    <glyph glyph-name="uni018C" unicode="&#x18c;" horiz-adv-x="533" 
d="M437 0h-119l2 74q-58 -90 -144 -90q-72 0 -110.5 52.5t-38.5 146.5q0 82 26 164t79 136t131 54q36 0 63 -14.5t44 -40.5l22 160h-189l14 99h324zM357 390q-13 23 -29.5 34t-39.5 11q-42 0 -69.5 -41t-40 -100t-12.5 -112q0 -96 56 -96q29 0 54 25t52 72z" />
    <glyph glyph-name="uni01F3" unicode="&#x1f3;" horiz-adv-x="939" 
d="M541 741l-104 -741h-119l2 74q-58 -90 -143 -90q-72 0 -110.5 52.5t-38.5 146.5q0 85 26 168.5t79 139t130 55.5q69 0 109 -55l36 264zM218.5 402q-27.5 -42 -40 -103t-12.5 -117q0 -96 56 -96q29 0 54 25t53 72l30 216q-13 23 -30 34t-40 11q-43 0 -70.5 -42zM954 530
l-14 -98l-256 -326h216l-28 -106h-364l14 98l256 327h-192l16 105h352z" />
    <glyph glyph-name="uni02A3" unicode="&#x2a3;" horiz-adv-x="865" 
d="M867 432l-259 -326h219l-28 -106h-481l2 74q-58 -90 -143 -90q-72 0 -110.5 52.5t-38.5 146.5q0 85 26 168.5t79 139t130 55.5q69 0 109 -55l36 264l133 -14l-30 -211h369zM359 399q-13 23 -30 34t-40 11q-43 0 -70.5 -42t-40 -103t-12.5 -117q0 -96 56 -96q29 0 54 25
t53 72zM451 97l256 328h-210z" />
    <glyph glyph-name="uni01C6" unicode="&#x1c6;" horiz-adv-x="939" 
d="M541 741l-104 -741h-119l2 74q-58 -90 -143 -90q-72 0 -110.5 52.5t-38.5 146.5q0 85 26 168.5t79 139t130 55.5q69 0 109 -55l36 264zM218.5 402q-27.5 -42 -40 -103t-12.5 -117q0 -96 56 -96q29 0 54 25t53 72l30 216q-13 23 -30 34t-40 11q-43 0 -70.5 -42zM954 530
l-14 -98l-256 -326h216l-28 -106h-364l14 98l256 327h-192l16 105h352zM927 802l46 -56l-144 -129h-82l-108 129l53 56l104 -88z" />
    <glyph glyph-name="uni02A5" unicode="&#x2a5;" horiz-adv-x="932" 
d="M910 223q28 -26 28 -72q0 -78 -54.5 -114.5t-146.5 -36.5l3 11l-5 -8q-10 -41 -18 -96l-6 -35l-78 4q10 73 22 124h-337l2 74q-58 -90 -143 -90q-72 0 -110.5 52.5t-38.5 146.5q0 85 26 168.5t79 139t130 55.5q69 0 109 -55l36 264l133 -14l-30 -211h369l-13 -92
l-265 -332h83q28 76 64.5 109.5t86.5 33.5q46 0 74 -26zM359 399q-13 23 -30 34t-40 11q-43 0 -70.5 -42t-40 -103t-12.5 -117q0 -96 56 -96q29 0 54 25t53 72zM497 425l-46 -324l258 324h-212zM825 116q20 10 20 35q0 23 -22 23q-37 0 -59 -68h1q40 0 60 10z" />
    <glyph glyph-name="e" unicode="e" horiz-adv-x="486" 
d="M431.5 506q45.5 -39 45.5 -99q0 -102 -86 -149.5t-227 -63.5v-3q0 -103 83 -103q30 0 59 11.5t64 35.5l49 -82q-89 -69 -190 -69q-96 0 -148 54.5t-52 154.5q0 87 29 167.5t91.5 132.5t156.5 52q80 0 125.5 -39zM343 401q0 23 -11.5 36.5t-37.5 13.5q-50 0 -80 -49
t-42 -121q171 17 171 120z" />
    <glyph glyph-name="eacute" unicode="&#xe9;" horiz-adv-x="486" 
d="M431.5 506q45.5 -39 45.5 -99q0 -102 -86 -149.5t-227 -63.5v-3q0 -103 83 -103q30 0 59 11.5t64 35.5l49 -82q-89 -69 -190 -69q-96 0 -148 54.5t-52 154.5q0 87 29 167.5t91.5 132.5t156.5 52q80 0 125.5 -39zM343 401q0 23 -11.5 36.5t-37.5 13.5q-50 0 -80 -49
t-42 -121q171 17 171 120zM402 821l46 -102l-220 -91l-33 67z" />
    <glyph glyph-name="ebreve" unicode="&#x115;" horiz-adv-x="486" 
d="M431.5 506q45.5 -39 45.5 -99q0 -102 -86 -149.5t-227 -63.5v-3q0 -103 83 -103q30 0 59 11.5t64 35.5l49 -82q-89 -69 -190 -69q-96 0 -148 54.5t-52 154.5q0 87 29 167.5t91.5 132.5t156.5 52q80 0 125.5 -39zM343 401q0 23 -11.5 36.5t-37.5 13.5q-50 0 -80 -49
t-42 -121q171 17 171 120zM208 681q-35 45 -30 116l75 11q6 -75 63 -75q31 0 54 20.5t36 57.5l72 -18q-15 -71 -59 -114t-109 -43q-67 0 -102 45z" />
    <glyph glyph-name="ecaron" unicode="&#x11b;" horiz-adv-x="486" 
d="M431.5 506q45.5 -39 45.5 -99q0 -102 -86 -149.5t-227 -63.5v-3q0 -103 83 -103q30 0 59 11.5t64 35.5l49 -82q-89 -69 -190 -69q-96 0 -148 54.5t-52 154.5q0 87 29 167.5t91.5 132.5t156.5 52q80 0 125.5 -39zM343 401q0 23 -11.5 36.5t-37.5 13.5q-50 0 -80 -49
t-42 -121q171 17 171 120zM446 802l46 -56l-144 -129h-82l-108 129l53 56l104 -88z" />
    <glyph glyph-name="uni0229" unicode="&#x229;" horiz-adv-x="486" 
d="M431.5 506q45.5 -39 45.5 -99q0 -102 -86 -149.5t-227 -63.5v-3q0 -103 83 -103q30 0 59 11.5t64 35.5l49 -82q-76 -59 -159 -67l-6 -39q39 -4 59.5 -26t20.5 -57q0 -29 -15 -56.5t-47 -45t-81 -17.5q-57 0 -96 30l40 62q27 -15 54 -15q21 0 34 9.5t13 27.5
q0 19 -16.5 26t-59.5 7l23 96q-75 12 -114.5 65t-39.5 140t29 167.5t91.5 132.5t156.5 52q80 0 125.5 -39zM343 401q0 23 -11.5 36.5t-37.5 13.5q-50 0 -80 -49t-42 -121q171 17 171 120z" />
    <glyph glyph-name="ecircumflex" unicode="&#xea;" horiz-adv-x="486" 
d="M431.5 506q45.5 -39 45.5 -99q0 -102 -86 -149.5t-227 -63.5v-3q0 -103 83 -103q30 0 59 11.5t64 35.5l49 -82q-89 -69 -190 -69q-96 0 -148 54.5t-52 154.5q0 87 29 167.5t91.5 132.5t156.5 52q80 0 125.5 -39zM343 401q0 23 -11.5 36.5t-37.5 13.5q-50 0 -80 -49
t-42 -121q171 17 171 120zM196 626l-47 57l144 129h82l110 -132l-57 -54l-104 89z" />
    <glyph glyph-name="uni1EBF" unicode="&#x1ebf;" horiz-adv-x="486" 
d="M613 864l-158 -139l-48 45l139 165zM314 670l-127 -83l-48 56l144 125h82l110 -128l-54 -53zM431.5 506q45.5 -39 45.5 -99q0 -102 -86 -149.5t-227 -63.5v-3q0 -103 83 -103q30 0 59 11.5t64 35.5l49 -82q-89 -69 -190 -69q-96 0 -148 54.5t-52 154.5q0 87 29 167.5
t91.5 132.5t156.5 52q80 0 125.5 -39zM343 401q0 23 -11.5 36.5t-37.5 13.5q-50 0 -80 -49t-42 -121q171 17 171 120z" />
    <glyph glyph-name="uni1EC7" unicode="&#x1ec7;" horiz-adv-x="486" 
d="M431.5 506q45.5 -39 45.5 -99q0 -102 -86 -149.5t-227 -63.5v-3q0 -103 83 -103q30 0 59 11.5t64 35.5l49 -82q-89 -69 -190 -69q-96 0 -148 54.5t-52 154.5q0 87 29 167.5t91.5 132.5t156.5 52q80 0 125.5 -39zM343 401q0 23 -11.5 36.5t-37.5 13.5q-50 0 -80 -49
t-42 -121q171 17 171 120zM196 626l-47 57l144 129h82l110 -132l-57 -54l-104 89zM266.5 -85q19.5 -20 19.5 -51q0 -39 -25.5 -64.5t-64.5 -25.5q-33 0 -52.5 19.5t-19.5 51.5q0 39 26 64.5t64 25.5q33 0 52.5 -20z" />
    <glyph glyph-name="uni1EC1" unicode="&#x1ec1;" horiz-adv-x="486" 
d="M236 766l-56 -41l-120 144l83 64zM187 587l-48 56l144 125h82l110 -128l-54 -53l-107 83zM431.5 506q45.5 -39 45.5 -99q0 -102 -86 -149.5t-227 -63.5v-3q0 -103 83 -103q30 0 59 11.5t64 35.5l49 -82q-89 -69 -190 -69q-96 0 -148 54.5t-52 154.5q0 87 29 167.5
t91.5 132.5t156.5 52q80 0 125.5 -39zM343 401q0 23 -11.5 36.5t-37.5 13.5q-50 0 -80 -49t-42 -121q171 17 171 120z" />
    <glyph glyph-name="uni1EC3" unicode="&#x1ec3;" horiz-adv-x="486" 
d="M431.5 506q45.5 -39 45.5 -99q0 -102 -86 -149.5t-227 -63.5v-3q0 -103 83 -103q30 0 59 11.5t64 35.5l49 -82q-89 -69 -190 -69q-96 0 -148 54.5t-52 154.5q0 87 29 167.5t91.5 132.5t156.5 52q80 0 125.5 -39zM343 401q0 23 -11.5 36.5t-37.5 13.5q-50 0 -80 -49
t-42 -121q171 17 171 120zM184 587l-48 56l144 125h82l110 -128l-54 -53l-107 83zM431 838q35 3 52.5 13.5t17.5 33.5q0 26 -30 26q-26 0 -54 -14l-17 63q43 24 93 24q49 0 76 -25.5t27 -66.5t-23 -65t-65 -32l-8 -54h-81z" />
    <glyph glyph-name="uni1EC5" unicode="&#x1ec5;" horiz-adv-x="486" 
d="M261 822.5q-12 -10.5 -26 -32.5l-63 35q25 46 56.5 74t66.5 28q20 0 33.5 -6.5t30.5 -19.5q22 -18 36 -18t25.5 10t26.5 32l62 -35q-24 -47 -55.5 -74t-65.5 -27q-17 0 -30.5 6.5t-31.5 19.5q-9 7 -19 12.5t-19 5.5q-15 0 -27 -10.5zM313 664l-127 -83l-48 56l144 125h82
l110 -128l-54 -53zM431.5 506q45.5 -39 45.5 -99q0 -102 -86 -149.5t-227 -63.5v-3q0 -103 83 -103q30 0 59 11.5t64 35.5l49 -82q-89 -69 -190 -69q-96 0 -148 54.5t-52 154.5q0 87 29 167.5t91.5 132.5t156.5 52q80 0 125.5 -39zM343 401q0 23 -11.5 36.5t-37.5 13.5
q-50 0 -80 -49t-42 -121q171 17 171 120z" />
    <glyph glyph-name="uni0205" unicode="&#x205;" horiz-adv-x="486" 
d="M431.5 506q45.5 -39 45.5 -99q0 -102 -86 -149.5t-227 -63.5v-3q0 -103 83 -103q30 0 59 11.5t64 35.5l49 -82q-89 -69 -190 -69q-96 0 -148 54.5t-52 154.5q0 87 29 167.5t91.5 132.5t156.5 52q80 0 125.5 -39zM343 401q0 23 -11.5 36.5t-37.5 13.5q-50 0 -80 -49
t-42 -121q171 17 171 120zM226 851l61 -191l-77 -32l-85 178zM379 850l53 -189l-77 -28l-78 175z" />
    <glyph glyph-name="edieresis" unicode="&#xeb;" horiz-adv-x="486" 
d="M431.5 506q45.5 -39 45.5 -99q0 -102 -86 -149.5t-227 -63.5v-3q0 -103 83 -103q30 0 59 11.5t64 35.5l49 -82q-89 -69 -190 -69q-96 0 -148 54.5t-52 154.5q0 87 29 167.5t91.5 132.5t156.5 52q80 0 125.5 -39zM343 401q0 23 -11.5 36.5t-37.5 13.5q-50 0 -80 -49
t-42 -121q171 17 171 120zM166.5 663.5q-17.5 17.5 -17.5 44.5q0 34 23 57t56 23q29 0 46.5 -17t17.5 -45q0 -35 -23 -57.5t-56 -22.5q-29 0 -46.5 17.5zM371.5 663.5q-17.5 17.5 -17.5 44.5q0 34 23 57t56 23q29 0 46.5 -17.5t17.5 -44.5q0 -34 -23 -57t-56 -23
q-29 0 -46.5 17.5z" />
    <glyph glyph-name="edotaccent" unicode="&#x117;" horiz-adv-x="486" 
d="M431.5 506q45.5 -39 45.5 -99q0 -102 -86 -149.5t-227 -63.5v-3q0 -103 83 -103q30 0 59 11.5t64 35.5l49 -82q-89 -69 -190 -69q-96 0 -148 54.5t-52 154.5q0 87 29 167.5t91.5 132.5t156.5 52q80 0 125.5 -39zM343 401q0 23 -11.5 36.5t-37.5 13.5q-50 0 -80 -49
t-42 -121q171 17 171 120zM260.5 659q-19.5 20 -19.5 51q0 39 25.5 64.5t64.5 25.5q33 0 52.5 -19.5t19.5 -51.5q0 -39 -26 -64.5t-64 -25.5q-33 0 -52.5 20z" />
    <glyph glyph-name="uni1EB9" unicode="&#x1eb9;" horiz-adv-x="486" 
d="M431.5 506q45.5 -39 45.5 -99q0 -102 -86 -149.5t-227 -63.5v-3q0 -103 83 -103q30 0 59 11.5t64 35.5l49 -82q-89 -69 -190 -69q-96 0 -148 54.5t-52 154.5q0 87 29 167.5t91.5 132.5t156.5 52q80 0 125.5 -39zM343 401q0 23 -11.5 36.5t-37.5 13.5q-50 0 -80 -49
t-42 -121q171 17 171 120zM266.5 -85q19.5 -20 19.5 -51q0 -39 -25.5 -64.5t-64.5 -25.5q-33 0 -52.5 19.5t-19.5 51.5q0 39 26 64.5t64 25.5q33 0 52.5 -20z" />
    <glyph glyph-name="egrave" unicode="&#xe8;" horiz-adv-x="486" 
d="M431.5 506q45.5 -39 45.5 -99q0 -102 -86 -149.5t-227 -63.5v-3q0 -103 83 -103q30 0 59 11.5t64 35.5l49 -82q-89 -69 -190 -69q-96 0 -148 54.5t-52 154.5q0 87 29 167.5t91.5 132.5t156.5 52q80 0 125.5 -39zM343 401q0 23 -11.5 36.5t-37.5 13.5q-50 0 -80 -49
t-42 -121q171 17 171 120zM273 820l178 -127l-40 -64l-198 90z" />
    <glyph glyph-name="uni1EBB" unicode="&#x1ebb;" horiz-adv-x="486" 
d="M431.5 506q45.5 -39 45.5 -99q0 -102 -86 -149.5t-227 -63.5v-3q0 -103 83 -103q30 0 59 11.5t64 35.5l49 -82q-89 -69 -190 -69q-96 0 -148 54.5t-52 154.5q0 87 29 167.5t91.5 132.5t156.5 52q80 0 125.5 -39zM343 401q0 23 -11.5 36.5t-37.5 13.5q-50 0 -80 -49
t-42 -121q171 17 171 120zM278 704q35 3 52.5 13.5t17.5 33.5q0 26 -30 26q-26 0 -54 -14l-17 63q43 24 93 24q49 0 76 -25.5t27 -66.5t-23 -65t-65 -32l-8 -54h-81z" />
    <glyph glyph-name="uni0207" unicode="&#x207;" horiz-adv-x="486" 
d="M431.5 506q45.5 -39 45.5 -99q0 -102 -86 -149.5t-227 -63.5v-3q0 -103 83 -103q30 0 59 11.5t64 35.5l49 -82q-89 -69 -190 -69q-96 0 -148 54.5t-52 154.5q0 87 29 167.5t91.5 132.5t156.5 52q80 0 125.5 -39zM343 401q0 23 -11.5 36.5t-37.5 13.5q-50 0 -80 -49
t-42 -121q171 17 171 120zM156 622q17 71 62 114t111 43q68 0 102 -45t31 -116l-77 -11q-6 76 -65 76q-31 0 -53.5 -20.5t-35.5 -58.5z" />
    <glyph glyph-name="emacron" unicode="&#x113;" horiz-adv-x="486" 
d="M431.5 506q45.5 -39 45.5 -99q0 -102 -86 -149.5t-227 -63.5v-3q0 -103 83 -103q30 0 59 11.5t64 35.5l49 -82q-89 -69 -190 -69q-96 0 -148 54.5t-52 154.5q0 87 29 167.5t91.5 132.5t156.5 52q80 0 125.5 -39zM343 401q0 23 -11.5 36.5t-37.5 13.5q-50 0 -80 -49
t-42 -121q171 17 171 120zM448 659h-267l14 96h267z" />
    <glyph glyph-name="eogonek" unicode="&#x119;" horiz-adv-x="486" 
d="M431.5 506q45.5 -39 45.5 -99q0 -102 -86 -149.5t-227 -63.5v-3q0 -103 83 -103q30 0 59 11.5t64 35.5l49 -82q-48 -37 -100 -55q-54 -25 -74.5 -51t-20.5 -52q0 -39 43 -39q28 0 56 7l-18 -88q-30 -8 -62 -8q-55 0 -88 28t-33 74q0 37 21 67t57 49q-82 8 -126.5 62
t-44.5 146q0 87 29 167.5t91.5 132.5t156.5 52q80 0 125.5 -39zM343 401q0 23 -11.5 36.5t-37.5 13.5q-50 0 -80 -49t-42 -121q171 17 171 120z" />
    <glyph glyph-name="uni025B" unicode="&#x25b;" horiz-adv-x="444" 
d="M69.5 26.5q-52.5 41.5 -52.5 111.5q0 58 38.5 97.5t113.5 47.5q-97 25 -97 107q0 43 23.5 78t68.5 56t106 21q106 0 170 -63l-63 -67q-23 17 -45.5 25t-50.5 8q-37 0 -57 -19t-20 -50q0 -28 17.5 -44t51.5 -16h52l-28 -91h-44q-51 0 -74 -22t-23 -59q0 -30 18.5 -46.5
t55.5 -16.5q30 0 57 10.5t63 32.5l48 -77q-37 -31 -86.5 -48t-105.5 -17q-84 0 -136.5 41.5z" />
    <glyph glyph-name="uni029A" unicode="&#x29a;" horiz-adv-x="519" 
d="M70 25.5q-53 40.5 -53 110.5q0 59 39 99t114 48q-91 25 -91 102q0 43 24.5 79.5t71 58.5t109.5 22q98 0 151 -58t53 -159q0 -103 -32.5 -180.5t-95.5 -120t-152 -42.5q-85 0 -138 40.5zM324 155.5q32 71.5 32 174.5q0 63 -19 90.5t-57 27.5q-34 0 -52.5 -19.5
t-18.5 -51.5q0 -58 61 -58h25l-28 -91h-19q-49 0 -71 -23.5t-22 -60.5q0 -28 17 -44t50 -16q70 0 102 71.5z" />
    <glyph glyph-name="uni025C" unicode="&#x25c;" horiz-adv-x="447" 
d="M368.5 509.5q46.5 -35.5 46.5 -95.5q0 -50 -33 -85t-98 -47q57 -8 86.5 -38t29.5 -78q0 -47 -24.5 -88t-76.5 -67t-129 -26q-112 0 -184 65l67 77q28 -22 55.5 -32.5t59.5 -10.5q47 0 70.5 24.5t23.5 61.5q0 31 -20.5 44.5t-59.5 13.5h-69l23 91h47q46 0 70.5 22t24.5 56
q0 51 -57 51q-31 0 -56 -9t-56 -28l-51 74q86 60 191 60q73 0 119.5 -35.5z" />
    <glyph glyph-name="uni025E" unicode="&#x25e;" horiz-adv-x="512" 
d="M81 40q-52 55 -52 155q0 103 34 182.5t97.5 123.5t148.5 44q75 0 123.5 -36t48.5 -96q0 -50 -32.5 -84t-95.5 -47q56 -7 84 -36.5t28 -78.5q0 -47 -24.5 -88.5t-76.5 -67.5t-132 -26q-99 0 -151 55zM307.5 108.5q22.5 24.5 22.5 62.5q0 30 -20 43.5t-58 13.5h-27l25 91
h10q41 0 63.5 21.5t22.5 56.5q0 51 -53 51q-44 0 -74 -38t-44 -97t-14 -123q0 -57 18 -81.5t59 -24.5q47 0 69.5 24.5z" />
    <glyph glyph-name="uni025D" unicode="&#x25d;" horiz-adv-x="676" 
d="M703 345q-53 -36 -113 -36q-61 0 -92.5 32t-31.5 85v13l-51 -30q-2 -48 -34.5 -81.5t-96.5 -45.5q57 -8 86.5 -38t29.5 -78q0 -47 -24.5 -88t-76.5 -67t-129 -26q-112 0 -184 65l67 77q28 -22 55.5 -32.5t59.5 -10.5q47 0 70.5 24.5t23.5 61.5q0 31 -20.5 44.5
t-59.5 13.5h-69l23 91h47q46 0 70.5 22t24.5 56q0 51 -57 51q-31 0 -56 -9t-56 -28l-51 74q86 60 191 60q48 0 85.5 -15.5t58.5 -44.5l81 45h112l-10 -74q-1 -4 -1 -12q0 -39 39 -39q16 0 29 4t30 12z" />
    <glyph glyph-name="uni0258" unicode="&#x258;" horiz-adv-x="489" 
d="M409 484q49 -61 49 -160q0 -100 -33 -177t-95.5 -119.5t-147.5 -42.5q-109 0 -175 71l66 74q27 -22 52 -32t59 -10q89 0 122 106q-125 8 -193 47t-68 121q0 52 26.5 94t74.5 65.5t109 23.5q105 0 154 -61zM214.5 305q32.5 -21 108.5 -25q2 36 2 56q0 115 -74 115
q-32 0 -50.5 -22.5t-18.5 -61.5q0 -41 32.5 -62z" />
    <glyph glyph-name="uni0283" unicode="&#x283;" horiz-adv-x="253" 
d="M403 717l-52 -81q-14 9 -27 13t-29 4q-47 0 -56 -62l-9 -61l-74 -530l-7 -49q-12 -85 -62.5 -127.5t-128.5 -42.5q-70 0 -119 43l56 78q17 -10 29 -14.5t30 -4.5q25 0 40.5 15t19.5 45l8 57l74 530l9 60q10 77 57.5 121.5t124.5 44.5q65 0 116 -39z" />
    <glyph glyph-name="uni0286" unicode="&#x286;" horiz-adv-x="305" 
d="M455 717l-52 -81q-14 9 -27 13t-29 4q-47 0 -56 -62l-9 -61h1l-76 -540q48 -14 84 -36l-32 -59q-36 18 -67 27q-45 -140 -190 -140q-57 0 -89 29t-32 80q0 59 40.5 93.5t103.5 34.5q37 0 52 -4l72 515h-1l9 60q10 77 57.5 121.5t124.5 44.5q65 0 116 -39zM44 -121
q16 22 23 68q-16 4 -42 4q-29 0 -45 -15.5t-16 -40.5q0 -38 36 -38q28 0 44 22z" />
    <glyph glyph-name="uni01AA" unicode="&#x1aa;" horiz-adv-x="357" 
d="M394 -179q-56 -40 -129 -40q-70 0 -109.5 37t-39.5 106q0 21 2 33l6 43l63 450q-28 -13 -59 -13q-49 0 -82 37.5t-33 97.5q0 54 23 96t64.5 65t93.5 23q68 0 107.5 -38.5t39.5 -107.5q0 -18 -3 -39l-80 -571l-8 -60q-1 -5 -1 -14q0 -43 43 -43q18 0 31 4t33 14zM200 540
l9 64q2 16 2 20q0 35 -29 35q-26 0 -38.5 -25t-12.5 -62q0 -38 35 -38q16 0 34 6z" />
    <glyph glyph-name="uni0285" unicode="&#x285;" horiz-adv-x="439" 
d="M414 25q-56 -40 -129 -40q-70 0 -109.5 37t-39.5 106q0 21 2 33l6 43l17 122l8 60q1 5 1 14q0 43 -43 43q-18 0 -31 -4t-33 -14l-38 80q56 40 129 40q70 0 109.5 -37t39.5 -106q0 -21 -2 -33l-6 -43l-17 -123l-8 -59q-1 -5 -1 -14q0 -43 43 -43q18 0 31 4t33 14z" />
    <glyph glyph-name="uni0247" unicode="&#x247;" horiz-adv-x="486" 
d="M448 489q29 -35 29 -82q0 -87 -64 -134t-173 -67l-41 -108q19 -10 48 -10q30 0 59 11.5t64 35.5l49 -82q-89 -69 -190 -69q-38 0 -70 9l-25 -66l-46 13l27 71q-42 25 -64 71t-22 110q0 88 29 168.5t91.5 132.5t156.5 52h13l21 54l45 -13l-18 -48q52 -14 81 -49z
M205 398.5q-30 -50.5 -41 -121.5q23 1 56 7l65 171q-50 -6 -80 -56.5zM334 340.5q18 25.5 18 61.5q0 32 -20 45l-56 -147q40 15 58 40.5zM186 198q-9 -2 -29 -4v-3q0 -32 7 -52z" />
    <glyph glyph-name="uni1EBD" unicode="&#x1ebd;" horiz-adv-x="486" 
d="M431.5 506q45.5 -39 45.5 -99q0 -102 -86 -149.5t-227 -63.5v-3q0 -103 83 -103q30 0 59 11.5t64 35.5l49 -82q-89 -69 -190 -69q-96 0 -148 54.5t-52 154.5q0 87 29 167.5t91.5 132.5t156.5 52q80 0 125.5 -39zM343 401q0 23 -11.5 36.5t-37.5 13.5q-50 0 -80 -49
t-42 -121q171 17 171 120zM338.5 649q-14.5 7 -31.5 20q-12 10 -20.5 14.5t-17.5 4.5q-15 0 -27 -11t-27 -34l-63 36q25 48 57 77.5t67 29.5q20 0 33 -7t32 -21q13 -10 20 -14t16 -4q14 0 25.5 10.5t26.5 33.5l63 -37q-24 -49 -56 -77t-66 -28q-17 0 -31.5 7z" />
    <glyph glyph-name="uni01DD" unicode="&#x1dd;" horiz-adv-x="486" 
d="M405 491.5q52 -54.5 52 -154.5q0 -87 -29 -167.5t-91.5 -132.5t-156.5 -52q-80 0 -125.5 39t-45.5 99q0 102 86 149.5t227 63.5v3q0 103 -83 103q-30 0 -59 -11.5t-64 -35.5l-49 82q89 69 190 69q96 0 148 -54.5zM272 128q30 49 42 121q-171 -17 -171 -120
q0 -23 11.5 -36.5t37.5 -13.5q50 0 80 49z" />
    <glyph glyph-name="uni0259" unicode="&#x259;" horiz-adv-x="486" 
d="M405 491.5q52 -54.5 52 -154.5q0 -87 -29 -167.5t-91.5 -132.5t-156.5 -52q-80 0 -125.5 39t-45.5 99q0 102 86 149.5t227 63.5v3q0 103 -83 103q-30 0 -59 -11.5t-64 -35.5l-49 82q89 69 190 69q96 0 148 -54.5zM272 128q30 49 42 121q-171 -17 -171 -120
q0 -23 11.5 -36.5t37.5 -13.5q50 0 80 49z" />
    <glyph glyph-name="uni025A" unicode="&#x25a;" horiz-adv-x="723" 
d="M749 345q-53 -36 -113 -36q-61 0 -92.5 32t-31.5 85v13l-62 -36q7 -29 7 -69q-1 -87 -30 -167t-91.5 -131t-155.5 -51q-80 0 -125.5 39t-45.5 99q0 102 86 149.5t227 63.5v3q0 103 -83 103q-30 0 -59 -11.5t-64 -35.5l-49 82q89 69 190 69q111 0 162 -72l101 56h112
l-10 -74q-1 -4 -1 -12q0 -39 39 -39q16 0 29 4t30 12zM272 128q30 49 42 121q-171 -17 -171 -120q0 -23 11.5 -36.5t37.5 -13.5q50 0 80 49z" />
    <glyph glyph-name="uni0292" unicode="&#x292;" horiz-adv-x="450" 
d="M428 434l-202 -226q86 -5 129.5 -47.5t43.5 -118.5q0 -78 -34.5 -137t-95.5 -91.5t-137 -32.5q-68 0 -115.5 25.5t-79.5 74.5l81 66q27 -32 53.5 -46t62.5 -14q58 0 92.5 42t34.5 111q0 47 -24 66.5t-76 19.5h-83l1 1l11 82l190 217h-234l15 104h380z" />
    <glyph glyph-name="uni01EF" unicode="&#x1ef;" horiz-adv-x="450" 
d="M428 434l-202 -226q86 -5 129.5 -47.5t43.5 -118.5q0 -78 -34.5 -137t-95.5 -91.5t-137 -32.5q-68 0 -115.5 25.5t-79.5 74.5l81 66q27 -32 53.5 -46t62.5 -14q58 0 92.5 42t34.5 111q0 47 -24 66.5t-76 19.5h-83l1 1l11 82l190 217h-234l15 104h380zM400 802l46 -56
l-144 -129h-82l-108 129l53 56l104 -88z" />
    <glyph glyph-name="uni0293" unicode="&#x293;" horiz-adv-x="450" 
d="M429 434l-199 -220q83 -5 126.5 -48.5t43.5 -120.5q0 -91 -49 -156t-135 -91l17 -59l-73 -25l-18 69q-28 -2 -42 -2q-80 0 -125 34.5t-45 97.5q0 59 37 95.5t89 36.5t81 -31.5t48 -110.5q39 18 58 54t19 86q0 48 -24.5 67.5t-78.5 19.5h-80l1 1l11 81l190 214h-234
l14 104h381zM42.5 -102.5q17.5 -10.5 58.5 -10.5h14q-12 48 -24 65t-32 17q-15 0 -24.5 -11t-9.5 -28q0 -22 17.5 -32.5z" />
    <glyph glyph-name="uni01B9" unicode="&#x1b9;" horiz-adv-x="452" 
d="M447 426h-241l137 -219l-11 -81l-2 1l1 -1h-79q-64 0 -98.5 -37t-34.5 -104q0 -49 22.5 -73.5t64.5 -24.5q37 0 69 14.5t69 47.5l63 -71q-88 -97 -219 -97q-98 0 -153.5 54t-55.5 143q0 102 64.5 165t173.5 67l-147 224l13 96h379z" />
    <glyph glyph-name="uni01BA" unicode="&#x1ba;" horiz-adv-x="445" 
d="M7 -161.5q-32 33.5 -32 75.5q0 60 42.5 91t129.5 52q69 16 96.5 34.5t27.5 56.5q0 25 -14.5 35.5t-48.5 10.5h-121l11 79l167 157h-224l14 100h378l-12 -92l-179 -161h22q69 0 107 -32.5t38 -92.5q0 -79 -52.5 -122t-146.5 -65q-47 -10 -71 -19t-32.5 -18t-8.5 -22
t9.5 -24t29.5 -25l-42 -76q-56 24 -88 57.5z" />
    <glyph glyph-name="f" unicode="f" horiz-adv-x="313" 
d="M278.5 636q-17.5 -18 -23.5 -57l-7 -49h113l-29 -97h-97l-54 -387q-11 -81 -40.5 -131t-72 -78.5t-108.5 -55.5l-33 99q38 17 61 35t37.5 48.5t21.5 81.5l54 388h-72l14 97h72l8 57q10 76 60.5 122.5t133.5 46.5q73 0 131 -42l-48 -81q-35 21 -72 21q-32 0 -49.5 -18z
" />
    <glyph glyph-name="uni1E1F" unicode="&#x1e1f;" horiz-adv-x="313" 
d="M278.5 636q-17.5 -18 -23.5 -57l-7 -49h113l-29 -97h-97l-54 -387q-11 -81 -40.5 -131t-72 -78.5t-108.5 -55.5l-33 99q38 17 61 35t37.5 48.5t21.5 81.5l54 388h-72l14 97h72l8 57q10 76 60.5 122.5t133.5 46.5q73 0 131 -42l-48 -81q-35 21 -72 21q-32 0 -49.5 -18z
M262.5 834q-19.5 20 -19.5 51q0 39 25.5 64.5t64.5 25.5q33 0 52.5 -19.5t19.5 -51.5q0 -39 -26 -64.5t-64 -25.5q-33 0 -52.5 20z" />
    <glyph glyph-name="uni02A9" unicode="&#x2a9;" horiz-adv-x="787" 
d="M722.5 512q30.5 -34 30.5 -93q0 -17 -3 -35l-55 -384l-7 -49q-12 -85 -62.5 -127.5t-128.5 -42.5q-70 0 -119 43l56 78q17 -10 29 -14.5t30 -4.5q25 0 40.5 15t19.5 45l8 57l51 364q2 18 2 23q0 43 -32 43q-49 0 -111 -124l-43 -306h-134l60 433h-119l-54 -387
q-11 -81 -40.5 -131t-72 -78.5t-108.5 -55.5l-33 99q38 17 61 35t37.5 48.5t21.5 81.5l54 388h-72l14 97h72l8 57q10 76 60.5 122.5t133.5 46.5q73 0 131 -42l-48 -81q-35 21 -72 21q-32 0 -49.5 -18t-23.5 -57l-7 -49h237l-4 -91q71 107 160 107q51 0 81.5 -34z" />
    <glyph glyph-name="g" unicode="g" horiz-adv-x="524" 
d="M501 496l-67 -472q-18 -128 -79 -186t-171 -58q-46 0 -93 14.5t-85 39.5l48 91q68 -39 127 -39q48 0 79 25.5t41 96.5l9 62q-56 -70 -129 -70q-72 0 -112.5 52t-40.5 140q0 87 29.5 168t94 133t163.5 52q97 0 186 -49zM228 408q-32 -38 -47 -96t-15 -120q0 -90 57 -90
q27 0 51 20t48 56l38 259q-26 9 -51 9q-49 0 -81 -38z" />
    <glyph glyph-name="uni01F5" unicode="&#x1f5;" horiz-adv-x="524" 
d="M501 496l-67 -472q-18 -128 -79 -186t-171 -58q-46 0 -93 14.5t-85 39.5l48 91q68 -39 127 -39q48 0 79 25.5t41 96.5l9 62q-56 -70 -129 -70q-72 0 -112.5 52t-40.5 140q0 87 29.5 168t94 133t163.5 52q97 0 186 -49zM228 408q-32 -38 -47 -96t-15 -120q0 -90 57 -90
q27 0 51 20t48 56l38 259q-26 9 -51 9q-49 0 -81 -38zM415 821l46 -102l-220 -91l-33 67z" />
    <glyph glyph-name="uni0263" unicode="&#x263;" horiz-adv-x="457" 
d="M271 75q19 -49 28.5 -84t9.5 -70q0 -68 -37 -104t-105 -36q-54 0 -84 27.5t-30 72.5q0 43 22 89t66 107l-105 453h143l40 -365l136 365h141zM195 -2q-17 -29 -29 -57.5t-12 -46.5q0 -25 22 -25q17 0 25 13.5t8 35.5q0 31 -14 80z" />
    <glyph glyph-name="gbreve" unicode="&#x11f;" horiz-adv-x="524" 
d="M501 496l-67 -472q-18 -128 -79 -186t-171 -58q-46 0 -93 14.5t-85 39.5l48 91q68 -39 127 -39q48 0 79 25.5t41 96.5l9 62q-56 -70 -129 -70q-72 0 -112.5 52t-40.5 140q0 87 29.5 168t94 133t163.5 52q97 0 186 -49zM228 408q-32 -38 -47 -96t-15 -120q0 -90 57 -90
q27 0 51 20t48 56l38 259q-26 9 -51 9q-49 0 -81 -38zM221 681q-35 45 -30 116l75 11q6 -75 63 -75q31 0 54 20.5t36 57.5l72 -18q-15 -71 -59 -114t-109 -43q-67 0 -102 45z" />
    <glyph glyph-name="gcaron" unicode="&#x1e7;" horiz-adv-x="524" 
d="M501 496l-67 -472q-18 -128 -79 -186t-171 -58q-46 0 -93 14.5t-85 39.5l48 91q68 -39 127 -39q48 0 79 25.5t41 96.5l9 62q-56 -70 -129 -70q-72 0 -112.5 52t-40.5 140q0 87 29.5 168t94 133t163.5 52q97 0 186 -49zM228 408q-32 -38 -47 -96t-15 -120q0 -90 57 -90
q27 0 51 20t48 56l38 259q-26 9 -51 9q-49 0 -81 -38zM459 802l46 -56l-144 -129h-82l-108 129l53 56l104 -88z" />
    <glyph glyph-name="gcircumflex" unicode="&#x11d;" horiz-adv-x="524" 
d="M501 496l-67 -472q-18 -128 -79 -186t-171 -58q-46 0 -93 14.5t-85 39.5l48 91q68 -39 127 -39q48 0 79 25.5t41 96.5l9 62q-56 -70 -129 -70q-72 0 -112.5 52t-40.5 140q0 87 29.5 168t94 133t163.5 52q97 0 186 -49zM228 408q-32 -38 -47 -96t-15 -120q0 -90 57 -90
q27 0 51 20t48 56l38 259q-26 9 -51 9q-49 0 -81 -38zM209 626l-47 57l144 129h82l110 -132l-57 -54l-104 89z" />
    <glyph glyph-name="gcommaaccent" unicode="&#x123;" horiz-adv-x="524" 
d="M501 496l-67 -472q-18 -128 -79 -186t-171 -58q-46 0 -93 14.5t-85 39.5l48 91q68 -39 127 -39q48 0 79 25.5t41 96.5l9 62q-56 -70 -129 -70q-72 0 -112.5 52t-40.5 140q0 87 29.5 168t94 133t163.5 52q97 0 186 -49zM228 408q-32 -38 -47 -96t-15 -120q0 -90 57 -90
q27 0 51 20t48 56l38 259q-26 9 -51 9q-49 0 -81 -38zM274.5 604q-17.5 18 -17.5 44q0 21 7.5 39.5t28.5 53.5l53 89h68l-43 -117q25 -18 25 -49q0 -34 -22 -56t-53 -22q-29 0 -46.5 18z" />
    <glyph glyph-name="gdotaccent" unicode="&#x121;" horiz-adv-x="524" 
d="M501 496l-67 -472q-18 -128 -79 -186t-171 -58q-46 0 -93 14.5t-85 39.5l48 91q68 -39 127 -39q48 0 79 25.5t41 96.5l9 62q-56 -70 -129 -70q-72 0 -112.5 52t-40.5 140q0 87 29.5 168t94 133t163.5 52q97 0 186 -49zM228 408q-32 -38 -47 -96t-15 -120q0 -90 57 -90
q27 0 51 20t48 56l38 259q-26 9 -51 9q-49 0 -81 -38zM273.5 659q-19.5 20 -19.5 51q0 39 25.5 64.5t64.5 25.5q33 0 52.5 -19.5t19.5 -51.5q0 -39 -26 -64.5t-64 -25.5q-33 0 -52.5 20z" />
    <glyph glyph-name="uni0260" unicode="&#x260;" horiz-adv-x="528" 
d="M679 717l-52 -81q-14 9 -27 13t-29 4q-47 0 -56 -62l-9 -61l-72 -506q-18 -128 -79 -186t-171 -58q-46 0 -93 14.5t-85 39.5l48 91q68 -39 127 -39q48 0 79 25.5t41 96.5l9 62q-56 -70 -129 -70q-72 0 -112.5 52t-40.5 140q0 87 29.5 167.5t92 133t156.5 52.5q27 0 67 -9
l8 54q10 77 57.5 121.5t124.5 44.5q65 0 116 -39zM359 438q-21 8 -50 8q-49 0 -81 -38t-47 -96t-15 -120q0 -90 57 -90q27 0 51 20t48 56z" />
    <glyph glyph-name="uni01BE" unicode="&#x1be;" horiz-adv-x="457" 
d="M419 257q0 -78 -32.5 -140t-89.5 -97t-130 -35q-60 0 -106 23t-82 68l75 66q27 -28 51.5 -41t54.5 -13q57 0 89 46t32 121q0 52 -21.5 80.5t-66.5 41.5l-50 13l20 145h-60l12 84h60l17 122l135 14l-19 -136h95l-12 -84h-95l-14 -99l24 -8q113 -41 113 -171z" />
    <glyph glyph-name="uni0294" unicode="&#x294;" horiz-adv-x="428" 
d="M130 352l41 14q70 26 101.5 71.5t31.5 118.5q0 47 -20 72t-60 25q-32 0 -60.5 -14t-60.5 -42l-59 71q49 45 96.5 66.5t107.5 21.5q91 0 145 -53.5t54 -142.5q0 -98 -42 -156.5t-127 -91.5l-21 -8l-42 -304h-134z" />
    <glyph glyph-name="uni0296" unicode="&#x296;" horiz-adv-x="457" 
d="M327 755l-45 -319l24 -8q113 -41 113 -171q0 -78 -32.5 -140t-89.5 -97t-130 -35q-60 0 -106 23t-82 68l75 66q27 -28 51.5 -41t54.5 -13q57 0 89 46t32 121q0 52 -21.5 80.5t-66.5 41.5l-50 13l49 351z" />
    <glyph glyph-name="uni0295" unicode="&#x295;" horiz-adv-x="424" 
d="M135 0l43 304l-16 8q-53 27 -81.5 64.5t-28.5 105.5q0 78 33 140.5t91 98t131 35.5q59 0 103 -22.5t82 -68.5l-74 -66q-26 28 -50.5 41t-55.5 13q-56 0 -89 -46.5t-33 -122.5q0 -49 22 -77t68 -44l38 -13l-49 -350h-134z" />
    <glyph glyph-name="uni0242" unicode="&#x242;" horiz-adv-x="412" 
d="M94 201l49 15q58 19 87 53.5t29 90.5q0 38 -17.5 59.5t-49.5 21.5q-30 0 -53.5 -12.5t-54.5 -37.5l-56 75q41 39 86.5 59t100.5 20q83 0 132.5 -49t49.5 -128q0 -158 -147 -206l-29 -10l-21 -152h-134z" />
    <glyph glyph-name="uni02A1" unicode="&#x2a1;" horiz-adv-x="428" 
d="M257 304l-12 -85h91l-12 -84h-90l-19 -135h-134l19 135h-60l12 84h59l19 133l41 14q70 26 101.5 71.5t31.5 118.5q0 47 -20 72t-60 25q-32 0 -60.5 -14t-60.5 -42l-59 71q49 45 96.5 66.5t107.5 21.5q91 0 145 -53.5t54 -142.5q0 -98 -42 -156.5t-127 -91.5z" />
    <glyph glyph-name="uni02A2" unicode="&#x2a2;" horiz-adv-x="424" 
d="M410 733.5q44 -22.5 82 -68.5l-74 -66q-26 28 -50.5 41t-55.5 13q-56 0 -89 -46.5t-33 -122.5q0 -49 22 -77t68 -44l38 -13l-18 -131h61l-12 -84h-61l-19 -135h-134l19 135h-90l12 84h90l12 85l-16 8q-53 27 -81.5 64.5t-28.5 105.5q0 78 33 140.5t91 98t131 35.5
q59 0 103 -22.5z" />
    <glyph glyph-name="uni0261" unicode="&#x261;" horiz-adv-x="524" 
d="M501 496l-67 -472q-18 -128 -79 -186t-171 -58q-46 0 -93 14.5t-85 39.5l48 91q68 -39 127 -39q48 0 79 25.5t41 96.5l9 62q-56 -70 -129 -70q-72 0 -112.5 52t-40.5 140q0 87 29.5 168t94 133t163.5 52q97 0 186 -49zM228 408q-32 -38 -47 -96t-15 -120q0 -90 57 -90
q27 0 51 20t48 56l38 259q-26 9 -51 9q-49 0 -81 -38z" />
    <glyph glyph-name="uni01E5" unicode="&#x1e5;" horiz-adv-x="510" 
d="M428 -10h53l-8 -62h-62q-29 -77 -84.5 -112.5t-140.5 -35.5q-48 0 -94.5 14.5t-85.5 39.5l46 86q68 -39 130 -39q33 0 57.5 10t39.5 37h-103l8 62h115v1l14 98q-56 -70 -130 -70q-72 0 -112.5 52.5t-40.5 139.5q0 80 29.5 156.5t93.5 127t162 50.5q97 0 186 -49l-67 -472
zM325 197l35 240q-26 9 -51 9q-48 0 -79.5 -36t-46.5 -89.5t-15 -108.5q0 -91 57 -91q49 0 100 76z" />
    <glyph glyph-name="uni021D" unicode="&#x21d;" horiz-adv-x="440" 
d="M358 508q47 -37 47 -101q0 -54 -33 -86.5t-94 -48.5q57 0 87 -25t30 -71q0 -104 -101.5 -175.5t-276.5 -107.5l-2 94q123 40 182 83t59 103q0 24 -15 34.5t-45 10.5h-82l22 91h41q41 0 66 22t25 63q0 54 -58 54q-30 0 -55.5 -9t-56.5 -28l-50 75q43 30 88 44.5t98 14.5
q77 0 124 -37z" />
    <glyph glyph-name="h" unicode="h" horiz-adv-x="515" 
d="M450 512q30 -34 30 -92q0 -17 -3 -35l-54 -385h-134l50 364q2 18 2 24q0 42 -31 42q-50 0 -112 -124l-42 -306h-134l104 741l135 14l-43 -310q28 46 65.5 73.5t84.5 27.5q52 0 82 -34z" />
    <glyph glyph-name="hbar" unicode="&#x127;" horiz-adv-x="523" 
d="M458 512q30 -34 30 -92q0 -17 -3 -35l-54 -385h-134l50 364q2 18 2 24q0 42 -31 42q-50 0 -112 -124l-42 -306h-134l84 599h-55l12 85h55l8 57l135 14l-10 -71h127l-23 -85h-116l-21 -154q28 46 65.5 73.5t84.5 27.5q52 0 82 -34z" />
    <glyph glyph-name="uni021F" unicode="&#x21f;" horiz-adv-x="515" 
d="M450 512q30 -34 30 -92q0 -17 -3 -35l-54 -385h-134l50 364q2 18 2 24q0 42 -31 42q-50 0 -112 -124l-42 -306h-134l104 741l135 14l-43 -310q28 46 65.5 73.5t84.5 27.5q52 0 82 -34zM469 981l48 -57l-144 -124h-82l-110 128l54 53l107 -84z" />
    <glyph glyph-name="hcircumflex" unicode="&#x125;" horiz-adv-x="515" 
d="M450 512q30 -34 30 -92q0 -17 -3 -35l-54 -385h-134l50 364q2 18 2 24q0 42 -31 42q-50 0 -112 -124l-42 -306h-134l104 741l135 14l-43 -310q28 46 65.5 73.5t84.5 27.5q52 0 82 -34zM215 806l-48 56l144 125h82l110 -128l-54 -53l-107 83z" />
    <glyph glyph-name="uni1E25" unicode="&#x1e25;" horiz-adv-x="515" 
d="M450 512q30 -34 30 -92q0 -17 -3 -35l-54 -385h-134l50 364q2 18 2 24q0 42 -31 42q-50 0 -112 -124l-42 -306h-134l104 741l135 14l-43 -310q28 46 65.5 73.5t84.5 27.5q52 0 82 -34zM263.5 -85q19.5 -20 19.5 -51q0 -39 -25.5 -64.5t-64.5 -25.5q-33 0 -52.5 19.5
t-19.5 51.5q0 39 26 64.5t64 25.5q33 0 52.5 -20z" />
    <glyph glyph-name="uni0267" unicode="&#x267;" horiz-adv-x="515" 
d="M449.5 512.5q30.5 -33.5 30.5 -92.5q0 -17 -3 -35l-54 -385l-7 -49q-12 -85 -62.5 -127.5t-128.5 -42.5q-70 0 -119 43l56 78q17 -10 29 -14.5t30 -4.5q25 0 40.5 15t19.5 45l8 57l52 364q2 18 2 23q0 43 -32 43q-50 0 -112 -124l-43 -306h-134l74 529l9 66
q11 73 61.5 117t133.5 44q68 0 127 -33l-49 -87q-33 17 -71 17q-32 0 -48 -17t-21 -54l-8 -53h1l-12 -85q27 46 64.5 74t83.5 28q52 0 82.5 -33.5z" />
    <glyph glyph-name="uni0266" unicode="&#x266;" horiz-adv-x="515" 
d="M449.5 512.5q30.5 -33.5 30.5 -92.5q0 -17 -3 -35l-54 -385h-134l52 364q2 18 2 23q0 43 -32 43q-50 0 -112 -124l-43 -306h-134l74 529l9 66q11 73 61.5 117t133.5 44q68 0 127 -33l-49 -87q-33 17 -71 17q-32 0 -48 -17t-21 -54l-8 -53h1l-12 -85q27 46 64.5 74
t83.5 28q52 0 82.5 -33.5z" />
    <glyph glyph-name="uni0265" unicode="&#x265;" horiz-adv-x="511" 
d="M297 78q-64 -94 -148 -94q-53 0 -83 33.5t-30 91.5q0 21 2 33l54 388h134l-52 -370q-2 -16 -2 -21q0 -41 32 -41q47 0 110 105l45 327h134l-103 -735l-135 -16z" />
    <glyph glyph-name="uni02AE" unicode="&#x2ae;" horiz-adv-x="619" 
d="M601 530l-104 -735l-134 -16l42 299q-30 -43 -66 -68.5t-82 -25.5q-53 0 -83.5 34t-30.5 94q0 8 2 30l24 184l8 60q1 5 1 14q0 43 -43 43q-18 0 -31 -4t-33 -14l-38 80q56 40 129 40q70 0 109.5 -37t39.5 -106q0 -21 -2 -33l-6 -43l-21 -166q-2 -16 -2 -22q0 -40 31 -40
q48 0 111 105l45 327h134z" />
    <glyph glyph-name="uni02AF" unicode="&#x2af;" horiz-adv-x="619" 
d="M663 -179q-56 -40 -129 -40q-70 0 -109.5 37t-39.5 106q0 21 2 33l6 43l11 76q-64 -92 -147 -92q-53 0 -83.5 34t-30.5 94q0 8 2 30l24 184l8 60q1 5 1 14q0 43 -43 43q-18 0 -31 -4t-33 -14l-38 80q56 40 129 40q70 0 109.5 -37t39.5 -106q0 -21 -2 -33l-6 -43l-21 -166
q-2 -16 -2 -22q0 -40 31 -40q48 0 111 105l45 327h134l-74 -530l-8 -60q-1 -5 -1 -14q0 -43 43 -43q18 0 31 4t33 14z" />
    <glyph glyph-name="uni0195" unicode="&#x195;" horiz-adv-x="777" 
d="M352 28q-42 43 -42 108q0 9 2 29l27 199q2 18 2 24q0 42 -31 42q-50 0 -112 -124l-42 -306h-134l104 741l135 14l-43 -310q28 46 65.5 73.5t84.5 27.5q52 0 82 -34t30 -92q0 -17 -3 -35l-31 -221q-2 -16 -2 -22q0 -55 46 -55q71 0 98 107.5t27 238.5q0 57 -4 97h127
q7 -48 7 -107q0 -202 -59 -320t-209 -118q-83 0 -125 43z" />
    <glyph glyph-name="i" unicode="i" horiz-adv-x="253" 
d="M230 530l-74 -530h-134l74 530h134zM126.5 659q-19.5 20 -19.5 51q0 39 25.5 64.5t64.5 25.5q33 0 52.5 -19.5t19.5 -51.5q0 -39 -26 -64.5t-64 -25.5q-33 0 -52.5 20z" />
    <glyph glyph-name="dotlessi" unicode="&#x131;" horiz-adv-x="253" 
d="M230 530l-74 -530h-134l74 530h134z" />
    <glyph glyph-name="iacute" unicode="&#xed;" horiz-adv-x="253" 
d="M230 530l-74 -530h-134l74 530h134zM268 821l46 -102l-220 -91l-33 67z" />
    <glyph glyph-name="ibreve" unicode="&#x12d;" horiz-adv-x="253" 
d="M230 530l-74 -530h-134l74 530h134zM74 681q-35 45 -30 116l75 11q6 -75 63 -75q31 0 54 20.5t36 57.5l72 -18q-15 -71 -59 -114t-109 -43q-67 0 -102 45z" />
    <glyph glyph-name="uni01D0" unicode="&#x1d0;" horiz-adv-x="253" 
d="M230 530l-74 -530h-134l74 530h134zM312 802l46 -56l-144 -129h-82l-108 129l53 56l104 -88z" />
    <glyph glyph-name="icircumflex" unicode="&#xee;" horiz-adv-x="253" 
d="M230 530l-74 -530h-134l74 530h134zM62 626l-47 57l144 129h82l110 -132l-57 -54l-104 89z" />
    <glyph glyph-name="uni0209" unicode="&#x209;" horiz-adv-x="253" 
d="M230 530l-74 -530h-134l74 530h134zM92 851l61 -191l-77 -32l-85 178zM245 850l53 -189l-77 -28l-78 175z" />
    <glyph glyph-name="idieresis" unicode="&#xef;" horiz-adv-x="253" 
d="M230 530l-74 -530h-134l74 530h134zM32.5 663.5q-17.5 17.5 -17.5 44.5q0 34 23 57t56 23q29 0 46.5 -17t17.5 -45q0 -35 -23 -57.5t-56 -22.5q-29 0 -46.5 17.5zM237.5 663.5q-17.5 17.5 -17.5 44.5q0 34 23 57t56 23q29 0 46.5 -17.5t17.5 -44.5q0 -34 -23 -57t-56 -23
q-29 0 -46.5 17.5z" />
    <glyph glyph-name="uni1E2F" unicode="&#x1e2f;" horiz-adv-x="253" 
d="M230 530l-74 -530h-134l74 530h134zM273 931l67 -71l-158 -139l-48 45zM15.5 626.5q-17.5 17.5 -17.5 44.5q0 35 23 57.5t56 22.5q29 0 46.5 -17.5t17.5 -44.5q0 -34 -23 -57t-56 -23q-29 0 -46.5 17.5zM228.5 626.5q-17.5 17.5 -17.5 44.5q0 35 23 57.5t57 22.5
q29 0 46.5 -17.5t17.5 -44.5q0 -34 -23.5 -57t-56.5 -23q-29 0 -46.5 17.5z" />
    <glyph glyph-name="i.loclTRK" horiz-adv-x="253" 
d="M230 530l-74 -530h-134l74 530h134zM126.5 659q-19.5 20 -19.5 51q0 39 25.5 64.5t64.5 25.5q33 0 52.5 -19.5t19.5 -51.5q0 -39 -26 -64.5t-64 -25.5q-33 0 -52.5 20z" />
    <glyph glyph-name="uni1ECB" unicode="&#x1ecb;" horiz-adv-x="253" 
d="M230 530l-74 -530h-134l74 530h134zM126.5 659q-19.5 20 -19.5 51q0 39 25.5 64.5t64.5 25.5q33 0 52.5 -19.5t19.5 -51.5q0 -39 -26 -64.5t-64 -25.5q-33 0 -52.5 20zM129.5 -85q19.5 -20 19.5 -51q0 -39 -25.5 -64.5t-64.5 -25.5q-33 0 -52.5 19.5t-19.5 51.5
q0 39 26 64.5t64 25.5q33 0 52.5 -20z" />
    <glyph glyph-name="igrave" unicode="&#xec;" horiz-adv-x="253" 
d="M230 530l-74 -530h-134l74 530h134zM139 820l178 -127l-40 -64l-198 90z" />
    <glyph glyph-name="uni1EC9" unicode="&#x1ec9;" horiz-adv-x="253" 
d="M230 530l-74 -530h-134l74 530h134zM144 704q35 3 52.5 13.5t17.5 33.5q0 26 -30 26q-26 0 -54 -14l-17 63q43 24 93 24q49 0 76 -25.5t27 -66.5t-23 -65t-65 -32l-8 -54h-81z" />
    <glyph glyph-name="uni020B" unicode="&#x20b;" horiz-adv-x="253" 
d="M230 530l-74 -530h-134l74 530h134zM22 622q17 71 62 114t111 43q68 0 102 -45t31 -116l-77 -11q-6 76 -65 76q-31 0 -53.5 -20.5t-35.5 -58.5z" />
    <glyph glyph-name="ij" unicode="&#x133;" horiz-adv-x="506" 
d="M230 530l-74 -530h-134l74 530h134zM126.5 659q-19.5 20 -19.5 51q0 39 25.5 64.5t64.5 25.5q33 0 52.5 -19.5t19.5 -51.5q0 -39 -26 -64.5t-64 -25.5q-33 0 -52.5 20zM162 -120q38 17 61 35t37.5 48.5t21.5 81.5l68 485h134l-68 -484q-11 -81 -40.5 -131t-72 -78.5
t-108.5 -55.5zM381.5 659q-19.5 20 -19.5 51q0 39 25.5 64.5t64.5 25.5q33 0 52.5 -19.5t19.5 -51.5q0 -39 -26 -64.5t-64 -25.5q-33 0 -52.5 20z" />
    <glyph glyph-name="imacron" unicode="&#x12b;" horiz-adv-x="253" 
d="M230 530l-74 -530h-134l74 530h134zM314 659h-267l14 96h267z" />
    <glyph glyph-name="iogonek" unicode="&#x12f;" horiz-adv-x="253" 
d="M249.5 780.5q19.5 -19.5 19.5 -51.5q0 -39 -26 -64.5t-64 -25.5q-33 0 -52.5 20t-19.5 51q0 39 25.5 64.5t64.5 25.5q33 0 52.5 -19.5zM96 530h134l-74 -530h-31q-72 -30 -97.5 -59.5t-25.5 -58.5q0 -34 42 -34q24 0 54 6l-20 -87q-27 -7 -61 -7q-51 0 -83 28t-32 74
q0 95 122 153z" />
    <glyph glyph-name="uni0269" unicode="&#x269;" horiz-adv-x="265" 
d="M91 530h134l-56 -403l-1 -10q0 -12 5 -17.5t16 -5.5q13 0 24 4l15 -95q-39 -18 -86 -18q-52 0 -80.5 28.5t-28.5 81.5q0 10 2 30z" />
    <glyph glyph-name="uni0268" unicode="&#x268;" horiz-adv-x="295" 
d="M147.5 659q-19.5 20 -19.5 51q0 39 25.5 64.5t64.5 25.5q33 0 52.5 -19.5t19.5 -51.5q0 -39 -26 -64.5t-64 -25.5q-33 0 -52.5 20zM297 330l-14 -97h-73l-33 -233h-134l33 233h-73l15 97h71l28 200h134l-28 -200h74z" />
    <glyph glyph-name="itilde" unicode="&#x129;" horiz-adv-x="253" 
d="M230 530l-74 -530h-134l74 530h134zM204.5 649q-14.5 7 -31.5 20q-12 10 -20.5 14.5t-17.5 4.5q-15 0 -27 -11t-27 -34l-63 36q25 48 57 77.5t67 29.5q20 0 33 -7t32 -21q13 -10 20 -14t16 -4q14 0 25.5 10.5t26.5 33.5l63 -37q-24 -49 -56 -77t-66 -28q-17 0 -31.5 7z
" />
    <glyph glyph-name="j" unicode="j" horiz-adv-x="253" 
d="M-91 -120q38 17 61 35t37.5 48.5t21.5 81.5l68 485h134l-68 -484q-11 -81 -40.5 -131t-72 -78.5t-108.5 -55.5zM128.5 659q-19.5 20 -19.5 51q0 39 25.5 64.5t64.5 25.5q33 0 52.5 -19.5t19.5 -51.5q0 -39 -26 -64.5t-64 -25.5q-33 0 -52.5 20z" />
    <glyph glyph-name="uni0237" unicode="&#x237;" horiz-adv-x="253" 
d="M-91 -120q38 17 61 35t37.5 48.5t21.5 81.5l68 485h134l-68 -484q-11 -81 -40.5 -131t-72 -78.5t-108.5 -55.5z" />
    <glyph glyph-name="uni01F0" unicode="&#x1f0;" horiz-adv-x="253" 
d="M-91 -120q38 17 61 35t37.5 48.5t21.5 81.5l68 485h134l-68 -484q-11 -81 -40.5 -131t-72 -78.5t-108.5 -55.5zM314 802l46 -56l-144 -129h-82l-108 129l53 56l104 -88z" />
    <glyph glyph-name="jcircumflex" unicode="&#x135;" horiz-adv-x="253" 
d="M-91 -120q38 17 61 35t37.5 48.5t21.5 81.5l68 485h134l-68 -484q-11 -81 -40.5 -131t-72 -78.5t-108.5 -55.5zM64 626l-47 57l144 129h82l110 -132l-57 -54l-104 89z" />
    <glyph glyph-name="uni029D" unicode="&#x29d;" horiz-adv-x="327" 
d="M302.5 780.5q19.5 -19.5 19.5 -51.5q0 -39 -26 -64.5t-64 -25.5q-33 0 -52.5 20t-19.5 51q0 39 25.5 64.5t64.5 25.5q33 0 52.5 -19.5zM207 -10q48 -14 84 -36l-32 -59q-36 18 -67 27q-45 -140 -190 -140q-57 0 -89 29t-32 80q0 59 40.5 93.5t103.5 34.5q37 0 52 -4
l72 515h134zM44 -121q16 22 23 68q-16 4 -42 4q-29 0 -45 -15.5t-16 -40.5q0 -38 36 -38q28 0 44 22z" />
    <glyph glyph-name="uni025F" unicode="&#x25f;" horiz-adv-x="299" 
d="M283 203h-72l-22 -157q-11 -81 -40.5 -131t-72 -78.5t-108.5 -55.5l-33 99q38 17 61 35t37.5 48.5t21.5 81.5l22 158h-74l14 97h74l32 230h134l-32 -230h72z" />
    <glyph glyph-name="uni0284" unicode="&#x284;" horiz-adv-x="329" 
d="M434 717l-52 -81q-14 9 -27 13t-29 4q-47 0 -56 -62l-9 -61h1l-62 -433h72l-14 -97h-73q-15 -63 -44 -104t-69 -66t-100 -49l-32 97q49 21 74 46.5t38 75.5h-74l14 97h75l60 433l9 60q10 77 57.5 121.5t124.5 44.5q65 0 116 -39z" />
    <glyph glyph-name="uni0249" unicode="&#x249;" horiz-adv-x="299" 
d="M283 203h-72l-22 -157q-11 -81 -40.5 -131t-72 -78.5t-108.5 -55.5l-33 99q38 17 61 35t37.5 48.5t21.5 81.5l22 158h-74l14 97h74l32 230h134l-32 -230h72zM154.5 659q-19.5 20 -19.5 51q0 39 25.5 64.5t64.5 25.5q33 0 52.5 -19.5t19.5 -51.5q0 -39 -26 -64.5
t-64 -25.5q-33 0 -52.5 20z" />
    <glyph glyph-name="k" unicode="k" horiz-adv-x="513" 
d="M220 455q68 90 160 90q58 0 93 -33.5t35 -87.5q0 -61 -34 -107t-105 -79l89 -238h-144l-86 257q78 26 110.5 61t32.5 84q0 22 -10.5 34t-30.5 12q-30 0 -64 -30.5t-65 -90.5l-45 -327h-134l104 741l136 15z" />
    <glyph glyph-name="uni01E9" unicode="&#x1e9;" horiz-adv-x="513" 
d="M220 455q68 90 160 90q58 0 93 -33.5t35 -87.5q0 -61 -34 -107t-105 -79l89 -238h-144l-86 257q78 26 110.5 61t32.5 84q0 22 -10.5 34t-30.5 12q-30 0 -64 -30.5t-65 -90.5l-45 -327h-134l104 741l136 15zM492 981l48 -57l-144 -124h-82l-110 128l54 53l107 -84z" />
    <glyph glyph-name="kcommaaccent" unicode="&#x137;" horiz-adv-x="513" 
d="M220 455q68 90 160 90q58 0 93 -33.5t35 -87.5q0 -61 -34 -107t-105 -79l89 -238h-144l-86 257q78 26 110.5 61t32.5 84q0 22 -10.5 34t-30.5 12q-30 0 -64 -30.5t-65 -90.5l-45 -327h-134l104 741l136 15zM265.5 -89q17.5 -18 17.5 -44q0 -21 -7.5 -39.5t-28.5 -53.5
l-53 -89h-68l43 117q-25 18 -25 49q0 34 22 56t53 22q29 0 46.5 -18z" />
    <glyph glyph-name="kgreenlandic" unicode="&#x138;" horiz-adv-x="488" 
d="M231 530l-74 -530h-135l74 530h135zM518 530l-180 -249l118 -281h-145l-112 280l176 250h143z" />
    <glyph glyph-name="uni0199" unicode="&#x199;" horiz-adv-x="513" 
d="M474 317q-34 -46 -104 -79l88 -238h-143l-87 257q78 26 110.5 61t32.5 84q0 22 -10.5 34t-30.5 12q-30 0 -64 -30.5t-65 -90.5l-44 -327h-135l74 529l9 66q11 73 61.5 117t133.5 44q68 0 127 -33l-49 -87q-33 17 -71 17q-32 0 -48 -17t-21 -54l-8 -53h1l-11 -74
q68 90 160 90q58 0 93 -33.5t35 -87.5q0 -61 -34 -107z" />
    <glyph glyph-name="uni029E" unicode="&#x29e;" horiz-adv-x="482" 
d="M-33 0l185 247l-120 283h145l108 -290l-173 -240h-145zM226 -220l104 750h134l-103 -736z" />
    <glyph glyph-name="l" unicode="l" horiz-adv-x="265" 
d="M169 127l-1 -11q0 -22 20 -22q8 0 24 4l16 -95q-39 -18 -87 -18q-51 0 -79.5 28.5t-28.5 80.5q0 20 2 31l86 616l135 15z" />
    <glyph glyph-name="lacute" unicode="&#x13a;" horiz-adv-x="265" 
d="M169 127l-1 -11q0 -22 20 -22q8 0 24 4l16 -95q-39 -18 -87 -18q-51 0 -79.5 28.5t-28.5 80.5q0 20 2 31l86 616l135 15zM292 982l45 -102l-219 -82l-31 67z" />
    <glyph glyph-name="uni019B" unicode="&#x19b;" horiz-adv-x="464" 
d="M392 184q18 -85 56 -156l-129 -42q-35 77 -50 162.5t-17 238.5l-146 -402l-132 32l219 479l55 -10q-3 61 -12 91l-57 -52l-68 46l78 72q-25 16 -74 26l25 88q44 -10 75.5 -22t55.5 -30l76 67l46 -66l-71 -66q33 -70 42 -205q10 -166 28 -251z" />
    <glyph glyph-name="uni019A" unicode="&#x19a;" horiz-adv-x="299" 
d="M195 127l-1 -11q0 -22 20 -22q8 0 24 4l16 -95q-39 -18 -87 -18q-51 0 -79.5 28.5t-28.5 80.5q0 20 2 31l28 198h-73l15 97h71l45 321l135 15l-46 -336h74l-14 -97h-74z" />
    <glyph glyph-name="uni026C" unicode="&#x26c;" horiz-adv-x="381" 
d="M299 98l16 -95q-39 -18 -87 -18q-51 0 -79.5 28.5t-28.5 80.5q0 20 2 31l17 120q-63 3 -95.5 32t-32.5 77q0 55 35.5 87.5t90.5 32.5q19 0 33 -3l38 270l135 15l-60 -431h2q30 1 64 9l3 -73q-36 -10 -78 -13h-1l-17 -121l-1 -11q0 -22 20 -22q8 0 24 4zM150 323l10 77
q-9 3 -20 3q-18 0 -28.5 -11.5t-10.5 -31.5q0 -37 49 -37z" />
    <glyph glyph-name="lcaron" unicode="&#x13e;" horiz-adv-x="311" 
d="M169 127l-1 -11q0 -22 20 -22q8 0 24 4l16 -95q-39 -18 -87 -18q-51 0 -79.5 28.5t-28.5 80.5q0 20 2 31l86 616l135 15zM303 753l101 -13l-71 -204l-69 8z" />
    <glyph glyph-name="uni1E3D" unicode="&#x1e3d;" horiz-adv-x="265" 
d="M169 127l-1 -11q0 -22 20 -22q8 0 24 4l16 -95q-39 -18 -87 -18q-51 0 -79.5 28.5t-28.5 80.5q0 20 2 31l86 616l135 15zM-15 -251l-46 57l144 129h82l109 -132l-56 -54l-104 89z" />
    <glyph glyph-name="lcommaaccent" unicode="&#x13c;" horiz-adv-x="265" 
d="M169 127l-1 -11q0 -22 20 -22q8 0 24 4l16 -95q-39 -18 -87 -18q-51 0 -79.5 28.5t-28.5 80.5q0 20 2 31l86 616l135 15zM165.5 -89q17.5 -18 17.5 -44q0 -21 -7.5 -39.5t-28.5 -53.5l-53 -89h-68l43 117q-25 18 -25 49q0 34 22 56t53 22q29 0 46.5 -18z" />
    <glyph glyph-name="uni0234" unicode="&#x234;" horiz-adv-x="413" 
d="M375.5 210.5q27.5 -26.5 27.5 -71.5q0 -73 -53 -113.5t-133 -40.5q-29 0 -49 4l-38 -70l-62 29l36 62q-33 19 -49.5 50.5t-16.5 72.5q0 21 2 32l81 576l135 15l-85 -612q-1 -6 -1 -17q29 59 60 84.5t76 25.5q42 0 69.5 -26.5zM291 99.5q18 13.5 18 37.5q0 23 -21 23
q-17 0 -31.5 -15.5t-35.5 -57.5q7 -1 23 -1q29 0 47 13.5z" />
    <glyph glyph-name="ldot" unicode="&#x140;" horiz-adv-x="378" 
d="M169 127l-1 -11q0 -22 20 -22q8 0 24 4l16 -95q-39 -18 -87 -18q-51 0 -79.5 28.5t-28.5 80.5q0 20 2 31l86 616l135 15zM262.5 315q-19.5 20 -19.5 51q0 39 25.5 64.5t64.5 25.5q33 0 52.5 -19.5t19.5 -51.5q0 -39 -26 -64.5t-64 -25.5q-33 0 -52.5 20z" />
    <glyph glyph-name="uni1E37" unicode="&#x1e37;" horiz-adv-x="265" 
d="M169 127l-1 -11q0 -22 20 -22q8 0 24 4l16 -95q-39 -18 -87 -18q-51 0 -79.5 28.5t-28.5 80.5q0 20 2 31l86 616l135 15zM174.5 -85q19.5 -20 19.5 -51q0 -39 -25.5 -64.5t-64.5 -25.5q-33 0 -52.5 19.5t-19.5 51.5q0 39 26 64.5t64 25.5q33 0 52.5 -20z" />
    <glyph glyph-name="uni026E" unicode="&#x26e;" horiz-adv-x="629" 
d="M607 434l-201 -226q85 -5 128.5 -47.5t43.5 -118.5q0 -78 -34.5 -137t-95.5 -91.5t-137 -32.5q-64 0 -109.5 23.5t-77.5 67.5l78 70q26 -30 51.5 -42.5t59.5 -12.5q59 0 93 42t34 111q0 47 -24 66.5t-76 19.5h-82l12 83l189 217h-249l-41 -299l-1 -11q0 -22 20 -22
q8 0 24 4l16 -95q-39 -18 -87 -18q-51 0 -79.5 28.5t-28.5 80.5q0 20 2 31l86 616l135 15l-31 -226h395z" />
    <glyph glyph-name="uni026D" unicode="&#x26d;" horiz-adv-x="252" 
d="M292 -179q-56 -40 -129 -40q-70 0 -109.5 37t-39.5 106q0 21 2 33l6 43l105 741l135 15l-106 -756l-8 -60q-1 -5 -1 -14q0 -43 43 -43q18 0 31 4t33 14z" />
    <glyph glyph-name="uni01C9" unicode="&#x1c9;" horiz-adv-x="518" 
d="M169 127l-1 -11q0 -22 20 -22q8 0 24 4l16 -95q-39 -18 -87 -18q-51 0 -79.5 28.5t-28.5 80.5q0 20 2 31l86 616l135 15zM174 -120q38 17 61 35t37.5 48.5t21.5 81.5l68 485h134l-68 -484q-11 -81 -40.5 -131t-72 -78.5t-108.5 -55.5zM393.5 659q-19.5 20 -19.5 51
q0 39 25.5 64.5t64.5 25.5q33 0 52.5 -19.5t19.5 -51.5q0 -39 -26 -64.5t-64 -25.5q-33 0 -52.5 20z" />
    <glyph glyph-name="uni026B" unicode="&#x26b;" horiz-adv-x="399" 
d="M240 127l-1 -11q0 -22 20 -22q8 0 24 4l16 -95q-39 -18 -87 -18q-51 0 -79.5 28.5t-28.5 80.5q0 20 2 31l30 218q-3 1 -9 1q-22 0 -37.5 -13.5t-33.5 -39.5l-67 40q31 51 68 83t86 32h8l41 295l135 15l-51 -370h5q23 0 39 13t33 37l67 -41q-31 -50 -67.5 -81t-84.5 -31
h-6z" />
    <glyph glyph-name="uni02AA" unicode="&#x2aa;" horiz-adv-x="615" 
d="M104 28q-61 43 -61 134q0 20 3 44l76 535l135 15l-78 -556q-2 -20 -2 -28q0 -48 29.5 -67.5t93.5 -19.5q75 0 111.5 20.5t36.5 57.5q0 23 -17 38.5t-64 34.5q-60 24 -86 56t-26 85q0 47 25.5 85.5t69.5 60.5t99 22q95 0 162 -65l-59 -73q-51 39 -100 39
q-32 0 -50.5 -15.5t-18.5 -42.5q0 -23 16.5 -37.5t62.5 -32.5q60 -22 88.5 -56t28.5 -87q0 -95 -79 -142.5t-217 -47.5q-118 0 -179 43z" />
    <glyph glyph-name="lslash" unicode="&#x142;" horiz-adv-x="301" 
d="M231 98l16 -95q-39 -18 -87 -18q-51 0 -79.5 28.5t-28.5 80.5q0 20 2 31l22 155l-41 -25l-26 82l82 49l49 355l135 15l-39 -281l63 38l25 -83l-103 -62l-33 -241l-1 -11q0 -22 20 -22q8 0 24 4z" />
    <glyph glyph-name="uni02AB" unicode="&#x2ab;" horiz-adv-x="629" 
d="M630 432l-259 -326h219l-28 -106h-343q-37 -15 -77 -15q-52 0 -80.5 28.5t-28.5 80.5q0 20 2 31l86 616l135 15l-87 -629q-1 -4 -1 -11q0 -22 20 -22q13 0 24 4l258 327h-194l16 105h352z" />
    <glyph glyph-name="m" unicode="m" horiz-adv-x="754" 
d="M689.5 512q29.5 -34 29.5 -92q0 -16 -3 -34l-55 -386h-134l51 364q2 20 2 25q0 42 -29 42q-44 0 -98 -121l-45 -310h-134l51 364q2 20 2 25q0 42 -30 42q-44 0 -98 -124l-43 -307h-134l74 530h117l-4 -87q66 103 149 103q43 0 70.5 -26t34.5 -73q63 99 148 99
q49 0 78.5 -34z" />
    <glyph glyph-name="uni1E3F" unicode="&#x1e3f;" horiz-adv-x="754" 
d="M689.5 512q29.5 -34 29.5 -92q0 -16 -3 -34l-55 -386h-134l51 364q2 20 2 25q0 42 -29 42q-44 0 -98 -121l-45 -310h-134l51 364q2 20 2 25q0 42 -30 42q-44 0 -98 -124l-43 -307h-134l74 530h117l-4 -87q66 103 149 103q43 0 70.5 -26t34.5 -73q63 99 148 99
q49 0 78.5 -34zM526 821l46 -102l-220 -91l-33 67z" />
    <glyph glyph-name="uni1E41" unicode="&#x1e41;" horiz-adv-x="754" 
d="M689.5 512q29.5 -34 29.5 -92q0 -16 -3 -34l-55 -386h-134l51 364q2 20 2 25q0 42 -29 42q-44 0 -98 -121l-45 -310h-134l51 364q2 20 2 25q0 42 -30 42q-44 0 -98 -124l-43 -307h-134l74 530h117l-4 -87q66 103 149 103q43 0 70.5 -26t34.5 -73q63 99 148 99
q49 0 78.5 -34zM384.5 659q-19.5 20 -19.5 51q0 39 25.5 64.5t64.5 25.5q33 0 52.5 -19.5t19.5 -51.5q0 -39 -26 -64.5t-64 -25.5q-33 0 -52.5 20z" />
    <glyph glyph-name="uni0271" unicode="&#x271;" horiz-adv-x="754" 
d="M689.5 512q29.5 -34 29.5 -92q0 -16 -3 -34l-55 -386l-7 -49q-12 -85 -62.5 -127.5t-128.5 -42.5q-70 0 -119 43l56 78q17 -10 29 -14.5t30 -4.5q25 0 40.5 15t19.5 45l8 57l51 364q2 20 2 25q0 42 -29 42q-44 0 -98 -121l-45 -310h-134l51 364q2 20 2 25q0 42 -30 42
q-44 0 -98 -124l-43 -307h-134l74 530h117l-4 -87q66 103 149 103q43 0 70.5 -26t34.5 -73q63 99 148 99q49 0 78.5 -34z" />
    <glyph glyph-name="uni0270" unicode="&#x270;" horiz-adv-x="750" 
d="M732 530l-104 -736l-136 -14l42 294q-27 -41 -61.5 -65.5t-75.5 -24.5t-70 25.5t-36 72.5q-69 -98 -147 -98q-50 0 -79.5 33.5t-29.5 91.5q0 17 3 35l55 386h134l-52 -364q-2 -20 -2 -25q0 -42 30 -42q23 0 48.5 31.5t49.5 83.5l45 316h134l-52 -364q-2 -20 -2 -25
q0 -42 30 -42q24 0 49.5 32t48.5 84l44 315h134z" />
    <glyph glyph-name="uni026F" unicode="&#x26f;" horiz-adv-x="754" 
d="M732 530l-74 -530h-117l4 87q-66 -103 -149 -103q-43 0 -70.5 26t-34.5 73q-63 -99 -148 -99q-49 0 -78.5 34t-29.5 92q0 16 3 34l55 386h134l-51 -364q-2 -20 -2 -25q0 -42 29 -42q44 0 98 121l45 310h134l-51 -364q-2 -20 -2 -25q0 -42 30 -42q44 0 98 124l43 307h134z
" />
    <glyph glyph-name="n" unicode="n" horiz-adv-x="516" 
d="M450.5 512q30.5 -34 30.5 -93q0 -17 -3 -35l-55 -384h-134l51 364q2 18 2 23q0 43 -32 43q-49 0 -111 -124l-43 -306h-134l74 530h117l-4 -91q71 107 160 107q51 0 81.5 -34z" />
    <glyph glyph-name="nacute" unicode="&#x144;" horiz-adv-x="516" 
d="M450.5 512q30.5 -34 30.5 -93q0 -17 -3 -35l-55 -384h-134l51 364q2 18 2 23q0 43 -32 43q-49 0 -111 -124l-43 -306h-134l74 530h117l-4 -91q71 107 160 107q51 0 81.5 -34zM402 821l46 -102l-220 -91l-33 67z" />
    <glyph glyph-name="napostrophe" unicode="&#x149;" horiz-adv-x="627" 
d="M204 739.5q16 -17.5 14 -43.5q-1 -16 -7.5 -32t-24.5 -48l-49 -81h-61l39 108q-21 18 -21 46t20 48t47 20t43 -17.5zM562.5 512q30.5 -34 30.5 -93q0 -17 -3 -35l-55 -384h-134l51 364q2 18 2 23q0 43 -32 43q-49 0 -111 -124l-43 -306h-134l74 530h117l-4 -91
q71 107 160 107q51 0 81.5 -34z" />
    <glyph glyph-name="ncaron" unicode="&#x148;" horiz-adv-x="516" 
d="M450.5 512q30.5 -34 30.5 -93q0 -17 -3 -35l-55 -384h-134l51 364q2 18 2 23q0 43 -32 43q-49 0 -111 -124l-43 -306h-134l74 530h117l-4 -91q71 107 160 107q51 0 81.5 -34zM446 802l46 -56l-144 -129h-82l-108 129l53 56l104 -88z" />
    <glyph glyph-name="uni1E4B" unicode="&#x1e4b;" horiz-adv-x="516" 
d="M450.5 512q30.5 -34 30.5 -93q0 -17 -3 -35l-55 -384h-134l51 364q2 18 2 23q0 43 -32 43q-49 0 -111 -124l-43 -306h-134l74 530h117l-4 -91q71 107 160 107q51 0 81.5 -34zM75 -251l-46 57l144 129h82l109 -132l-56 -54l-104 89z" />
    <glyph glyph-name="ncommaaccent" unicode="&#x146;" horiz-adv-x="516" 
d="M450.5 512q30.5 -34 30.5 -93q0 -17 -3 -35l-55 -384h-134l51 364q2 18 2 23q0 43 -32 43q-49 0 -111 -124l-43 -306h-134l74 530h117l-4 -91q71 107 160 107q51 0 81.5 -34zM255.5 -89q17.5 -18 17.5 -44q0 -21 -7.5 -39.5t-28.5 -53.5l-53 -89h-68l43 117
q-25 18 -25 49q0 34 22 56t53 22q29 0 46.5 -18z" />
    <glyph glyph-name="uni0235" unicode="&#x235;" horiz-adv-x="686" 
d="M650 211.5q27 -26.5 27 -70.5q0 -74 -53 -115t-133 -41q-30 0 -50 4l-38 -70l-62 29l37 63q-33 19 -49.5 50.5t-16.5 73.5q0 22 2 33l27 192q2 18 2 25q0 45 -33 45q-49 0 -112 -127l-42 -303h-134l74 530h117l-5 -95q33 52 74.5 81t88.5 29q51 0 80 -33t29 -92
q0 -18 -3 -39l-32 -229q-2 -10 -2 -27q29 58 61 85.5t76 27.5q43 0 70 -26.5zM565 99.5q18 13.5 18 37.5q0 23 -21 23q-17 0 -31 -15.5t-36 -57.5q6 -1 22 -1q30 0 48 13.5z" />
    <glyph glyph-name="uni1E45" unicode="&#x1e45;" horiz-adv-x="516" 
d="M450.5 512q30.5 -34 30.5 -93q0 -17 -3 -35l-55 -384h-134l51 364q2 18 2 23q0 43 -32 43q-49 0 -111 -124l-43 -306h-134l74 530h117l-4 -91q71 107 160 107q51 0 81.5 -34zM260.5 659q-19.5 20 -19.5 51q0 39 25.5 64.5t64.5 25.5q33 0 52.5 -19.5t19.5 -51.5
q0 -39 -26 -64.5t-64 -25.5q-33 0 -52.5 20z" />
    <glyph glyph-name="uni1E47" unicode="&#x1e47;" horiz-adv-x="516" 
d="M450.5 512q30.5 -34 30.5 -93q0 -17 -3 -35l-55 -384h-134l51 364q2 18 2 23q0 43 -32 43q-49 0 -111 -124l-43 -306h-134l74 530h117l-4 -91q71 107 160 107q51 0 81.5 -34zM264.5 -85q19.5 -20 19.5 -51q0 -39 -25.5 -64.5t-64.5 -25.5q-33 0 -52.5 19.5t-19.5 51.5
q0 39 26 64.5t64 25.5q33 0 52.5 -20z" />
    <glyph glyph-name="uni01F9" unicode="&#x1f9;" horiz-adv-x="516" 
d="M450.5 512q30.5 -34 30.5 -93q0 -17 -3 -35l-55 -384h-134l51 364q2 18 2 23q0 43 -32 43q-49 0 -111 -124l-43 -306h-134l74 530h117l-4 -91q71 107 160 107q51 0 81.5 -34zM273 820l178 -127l-40 -64l-198 90z" />
    <glyph glyph-name="eng" unicode="&#x14b;" horiz-adv-x="516" 
d="M450.5 512q30.5 -34 30.5 -93q0 -17 -3 -35l-55 -384l-7 -49q-12 -85 -62.5 -127.5t-128.5 -42.5q-70 0 -119 43l56 78q17 -10 29 -14.5t30 -4.5q25 0 40.5 15t19.5 45l8 57l51 364q2 18 2 23q0 43 -32 43q-49 0 -111 -124l-43 -306h-134l74 530h117l-4 -91
q71 107 160 107q51 0 81.5 -34z" />
    <glyph glyph-name="uni0272" unicode="&#x272;" horiz-adv-x="516" 
d="M450.5 512q30.5 -34 30.5 -93q0 -17 -3 -35l-55 -384h-134l51 364q2 18 2 23q0 43 -32 43q-49 0 -111 -124l-43 -306l-7 -49q-12 -85 -62.5 -127.5t-128.5 -42.5q-70 0 -119 43l56 78q17 -10 29 -14.5t30 -4.5q25 0 40.5 15t19.5 45l8 57l74 530h117l-4 -91
q71 107 160 107q51 0 81.5 -34z" />
    <glyph glyph-name="uni0273" unicode="&#x273;" horiz-adv-x="516" 
d="M559 -179q-56 -40 -129 -40q-70 0 -109.5 37t-39.5 106q0 21 2 33l6 43l51 364q2 18 2 23q0 43 -32 43q-49 0 -111 -124l-43 -306h-134l74 530h117l-4 -91q71 107 160 107q51 0 81.5 -34t30.5 -93q0 -17 -3 -35l-55 -384l-8 -60q-1 -5 -1 -14q0 -43 43 -43q18 0 31 4
t33 14z" />
    <glyph glyph-name="uni01CC" unicode="&#x1cc;" horiz-adv-x="769" 
d="M450.5 512q30.5 -34 30.5 -93q0 -17 -3 -35l-55 -384h-134l51 364q2 18 2 23q0 43 -32 43q-49 0 -111 -124l-43 -306h-134l74 530h117l-4 -91q71 107 160 107q51 0 81.5 -34zM425 -120q38 17 61 35t37.5 48.5t21.5 81.5l68 485h134l-68 -484q-11 -81 -40.5 -131
t-72 -78.5t-108.5 -55.5zM644.5 659q-19.5 20 -19.5 51q0 39 25.5 64.5t64.5 25.5q33 0 52.5 -19.5t19.5 -51.5q0 -39 -26 -64.5t-64 -25.5q-33 0 -52.5 20z" />
    <glyph glyph-name="uni019E" unicode="&#x19e;" horiz-adv-x="515" 
d="M450.5 512q30.5 -34 30.5 -93q0 -17 -3 -35l-85 -590l-136 -15l84 585q2 18 2 23q0 43 -33 43q-49 0 -111 -124l-43 -306h-134l74 530h117l-4 -91q71 107 160 107q51 0 81.5 -34z" />
    <glyph glyph-name="ntilde" unicode="&#xf1;" horiz-adv-x="516" 
d="M450.5 512q30.5 -34 30.5 -93q0 -17 -3 -35l-55 -384h-134l51 364q2 18 2 23q0 43 -32 43q-49 0 -111 -124l-43 -306h-134l74 530h117l-4 -91q71 107 160 107q51 0 81.5 -34zM338.5 649q-14.5 7 -31.5 20q-12 10 -20.5 14.5t-17.5 4.5q-15 0 -27 -11t-27 -34l-63 36
q25 48 57 77.5t67 29.5q20 0 33 -7t32 -21q13 -10 20 -14t16 -4q14 0 25.5 10.5t26.5 33.5l63 -37q-24 -49 -56 -77t-66 -28q-17 0 -31.5 7z" />
    <glyph glyph-name="o" unicode="o" horiz-adv-x="526" 
d="M80.5 40.5q-51.5 56.5 -51.5 157.5q0 85 28 164.5t89.5 131t154.5 51.5t144 -56t51 -157q0 -84 -28 -163.5t-89 -132t-154 -52.5t-144.5 56.5zM308 130.5q28 43.5 39.5 103.5t11.5 116q0 93 -67 93q-46 0 -74.5 -42.5t-40 -102t-11.5 -114.5q0 -50 16.5 -73.5t50.5 -23.5
q47 0 75 43.5z" />
    <glyph glyph-name="oacute" unicode="&#xf3;" horiz-adv-x="526" 
d="M80.5 40.5q-51.5 56.5 -51.5 157.5q0 85 28 164.5t89.5 131t154.5 51.5t144 -56t51 -157q0 -84 -28 -163.5t-89 -132t-154 -52.5t-144.5 56.5zM308 130.5q28 43.5 39.5 103.5t11.5 116q0 93 -67 93q-46 0 -74.5 -42.5t-40 -102t-11.5 -114.5q0 -50 16.5 -73.5t50.5 -23.5
q47 0 75 43.5zM404 821l46 -102l-220 -91l-33 67z" />
    <glyph glyph-name="uni0275" unicode="&#x275;" horiz-adv-x="526" 
d="M445 489q51 -56 51 -157q0 -84 -28 -163.5t-89 -132t-154 -52.5t-144.5 56.5t-51.5 157.5q0 85 28 164.5t89.5 131t154.5 51.5t144 -56zM217.5 408q-29.5 -38 -43.5 -98h191l1 35q0 52 -18 76.5t-54 24.5q-47 0 -76.5 -38zM309.5 124q29.5 40 43.5 104h-191
q-2 -15 -2 -43q0 -52 18 -76.5t54 -24.5q48 0 77.5 40z" />
    <glyph glyph-name="obreve" unicode="&#x14f;" horiz-adv-x="526" 
d="M80.5 40.5q-51.5 56.5 -51.5 157.5q0 85 28 164.5t89.5 131t154.5 51.5t144 -56t51 -157q0 -84 -28 -163.5t-89 -132t-154 -52.5t-144.5 56.5zM308 130.5q28 43.5 39.5 103.5t11.5 116q0 93 -67 93q-46 0 -74.5 -42.5t-40 -102t-11.5 -114.5q0 -50 16.5 -73.5t50.5 -23.5
q47 0 75 43.5zM210 681q-35 45 -30 116l75 11q6 -75 63 -75q31 0 54 20.5t36 57.5l72 -18q-15 -71 -59 -114t-109 -43q-67 0 -102 45z" />
    <glyph glyph-name="uni01D2" unicode="&#x1d2;" horiz-adv-x="526" 
d="M80.5 40.5q-51.5 56.5 -51.5 157.5q0 85 28 164.5t89.5 131t154.5 51.5t144 -56t51 -157q0 -84 -28 -163.5t-89 -132t-154 -52.5t-144.5 56.5zM308 130.5q28 43.5 39.5 103.5t11.5 116q0 93 -67 93q-46 0 -74.5 -42.5t-40 -102t-11.5 -114.5q0 -50 16.5 -73.5t50.5 -23.5
q47 0 75 43.5zM448 802l46 -56l-144 -129h-82l-108 129l53 56l104 -88z" />
    <glyph glyph-name="ocircumflex" unicode="&#xf4;" horiz-adv-x="526" 
d="M80.5 40.5q-51.5 56.5 -51.5 157.5q0 85 28 164.5t89.5 131t154.5 51.5t144 -56t51 -157q0 -84 -28 -163.5t-89 -132t-154 -52.5t-144.5 56.5zM308 130.5q28 43.5 39.5 103.5t11.5 116q0 93 -67 93q-46 0 -74.5 -42.5t-40 -102t-11.5 -114.5q0 -50 16.5 -73.5t50.5 -23.5
q47 0 75 43.5zM198 626l-47 57l144 129h82l110 -132l-57 -54l-104 89z" />
    <glyph glyph-name="uni1ED1" unicode="&#x1ed1;" horiz-adv-x="526" 
d="M548 935l67 -71l-158 -139l-48 45zM189 587l-48 56l144 125h82l110 -128l-54 -53l-107 83zM80.5 40.5q-51.5 56.5 -51.5 157.5q0 85 28 164.5t89.5 131t154.5 51.5t144 -56t51 -157q0 -84 -28 -163.5t-89 -132t-154 -52.5t-144.5 56.5zM308 130.5q28 43.5 39.5 103.5
t11.5 116q0 93 -67 93q-46 0 -74.5 -42.5t-40 -102t-11.5 -114.5q0 -50 16.5 -73.5t50.5 -23.5q47 0 75 43.5z" />
    <glyph glyph-name="uni1ED9" unicode="&#x1ed9;" horiz-adv-x="526" 
d="M80.5 40.5q-51.5 56.5 -51.5 157.5q0 85 28 164.5t89.5 131t154.5 51.5t144 -56t51 -157q0 -84 -28 -163.5t-89 -132t-154 -52.5t-144.5 56.5zM308 130.5q28 43.5 39.5 103.5t11.5 116q0 93 -67 93q-46 0 -74.5 -42.5t-40 -102t-11.5 -114.5q0 -50 16.5 -73.5t50.5 -23.5
q47 0 75 43.5zM198 626l-47 57l144 129h82l110 -132l-57 -54l-104 89zM266.5 -85q19.5 -20 19.5 -51q0 -39 -25.5 -64.5t-64.5 -25.5q-33 0 -52.5 19.5t-19.5 51.5q0 39 26 64.5t64 25.5q33 0 52.5 -20z" />
    <glyph glyph-name="uni1ED3" unicode="&#x1ed3;" horiz-adv-x="526" 
d="M145 933l93 -167l-56 -41l-120 144zM189 587l-48 56l144 125h82l110 -128l-54 -53l-107 83zM80.5 40.5q-51.5 56.5 -51.5 157.5q0 85 28 164.5t89.5 131t154.5 51.5t144 -56t51 -157q0 -84 -28 -163.5t-89 -132t-154 -52.5t-144.5 56.5zM308 130.5q28 43.5 39.5 103.5
t11.5 116q0 93 -67 93q-46 0 -74.5 -42.5t-40 -102t-11.5 -114.5q0 -50 16.5 -73.5t50.5 -23.5q47 0 75 43.5z" />
    <glyph glyph-name="uni1ED5" unicode="&#x1ed5;" horiz-adv-x="526" 
d="M80.5 40.5q-51.5 56.5 -51.5 157.5q0 85 28 164.5t89.5 131t154.5 51.5t144 -56t51 -157q0 -84 -28 -163.5t-89 -132t-154 -52.5t-144.5 56.5zM308 130.5q28 43.5 39.5 103.5t11.5 116q0 93 -67 93q-46 0 -74.5 -42.5t-40 -102t-11.5 -114.5q0 -50 16.5 -73.5t50.5 -23.5
q47 0 75 43.5zM186 587l-48 56l144 125h82l110 -128l-54 -53l-107 83zM433 838q35 3 52.5 13.5t17.5 33.5q0 26 -30 26q-26 0 -54 -14l-17 63q43 24 93 24q49 0 76 -25.5t27 -66.5t-23 -65t-65 -32l-8 -54h-81z" />
    <glyph glyph-name="uni1ED7" unicode="&#x1ed7;" horiz-adv-x="526" 
d="M359.5 795.5q-13.5 6.5 -31.5 19.5q-9 7 -19 12.5t-19 5.5q-15 0 -27 -10.5t-26 -32.5l-63 35q25 46 56.5 74t66.5 28q20 0 33.5 -6.5t30.5 -19.5q22 -18 36 -18t25.5 10t26.5 32l62 -35q-24 -47 -55.5 -74t-65.5 -27q-17 0 -30.5 6.5zM188 581l-48 56l144 125h82
l110 -128l-54 -53l-107 83zM80.5 40.5q-51.5 56.5 -51.5 157.5q0 85 28 164.5t89.5 131t154.5 51.5t144 -56t51 -157q0 -84 -28 -163.5t-89 -132t-154 -52.5t-144.5 56.5zM308 130.5q28 43.5 39.5 103.5t11.5 116q0 93 -67 93q-46 0 -74.5 -42.5t-40 -102t-11.5 -114.5
q0 -50 16.5 -73.5t50.5 -23.5q47 0 75 43.5z" />
    <glyph glyph-name="uni020D" unicode="&#x20d;" horiz-adv-x="526" 
d="M80.5 40.5q-51.5 56.5 -51.5 157.5q0 85 28 164.5t89.5 131t154.5 51.5t144 -56t51 -157q0 -84 -28 -163.5t-89 -132t-154 -52.5t-144.5 56.5zM308 130.5q28 43.5 39.5 103.5t11.5 116q0 93 -67 93q-46 0 -74.5 -42.5t-40 -102t-11.5 -114.5q0 -50 16.5 -73.5t50.5 -23.5
q47 0 75 43.5zM228 851l61 -191l-77 -32l-85 178zM381 850l53 -189l-77 -28l-78 175z" />
    </font>
</defs>
</svg>
