<?xml version="1.0" standalone="no"?>
<!DOCTYPE svg PUBLIC "-//W3C//DTD SVG 1.1//EN" "http://www.w3.org/Graphics/SVG/1.1/DTD/svg11.dtd" >
<svg xmlns="http://www.w3.org/2000/svg" xmlns:xlink="http://www.w3.org/1999/xlink" version="1.1">
<metadata>
Created by FontForge 20170731 at Fri Dec  2 11:32:37 2016
 By Aleksey,,,
Digitized data copyright 2012-2016, The Mozilla Foundation and Telefonica S.A.
</metadata>
<defs>
<font id="FiraSansCondensed-SemiBold" horiz-adv-x="504" >
  <font-face 
    font-family="Fira Sans Condensed SemiBold"
    font-weight="600"
    font-stretch="condensed"
    units-per-em="1000"
    panose-1="2 11 6 3 5 0 0 2 0 4"
    ascent="800"
    descent="-200"
    x-height="530"
    cap-height="692"
    bbox="-707 -354 1360 1166"
    underline-thickness="50"
    underline-position="-150"
    unicode-range="U+000D-FEFF"
  />
<missing-glyph horiz-adv-x="666" 
d="M543 1050v-1400h-420v1400h420zM489 998h-311v-1296h311v1296zM409.5 419q25.5 -32 25.5 -83q0 -53 -22.5 -82t-72.5 -36v-45q0 -11 -7.5 -17.5t-17.5 -6.5t-17.5 6.5t-7.5 17.5v84q53 3 72 19.5t19 57.5q0 33 -13 51t-48 18q-29 0 -52 -11q-8 -3 -13 -3q-11 0 -17.5 6.5
t-6.5 16.5q0 19 29.5 29t63.5 10q60 0 85.5 -32zM340 110q10 -10 10 -25q0 -16 -10 -26.5t-25 -10.5t-25 10.5t-10 26.5q0 15 10 25t25 10t25 -10z" />
    <glyph glyph-name="fi" unicode="fi" horiz-adv-x="542" 
d="M433 717l-40 -89q-48 24 -103 24q-40 0 -56 -16t-16 -52v-54h264v-530h-139v431h-125v-431h-139v431h-74v99h74v58q0 74 48 121t147 47q87 0 159 -39z" />
    <glyph glyph-name="fl" unicode="fl" horiz-adv-x="571" 
d="M569 3q-38 -19 -87 -19q-61 0 -94.5 35.5t-33.5 100.5v524q-37 10 -71 10q-37 0 -51 -15.5t-14 -51.5v-57h91l-15 -99h-76v-431h-139v431h-74v99h74v60q0 73 47 119.5t136 46.5q54 0 105 -18l126 14v-623q0 -34 25 -34q12 0 24 4z" />
    <glyph glyph-name=".notdef" horiz-adv-x="666" 
d="M543 1050v-1400h-420v1400h420zM489 998h-311v-1296h311v1296zM409.5 419q25.5 -32 25.5 -83q0 -53 -22.5 -82t-72.5 -36v-45q0 -11 -7.5 -17.5t-17.5 -6.5t-17.5 6.5t-7.5 17.5v84q53 3 72 19.5t19 57.5q0 33 -13 51t-48 18q-29 0 -52 -11q-8 -3 -13 -3q-11 0 -17.5 6.5
t-6.5 16.5q0 19 29.5 29t63.5 10q60 0 85.5 -32zM340 110q10 -10 10 -25q0 -16 -10 -26.5t-25 -10.5t-25 10.5t-10 26.5q0 15 10 25t25 10t25 -10z" />
    <glyph glyph-name=".null" horiz-adv-x="0" 
 />
    <glyph glyph-name="nonmarkingreturn" unicode="&#xd;" horiz-adv-x="215" 
 />
    <glyph glyph-name="space" unicode=" " horiz-adv-x="215" 
 />
    <glyph glyph-name="exclam" unicode="!" horiz-adv-x="229" 
d="M188 692l-18 -444h-111l-19 444h148zM173.5 127.5q23.5 -24.5 23.5 -59.5t-23.5 -59.5t-59.5 -24.5q-35 0 -58.5 25t-23.5 59t23.5 59t58.5 25q36 0 59.5 -24.5z" />
    <glyph glyph-name="quotedbl" unicode="&#x22;" horiz-adv-x="415" 
d="M64 418l-17 274h125l-17 -274h-91zM260 418l-17 274h125l-17 -274h-91z" />
    <glyph glyph-name="numbersign" unicode="#" horiz-adv-x="499" 
d="M486 442h-63l-26 -199h55v-93h-67l-20 -150h-112l20 150h-98l-20 -150h-112l20 150h-50v93h62l26 199h-55v94h68l18 138h112l-18 -138h98l18 138h112l-18 -138h50v-94zM285 243l26 199h-98l-26 -199h98z" />
    <glyph glyph-name="dollar" unicode="$" horiz-adv-x="494" 
d="M426 67.5q-44 -53.5 -122 -71.5v-155h-101v149q-116 9 -195 92l70 76q69 -64 149 -64q48 0 74.5 24.5t26.5 68.5q0 40 -24 63.5t-89 45.5q-98 35 -140 82t-42 119t47 122t123 62v147h101v-147q85 -14 150 -79l-65 -75q-60 54 -130 54q-40 0 -62.5 -19.5t-22.5 -54.5
q0 -23 10 -39t35.5 -30.5t73.5 -31.5q91 -34 134 -79.5t43 -130.5q0 -75 -44 -128.5z" />
    <glyph glyph-name="percent" unicode="%" horiz-adv-x="780" 
d="M557 717l86 -51l-419 -703l-85 51zM305 640q45 -47 45 -130q0 -82 -45 -129.5t-115 -47.5q-68 0 -113 47.5t-45 129.5q0 83 44.5 130t113.5 47q70 0 115 -47zM144 579q-13 -24 -13 -69q0 -44 13.5 -68.5t45.5 -24.5q33 0 46 24t13 69t-13 69t-46 24t-46 -24zM703.5 291
q44.5 -47 44.5 -130t-44.5 -130t-114.5 -47q-69 0 -114.5 47t-45.5 130q0 82 45.5 129.5t114.5 47.5q70 0 114.5 -47zM543 229.5q-13 -23.5 -13 -68.5q0 -44 13.5 -68.5t45.5 -24.5q33 0 46 24t13 69t-13 68.5t-46 23.5t-46 -23.5z" />
    <glyph glyph-name="ampersand" unicode="&#x26;" horiz-adv-x="685" 
d="M424 663q52 -45 52 -115q0 -58 -31.5 -101t-91.5 -86l129 -138q26 64 43 148l114 -31q-33 -109 -82 -189l109 -107l-115 -60l-75 82q-83 -82 -199 -82q-64 0 -114 24t-77.5 68t-27.5 100q0 61 29.5 106t94.5 90q-49 50 -69 87t-20 85q0 45 21.5 82t64.5 59.5t105 22.5
q88 0 140 -45zM241.5 597.5q-15.5 -18.5 -15.5 -52.5q0 -31 11.5 -54.5t41.5 -58.5q34 29 49 53.5t15 59.5q0 71 -58 71q-28 0 -43.5 -18.5zM215.5 245q-13.5 -27 -13.5 -62q0 -47 26.5 -72.5t71.5 -25.5q61 0 108 49l-149 163q-30 -25 -43.5 -52z" />
    <glyph glyph-name="quotesingle" unicode="'" horiz-adv-x="219" 
d="M64 418l-17 274h125l-17 -274h-91z" />
    <glyph glyph-name="parenleft" unicode="(" horiz-adv-x="298" 
d="M281 795q-66 -105 -94.5 -203.5t-28.5 -241.5t29 -241.5t94 -203.5l-89 -60q-56 83 -91.5 150t-58.5 155t-23 200t23 200t58.5 155t91.5 150z" />
    <glyph glyph-name="parenright" unicode=")" horiz-adv-x="298" 
d="M198 703q35 -66 58 -153.5t23 -199.5t-23 -199.5t-58 -153.5t-93 -152l-89 60q65 104 94 203.5t29 241.5t-29 241.5t-94 203.5l89 60q58 -86 93 -152z" />
    <glyph glyph-name="asterisk" unicode="*" horiz-adv-x="415" 
d="M402 543l-128 -26l94 -107l-99 -66l-61 126l-61 -126l-99 65l94 107l-129 26l37 108l117 -58l-19 149h119l-19 -151l116 61z" />
    <glyph glyph-name="plus" unicode="+" horiz-adv-x="476" 
d="M296 538v-152h136v-109h-136v-152h-115v152h-137v109h137v152h115z" />
    <glyph glyph-name="comma" unicode="," horiz-adv-x="224" 
d="M170 128q23 -24 23 -59q0 -18 -6 -38t-22 -59l-58 -146h-78l39 173q-37 25 -37 70q0 35 23 59t58 24t58 -24z" />
    <glyph glyph-name="hyphen" unicode="-" horiz-adv-x="373" 
d="M44 258v110h285v-110h-285z" />
    <glyph glyph-name="period" unicode="." horiz-adv-x="227" 
d="M172.5 127.5q23.5 -24.5 23.5 -59.5t-23.5 -59.5t-59.5 -24.5q-35 0 -58.5 25t-23.5 59t23.5 59t58.5 25q36 0 59.5 -24.5z" />
    <glyph glyph-name="slash" unicode="/" horiz-adv-x="468" 
d="M282 814l119 -27l-214 -897l-120 27z" />
    <glyph glyph-name="zero" unicode="0" horiz-adv-x="539" 
d="M439.5 598q58.5 -89 58.5 -262q0 -174 -58 -263t-170 -89t-170 88.5t-58 263.5t58 263t170 88q111 0 169.5 -89zM220.5 561q-18.5 -22 -27.5 -76t-9 -149q0 -96 9 -150t27.5 -76t49.5 -22t49.5 22t27 75.5t8.5 150.5t-8.5 150.5t-27 75t-49.5 21.5t-49.5 -22z" />
    <glyph glyph-name="one" unicode="1" horiz-adv-x="416" 
d="M339 674v-674h-136v537l-131 -89l-61 91l204 135h124z" />
    <glyph glyph-name="two" unicode="2" horiz-adv-x="459" 
d="M321.5 662q47.5 -25 72 -67.5t24.5 -94.5q0 -56 -21 -107t-72 -116t-150 -169h256l-15 -108h-393v101q109 122 160 187t71.5 109.5t20.5 91.5q0 43 -21 66.5t-58 23.5q-32 0 -57 -16t-55 -52l-82 64q80 112 207 112q65 0 112.5 -25z" />
    <glyph glyph-name="three" unicode="3" horiz-adv-x="468" 
d="M322 664q46 -23 70 -62t24 -87q0 -61 -33 -101t-97 -57q68 -8 109 -49t41 -116q0 -57 -27.5 -104.5t-79.5 -75.5t-124 -28q-126 0 -208 99l77 70q32 -33 60 -47.5t62 -14.5q45 0 71.5 28.5t26.5 79.5q0 56 -27 80.5t-80 24.5h-48l16 96h32q44 0 69.5 25.5t25.5 72.5
q0 41 -22.5 63t-62.5 22q-63 0 -117 -56l-69 72q86 88 203 88q62 0 108 -23z" />
    <glyph glyph-name="four" unicode="4" horiz-adv-x="507" 
d="M488 257v-106h-69v-151h-133l-1 151h-260v94l174 444l117 -42l-149 -390h120l15 165h117v-165h69z" />
    <glyph glyph-name="five" unicode="5" horiz-adv-x="483" 
d="M408 573h-222v-159q44 24 92 24q77 0 125.5 -57.5t48.5 -159.5q0 -70 -29.5 -124t-83 -83.5t-125.5 -29.5q-65 0 -113.5 25.5t-87.5 72.5l78 70q26 -30 54.5 -46t63.5 -16q48 0 74.5 33t26.5 97q0 66 -22.5 93.5t-63.5 27.5q-20 0 -37.5 -5.5t-37.5 -18.5h-95v357h370z
" />
    <glyph glyph-name="six" unicode="6" horiz-adv-x="516" 
d="M405.5 425q39.5 -26 62 -76t22.5 -119q0 -73 -26.5 -128.5t-76 -86.5t-116.5 -31q-117 0 -173 85t-56 241q0 114 32 199.5t91 131.5t140 46q79 0 137 -43l-50 -83q-43 25 -83 25q-53 0 -85.5 -52t-39.5 -152q53 69 133 69q49 0 88.5 -26zM332.5 325.5
q-18.5 27.5 -53.5 27.5q-51 0 -95 -65q1 -75 10 -119t27.5 -63.5t49.5 -19.5q80 0 80 147q0 65 -18.5 92.5z" />
    <glyph glyph-name="seven" unicode="7" horiz-adv-x="420" 
d="M404 674v-96l-224 -592l-125 41l207 541h-250v106h392z" />
    <glyph glyph-name="eight" unicode="8" horiz-adv-x="522" 
d="M463.5 285q30.5 -44 30.5 -103q0 -57 -28 -102t-81.5 -70.5t-126.5 -25.5q-71 0 -123.5 25.5t-80 69.5t-27.5 100q0 115 119 170q-50 30 -72 69.5t-22 89.5q0 82 58 130.5t150 48.5q94 0 152.5 -45.5t58.5 -126.5q0 -96 -103 -153q65 -33 95.5 -77zM185 506
q0 -38 18 -60.5t60 -41.5l18 -8q32 24 44 50t12 61q0 85 -76 85t-76 -86zM332.5 110q24.5 25 24.5 72q0 44 -22 69t-78 49l-27 11q-65 -42 -65 -126q0 -49 25.5 -74.5t71.5 -25.5t70.5 25z" />
    <glyph glyph-name="nine" unicode="9" horiz-adv-x="508" 
d="M417.5 617.5q57.5 -69.5 57.5 -192.5q0 -137 -40 -225t-121.5 -141t-214.5 -85l-28 98q120 34 180.5 85.5t76.5 145.5q-51 -66 -127 -66q-47 0 -87.5 27t-64 77t-23.5 116q0 71 29.5 123t80 79.5t114.5 27.5q110 0 167.5 -69.5zM333 398q1 72 -7 113t-26 58.5t-50 17.5
q-40 0 -62.5 -31t-22.5 -96t21 -94.5t57 -29.5q53 0 90 62z" />
    <glyph glyph-name="colon" unicode=":" horiz-adv-x="227" 
d="M172.5 127.5q23.5 -24.5 23.5 -59.5t-23.5 -59.5t-59.5 -24.5q-35 0 -58.5 25t-23.5 59t23.5 59t58.5 25q36 0 59.5 -24.5zM172.5 478.5q23.5 -24.5 23.5 -59.5t-23.5 -59.5t-59.5 -24.5q-35 0 -58.5 25t-23.5 59t23.5 59t58.5 25q36 0 59.5 -24.5z" />
    <glyph glyph-name="semicolon" unicode=";" horiz-adv-x="227" 
d="M170 128q23 -24 23 -59q0 -18 -6 -38t-22 -59l-58 -146h-78l39 173q-37 25 -37 70q0 35 23 59t58 24t58 -24zM172.5 478.5q23.5 -24.5 23.5 -59.5t-23.5 -59.5t-59.5 -24.5q-35 0 -58.5 25t-23.5 59t23.5 59t58.5 25q36 0 59.5 -24.5z" />
    <glyph glyph-name="less" unicode="&#x3c;" horiz-adv-x="466" 
d="M389 566l46 -98l-291 -135l291 -132l-46 -101l-358 172v122z" />
    <glyph glyph-name="equal" unicode="=" horiz-adv-x="466" 
d="M44 381v107h378v-107h-378zM44 175v107h378v-107h-378z" />
    <glyph glyph-name="greater" unicode="&#x3e;" horiz-adv-x="466" 
d="M77 566l358 -172v-122l-358 -172l-46 101l291 132l-291 135z" />
    <glyph glyph-name="question" unicode="?" horiz-adv-x="438" 
d="M332 685.5q44 -22.5 66.5 -60t22.5 -81.5q0 -39 -12.5 -66.5t-29.5 -45.5t-47 -41q-37 -28 -55 -51.5t-18 -60.5v-31h-127v36q0 45 12.5 76t30.5 49.5t45 39.5q30 23 44 41t14 46q0 29 -17.5 45.5t-49.5 16.5q-57 0 -109 -61l-85 66q80 105 208 105q63 0 107 -22.5z
M256.5 127.5q23.5 -24.5 23.5 -59.5t-23.5 -59.5t-59.5 -24.5q-35 0 -58.5 25t-23.5 59t23.5 59t58.5 25q36 0 59.5 -24.5z" />
    <glyph glyph-name="at" unicode="@" horiz-adv-x="924" 
d="M556 488.5q40 -11.5 76 -32.5v-250q0 -64 10 -87.5t34 -23.5q76 0 76 216q0 140 -69 217t-206 77q-96 0 -164.5 -45.5t-104 -127.5t-35.5 -190q0 -171 78.5 -264t226.5 -93q45 0 91.5 9t84.5 24l33 -96q-99 -41 -210 -41q-131 0 -227.5 56t-149 159.5t-52.5 244.5
q0 134 55 240.5t152.5 166.5t221.5 60t214.5 -53.5t137.5 -143.5t47 -198q0 -88 -24 -158t-68.5 -110t-102.5 -40q-49 0 -80 29t-39 69q-18 -43 -50.5 -68.5t-79.5 -25.5q-80 0 -122 60t-42 163q0 127 55 197.5t153 70.5q40 0 80 -11.5zM488.5 111q16.5 14 26.5 35v257
q-21 8 -43 8q-40 0 -59 -40.5t-19 -138.5q0 -75 13 -105t44 -30q21 0 37.5 14z" />
    <glyph glyph-name="A" unicode="A" horiz-adv-x="539" 
d="M397 0l-34 156h-190l-34 -156h-146l190 692h174l189 -692h-149zM197 262h142l-71 323z" />
    <glyph glyph-name="B" unicode="B" horiz-adv-x="557" 
d="M491.5 314q40.5 -38 40.5 -114q0 -105 -72.5 -152.5t-200.5 -47.5h-197v692h172q131 0 201.5 -43.5t70.5 -133.5q0 -59 -34.5 -96.5t-88.5 -52.5q68 -14 108.5 -52zM206 588v-178h52q101 0 101 92q0 46 -26.5 66t-84.5 20h-42zM352.5 129q31.5 22 31.5 78q0 105 -116 105
h-62v-205h54q61 0 92.5 22z" />
    <glyph glyph-name="C" unicode="C" horiz-adv-x="520" 
d="M419 689.5q45 -18.5 87 -55.5l-69 -82q-28 24 -55 35.5t-58 11.5q-139 0 -139 -252q0 -130 37 -190t103 -60q35 0 62 14t59 40l67 -81q-35 -38 -85 -62t-111 -24q-85 0 -148.5 40.5t-98.5 122t-35 200.5q0 117 36 198t100 122t145 41q58 0 103 -18.5z" />
    <glyph glyph-name="D" unicode="D" horiz-adv-x="592" 
d="M399.5 665q70.5 -27 114 -103t43.5 -213q0 -349 -309 -349h-186v692h172q95 0 165.5 -27zM206 586v-480h50q74 0 113 52.5t39 190.5q0 96 -19.5 148t-52.5 70.5t-81 18.5h-49z" />
    <glyph glyph-name="E" unicode="E" horiz-adv-x="475" 
d="M442 692l-15 -105h-221v-183h193v-104h-193v-194h236v-106h-380v692h380z" />
    <glyph glyph-name="F" unicode="F" horiz-adv-x="441" 
d="M62 0v692h370l-16 -105h-210v-199h183v-105h-183v-283h-144z" />
    <glyph glyph-name="G" unicode="G" horiz-adv-x="586" 
d="M445.5 686.5q50.5 -21.5 93.5 -61.5l-73 -75q-34 27 -63 39t-66 12q-153 0 -153 -255q0 -97 14.5 -152.5t43 -78.5t74.5 -23q48 0 88 24v174h-84l-14 104h236v-340q-49 -33 -107 -51.5t-117 -18.5q-142 0 -212.5 90t-70.5 273q0 117 39 198.5t106.5 122t151.5 40.5
q63 0 113.5 -21.5z" />
    <glyph glyph-name="H" unicode="H" horiz-adv-x="604" 
d="M398 0v304h-192v-304h-144v692h144v-274h192v274h144v-692h-144z" />
    <glyph glyph-name="I" unicode="I" horiz-adv-x="268" 
d="M206 692v-692h-144v692h144z" />
    <glyph glyph-name="J" unicode="J" horiz-adv-x="286" 
d="M227 103q0 -114 -52.5 -171.5t-145.5 -91.5l-39 102q40 18 60 39t26.5 50t6.5 77v584h144v-589z" />
    <glyph glyph-name="K" unicode="K" horiz-adv-x="570" 
d="M206 692v-692h-144v692h144zM563 692l-203 -312l220 -380h-163l-206 369l204 323h148z" />
    <glyph glyph-name="L" unicode="L" horiz-adv-x="460" 
d="M206 692v-576h244l-15 -116h-373v692h144z" />
    <glyph glyph-name="M" unicode="M" horiz-adv-x="718" 
d="M682 0h-139l-11 283q-6 108 -6 210q0 48 1 70l-100 -489h-136l-105 490q3 -63 3 -124q0 -51 -4 -161l-11 -279h-138l48 692h181l97 -479l89 479h183z" />
    <glyph glyph-name="N" unicode="N" horiz-adv-x="602" 
d="M540 0h-183l-186 553q2 -14 2 -22q8 -70 12.5 -126.5t4.5 -131.5v-273h-128v692h180l189 -554q-19 130 -19 246v308h128v-692z" />
    <glyph glyph-name="O" unicode="O" horiz-adv-x="629" 
d="M521 615.5q73 -92.5 73 -269.5q0 -175 -73 -268.5t-206 -93.5t-206.5 92.5t-73.5 269.5q0 175 73.5 268.5t206.5 93.5t206 -92.5zM217 541q-32 -59 -32 -195q0 -137 32.5 -195.5t97.5 -58.5q66 0 97.5 58.5t31.5 195.5q0 136 -31.5 195t-97.5 59t-98 -59z" />
    <glyph glyph-name="P" unicode="P" horiz-adv-x="539" 
d="M451 636q70 -56 70 -166q0 -116 -69 -174.5t-190 -58.5h-56v-237h-144v692h188q131 0 201 -56zM343 372q30 29 30 97q0 61 -30 90t-92 29h-45v-245h46q61 0 91 29z" />
    <glyph glyph-name="Q" unicode="Q" horiz-adv-x="629" 
d="M549 26q44 -16 84 -49l-88 -112q-49 60 -103.5 91t-135.5 31q-126 0 -198.5 92.5t-72.5 266.5t74 268t206 94t205.5 -93t73.5 -269q0 -120 -40 -191t-109 -112q60 -1 104 -17zM217.5 150.5q32.5 -58.5 97.5 -58.5q66 0 97.5 58.5t31.5 195.5t-31.5 195.5t-97.5 58.5
t-98 -59t-32 -195q0 -137 32.5 -195.5z" />
    <glyph glyph-name="R" unicode="R" horiz-adv-x="558" 
d="M268 273h-62v-273h-144v692h192q266 0 266 -206q0 -135 -121 -186l159 -300h-159zM261 374q57 0 83.5 27t26.5 85q0 53 -28.5 78t-89.5 25h-47v-215h55z" />
    <glyph glyph-name="S" unicode="S" horiz-adv-x="513" 
d="M377.5 686q51.5 -22 94.5 -65l-67 -77q-33 29 -66 42.5t-69 13.5q-41 0 -64.5 -20.5t-23.5 -56.5q0 -24 10.5 -40.5t36.5 -31.5t76 -33q62 -23 101.5 -50t61 -68t21.5 -101q0 -62 -29.5 -110.5t-85.5 -76.5t-131 -28q-141 0 -235 96l72 80q38 -33 75.5 -50t80.5 -17
q49 0 76 26t27 71q0 40 -24.5 64.5t-90.5 48.5q-102 38 -146 86t-44 124q0 57 29 101.5t80 69t115 24.5q68 0 119.5 -22z" />
    <glyph glyph-name="T" unicode="T" horiz-adv-x="485" 
d="M484 692l-15 -112h-155v-580h-144v580h-162v112h476z" />
    <glyph glyph-name="U" unicode="U" horiz-adv-x="588" 
d="M536 211q0 -65 -27.5 -116.5t-82 -81t-132.5 -29.5q-118 0 -180 62t-62 165v481h144v-475q0 -62 24 -92.5t74 -30.5q51 0 74.5 30.5t23.5 92.5v475h144v-481z" />
    <glyph glyph-name="V" unicode="V" horiz-adv-x="521" 
d="M528 692l-175 -692h-179l-181 692h149l124 -572l118 572h144z" />
    <glyph glyph-name="W" unicode="W" horiz-adv-x="767" 
d="M755 692l-106 -692h-187l-80 544l-83 -544h-184l-103 692h141l67 -580l89 580h151l85 -580l75 580h135z" />
    <glyph glyph-name="X" unicode="X" horiz-adv-x="520" 
d="M344 373l180 -373h-154l-113 277l-110 -277h-151l176 368l-162 324h154l95 -234l99 234h150z" />
    <glyph glyph-name="Y" unicode="Y" horiz-adv-x="532" 
d="M538 692l-200 -431v-261h-144v260l-200 432h155l120 -316l120 316h149z" />
    <glyph glyph-name="Z" unicode="Z" horiz-adv-x="486" 
d="M459 692v-110l-281 -466h286l-15 -116h-433v109l284 470h-256v113h415z" />
    <glyph glyph-name="bracketleft" unicode="[" horiz-adv-x="293" 
d="M269 821v-106h-104v-732h104v-104h-235v942h235z" />
    <glyph glyph-name="backslash" unicode="\" horiz-adv-x="468" 
d="M186 813l215 -896l-119 -27l-215 896z" />
    <glyph glyph-name="bracketright" unicode="]" horiz-adv-x="293" 
d="M260 821v-942h-235v105h104v732h-104v105h235z" />
    <glyph glyph-name="asciicircum" unicode="^" 
d="M315 843l170 -316h-136l-98 209l-95 -209h-137l170 316h126z" />
    <glyph glyph-name="underscore" unicode="_" horiz-adv-x="471" 
d="M11 -162v110h449v-110h-449z" />
    <glyph glyph-name="grave" unicode="`" horiz-adv-x="310" 
d="M89 822l194 -126l-39 -69l-211 92z" />
    <glyph glyph-name="a" unicode="a" horiz-adv-x="496" 
d="M442.5 99q7.5 -13 25.5 -21l-29 -92q-44 5 -71.5 22t-42.5 53q-49 -77 -143 -77q-71 0 -113.5 45.5t-42.5 118.5q0 86 58 132t167 46h47v30q0 49 -18.5 68.5t-61.5 19.5q-52 0 -127 -28l-31 91q44 19 91.5 29t89.5 10q99 0 146.5 -46t47.5 -137v-223q0 -28 7.5 -41z
M298 142v105h-33q-51 0 -76 -21.5t-25 -65.5q0 -37 15 -56.5t43 -19.5q49 0 76 58z" />
    <glyph glyph-name="b" unicode="b" horiz-adv-x="541" 
d="M459 473.5q46 -72.5 46 -208.5q0 -85 -23 -148.5t-66 -98t-101 -34.5q-38 0 -70.5 18t-54.5 49l-7 -51h-124v741l139 15v-281q23 33 57 52t74 19q84 0 130 -72.5zM338.5 128q22.5 41 22.5 137q0 101 -20 139t-58 38q-25 0 -46.5 -17.5t-38.5 -48.5v-234q14 -26 34 -40.5
t44 -14.5q40 0 62.5 41z" />
    <glyph glyph-name="c" unicode="c" horiz-adv-x="434" 
d="M355 530.5q39 -15.5 74 -47.5l-60 -80q-46 35 -91 35q-49 0 -73.5 -40.5t-24.5 -135.5q0 -92 25 -129.5t72 -37.5q24 0 44.5 8t46.5 26l61 -83q-70 -62 -159 -62q-111 0 -173.5 72t-62.5 205q0 86 28.5 150.5t81.5 99.5t124 35q48 0 87 -15.5z" />
    <glyph glyph-name="d" unicode="d" horiz-adv-x="543" 
d="M484 741v-741h-124l-6 63q-51 -79 -135 -79q-89 0 -136 74t-47 207q0 84 24.5 147.5t68.5 98.5t101 35q69 0 115 -53v263zM306.5 102.5q20.5 15.5 38.5 46.5v244q-18 25 -36 37.5t-42 12.5q-41 0 -64 -42.5t-23 -135.5q0 -97 21 -137.5t59 -40.5q26 0 46.5 15.5z" />
    <glyph glyph-name="e" unicode="e" 
d="M472 223h-298q6 -75 33 -105t75 -30q32 0 59.5 10.5t58.5 34.5l57 -78q-81 -71 -185 -71q-116 0 -177 73.5t-61 204.5q0 128 58.5 206t164.5 78q103 0 160.5 -69.5t57.5 -199.5q0 -31 -3 -54zM339 317q0 67 -19 100.5t-61 33.5q-39 0 -60 -32t-25 -109h165v7z" />
    <glyph glyph-name="f" unicode="f" horiz-adv-x="323" 
d="M230 637q-14 -15 -14 -49v-58h111l-15 -99h-96v-431h-139v431h-72v99h72v57q0 76 47 122.5t134 46.5q66 0 130 -31l-38 -91q-37 18 -75 18q-31 0 -45 -15z" />
    <glyph glyph-name="g" unicode="g" horiz-adv-x="492" 
d="M494 501q-46 -19 -137 -19q46 -21 68 -54t22 -83q0 -79 -54 -128t-147 -49q-29 0 -55 6q-8 -5 -13 -15t-5 -21q0 -17 11.5 -26.5t43.5 -9.5h67q85 0 136 -42t51 -108q0 -79 -64.5 -125t-183.5 -46q-128 0 -178 42.5t-50 125.5h124q0 -40 21.5 -57t83.5 -17q59 0 83 17.5
t24 49.5q0 61 -77 61h-56q-78 0 -115 28t-37 74q0 29 15.5 54.5t42.5 43.5q-46 26 -66.5 62t-20.5 89q0 88 58 140t154 51q72 -1 119 14.5t100 46.5zM185 428.5q-19 -24.5 -19 -72.5t19.5 -73.5t54.5 -25.5q37 0 55.5 24t18.5 77q0 49 -18.5 72t-55.5 23q-36 0 -55 -24.5z
" />
    <glyph glyph-name="h" unicode="h" horiz-adv-x="524" 
d="M433 504q36 -42 36 -113v-391h-139v372q0 37 -11.5 53t-34.5 16q-44 0 -86 -73v-368h-139v741l139 14v-286q29 39 62 58t75 19q62 0 98 -42z" />
    <glyph glyph-name="i" unicode="i" horiz-adv-x="258" 
d="M198 530v-530h-139v530h139zM188.5 778q23.5 -23 23.5 -58t-23.5 -58.5t-59.5 -23.5t-59.5 23.5t-23.5 58.5t23.5 58t59.5 23t59.5 -23z" />
    <glyph glyph-name="j" unicode="j" horiz-adv-x="257" 
d="M198 41q0 -74 -23.5 -123t-64 -80t-102.5 -57l-46 101q35 18 55 35.5t31 45.5t11 73v494h139v-489zM188.5 778q23.5 -23 23.5 -58t-23.5 -58.5t-59.5 -23.5t-59.5 23.5t-23.5 58.5t23.5 58t59.5 23t59.5 -23z" />
    <glyph glyph-name="k" unicode="k" horiz-adv-x="498" 
d="M198 756v-756h-139v741zM493 530l-150 -233l162 -297h-153l-149 290l151 240h139z" />
    <glyph glyph-name="l" unicode="l" horiz-adv-x="271" 
d="M89 20q-35 36 -35 100v621l139 15v-630q0 -31 26 -31q11 0 23 4l27 -96q-35 -19 -84 -19q-61 0 -96 36z" />
    <glyph glyph-name="m" unicode="m" horiz-adv-x="765" 
d="M675 504q35 -42 35 -113v-391h-138v372q0 69 -41 69q-22 0 -41 -17.5t-37 -52.5v-371h-137v372q0 69 -41 69q-23 0 -42 -17.5t-36 -52.5v-371h-138v530h121l10 -66q27 40 60.5 61t76.5 21q41 0 70.5 -22.5t43.5 -64.5q59 87 142 87q57 0 92 -42z" />
    <glyph glyph-name="n" unicode="n" horiz-adv-x="524" 
d="M433.5 504.5q35.5 -41.5 35.5 -113.5v-391h-139v372q0 37 -11.5 53t-33.5 16q-45 0 -87 -73v-368h-139v530h121l10 -67q30 41 64.5 62t80.5 21q63 0 98.5 -41.5z" />
    <glyph glyph-name="o" unicode="o" horiz-adv-x="533" 
d="M437.5 473.5q61.5 -72.5 61.5 -208.5q0 -131 -62 -206t-171 -75t-170.5 73t-61.5 208q0 133 61.5 207t171.5 74q109 0 170.5 -72.5zM200 400q-22 -42 -22 -135q0 -95 21.5 -136t66.5 -41t67 42t22 135q0 94 -21.5 135.5t-66.5 41.5t-67 -42z" />
    <glyph glyph-name="p" unicode="p" horiz-adv-x="541" 
d="M460.5 473.5q44.5 -72.5 44.5 -207.5q0 -84 -23 -147.5t-66 -99t-101 -35.5q-72 0 -117 56v-244l-139 -15v749h123l7 -61q54 77 139 77q88 0 132.5 -72.5zM361 265q0 98 -19.5 137.5t-57.5 39.5q-50 0 -86 -65v-240q32 -49 77 -49q86 0 86 177z" />
    <glyph glyph-name="q" unicode="q" horiz-adv-x="543" 
d="M484 530v-749l-139 15v258q-48 -70 -127 -70q-88 0 -135 74t-47 207q0 84 24 147.5t68.5 98.5t102.5 35q72 0 125 -64l7 48h121zM306.5 102.5q20.5 15.5 38.5 47.5v243q-18 25 -36.5 37.5t-41.5 12.5q-40 0 -63.5 -43t-23.5 -135q0 -99 20.5 -138.5t59.5 -39.5
q26 0 46.5 15.5z" />
    <glyph glyph-name="r" unicode="r" horiz-adv-x="362" 
d="M364 537l-23 -134q-21 6 -42 6q-42 0 -65 -31.5t-36 -95.5v-282h-139v530h121l11 -96q19 53 51 81.5t75 28.5q26 0 47 -7z" />
    <glyph glyph-name="s" unicode="s" horiz-adv-x="435" 
d="M320 529.5q45 -16.5 79 -47.5l-52 -77q-61 40 -115 40q-31 0 -47.5 -13.5t-16.5 -36.5q0 -17 8 -28t29 -22t63 -25q75 -25 111.5 -63t36.5 -103q0 -79 -60 -124.5t-151 -45.5q-60 0 -110.5 20.5t-87.5 55.5l67 75q64 -50 126 -50q34 0 54 15.5t20 43.5q0 21 -8 34
t-29.5 24t-65.5 26q-74 25 -107.5 63t-33.5 96q0 45 23.5 81t67.5 57t103 21q51 0 96 -16.5z" />
    <glyph glyph-name="t" unicode="t" horiz-adv-x="347" 
d="M355 25q-26 -20 -60 -30.5t-68 -10.5q-77 0 -116.5 44t-39.5 123v280h-68v99h68v116l139 17v-133h110l-14 -99h-96v-279q0 -57 45 -57q24 0 53 16z" />
    <glyph glyph-name="u" unicode="u" horiz-adv-x="520" 
d="M461 0h-122l-6 67q-27 -41 -62 -62t-81 -21q-64 0 -99.5 42.5t-35.5 114.5v389h139v-377q0 -34 11.5 -49.5t34.5 -15.5q46 0 82 66v376h139v-530z" />
    <glyph glyph-name="v" unicode="v" horiz-adv-x="465" 
d="M467 530l-150 -530h-165l-154 530h147l90 -422l93 422h139z" />
    <glyph glyph-name="w" unicode="w" horiz-adv-x="680" 
d="M671 530l-99 -530h-168l-64 405l-64 -405h-165l-102 530h136l56 -426l74 426h137l68 -426l60 426h131z" />
    <glyph glyph-name="x" unicode="x" horiz-adv-x="463" 
d="M314 284l156 -284h-152l-90 206l-87 -206h-148l155 279l-140 251h150l74 -178l70 178h144z" />
    <glyph glyph-name="y" unicode="y" horiz-adv-x="470" 
d="M319 -1q-29 -100 -93 -155t-173 -64l-15 99q69 11 102.5 37.5t53.5 83.5h-50l-146 530h144l91 -439l99 439h140z" />
    <glyph glyph-name="z" unicode="z" horiz-adv-x="413" 
d="M392 530v-99l-224 -323h228l-12 -108h-371v100l224 323h-205v107h360z" />
    <glyph glyph-name="braceleft" unicode="{" horiz-adv-x="292" 
d="M268 741q-40 0 -55 -13.5t-15 -48.5v-202q0 -60 -22 -87.5t-70 -40.5q48 -12 70.5 -39t22.5 -87v-202q0 -35 15 -48.5t54 -13.5v-98q-77 0 -120.5 17.5t-60.5 52t-17 90.5v195q0 42 -12.5 59t-46.5 17v114q34 0 46.5 17.5t12.5 60.5v195q0 56 17 90.5t60.5 52t120.5 17.5
v-98z" />
    <glyph glyph-name="bar" unicode="|" horiz-adv-x="340" 
d="M234 809v-913h-129v913h129z" />
    <glyph glyph-name="braceright" unicode="}" horiz-adv-x="292" 
d="M144.5 821.5q43.5 -17.5 60.5 -52t17 -90.5v-195q0 -43 12.5 -60.5t46.5 -17.5v-114q-34 0 -46.5 -17t-12.5 -59v-195q0 -56 -17 -90.5t-60.5 -52t-120.5 -17.5v98q39 0 54 13.5t15 48.5v202q0 60 22.5 87t70.5 39q-49 14 -70.5 40.5t-21.5 87.5v202q0 35 -15 48.5
t-55 13.5v98q77 0 120.5 -17.5z" />
    <glyph glyph-name="asciitilde" unicode="~" horiz-adv-x="466" 
d="M257.5 248q-21.5 9 -48.5 27q-19 12 -30.5 17.5t-24.5 5.5q-21 0 -34 -12.5t-30 -38.5l-72 37q25 52 58.5 84.5t83.5 32.5q28 0 48.5 -9t47.5 -26q18 -12 30 -18t26 -6q20 0 33.5 11.5t29.5 35.5l73 -37q-54 -113 -140 -113q-29 0 -50.5 9z" />
    <glyph glyph-name="uni00A0" unicode="&#xa0;" horiz-adv-x="215" 
 />
    <glyph glyph-name="exclamdown" unicode="&#xa1;" horiz-adv-x="229" 
d="M173.5 480q23.5 -25 23.5 -59t-23.5 -59t-58.5 -25q-36 0 -59.5 24.5t-23.5 59.5t23.5 59.5t59.5 24.5q35 0 58.5 -25zM170 240l19 -448h-147l18 448h110z" />
    <glyph glyph-name="cent" unicode="&#xa2;" horiz-adv-x="434" 
d="M429 46q-54 -48 -119 -59v-146h-101v149q-83 19 -129 88.5t-46 182.5q0 111 47 184.5t129 93.5v151h100v-147q64 -11 119 -60l-60 -80q-46 35 -91 35q-49 0 -73.5 -40.5t-24.5 -135.5q0 -92 25 -129.5t72 -37.5q24 0 44.5 8t46.5 26z" />
    <glyph glyph-name="sterling" unicode="&#xa3;" horiz-adv-x="486" 
d="M224.5 156q-12.5 -27 -50.5 -48h282l-16 -108h-414v102q33 11 49 26t20.5 36.5t4.5 59.5v90h-61v76h61v101q0 87 50 141.5t142 54.5q59 0 103 -23.5t78 -70.5l-84 -62q-19 27 -38.5 39t-44.5 12q-69 0 -69 -90v-102h167v-76h-167v-83q0 -48 -12.5 -75z" />
    <glyph glyph-name="currency" unicode="&#xa4;" 
d="M426 81l-68 76q-47 -30 -107 -30t-105 31l-69 -77l-64 61l73 80q-30 52 -30 119q0 64 29 119l-74 83l68 60l68 -78q47 30 104 30q58 0 107 -30l70 78l64 -61l-73 -81q31 -51 31 -120q0 -66 -30 -120l73 -80zM341 342q0 119 -89 119q-88 0 -88 -119q0 -120 88 -120
q89 0 89 120z" />
    <glyph glyph-name="yen" unicode="&#xa5;" horiz-adv-x="510" 
d="M516 674l-162 -324h91v-76h-120v-77h120v-76h-120v-121h-139v121h-119v76h119v77h-119v76h89l-162 324h144l119 -286l119 286h140z" />
    <glyph glyph-name="brokenbar" unicode="&#xa6;" horiz-adv-x="340" 
d="M234 809v-366h-129v366h129zM234 262v-366h-129v366h129z" />
    <glyph glyph-name="section" unicode="&#xa7;" horiz-adv-x="494" 
d="M413 135.5q12 -24.5 12 -58.5q0 -71 -54.5 -114t-142.5 -43q-101 0 -172 53l47 82q56 -37 118 -37q34 0 53.5 13.5t19.5 38.5q0 19 -8 31t-30.5 23.5t-70.5 28.5q-71 25 -104 57.5t-33 90.5q0 38 20 69.5t54 53.5q-27 21 -39 46.5t-12 59.5q0 69 52.5 112.5t139.5 43.5
q97 0 172 -55l-47 -79q-56 36 -116 36q-34 0 -52 -14t-18 -38q0 -19 7.5 -31t30 -24t68.5 -29q70 -25 104 -58t34 -89q0 -76 -72 -126q27 -19 39 -43.5zM301 219q25 33 25 65q0 29 -18.5 46t-71.5 37q-25 9 -45 18q-22 -29 -22 -62q0 -30 15.5 -46.5t59.5 -33.5
q31 -12 57 -24z" />
    <glyph glyph-name="dieresis" unicode="&#xa8;" horiz-adv-x="411" 
d="M155.5 769q20.5 -21 20.5 -51q0 -31 -20.5 -52t-51.5 -21t-51.5 21t-20.5 52q0 30 20.5 51t51.5 21t51.5 -21zM362.5 769q20.5 -21 20.5 -51q0 -31 -20.5 -52t-51.5 -21q-30 0 -51 21t-21 52q0 30 21 51t51 21q31 0 51.5 -21z" />
    <glyph glyph-name="copyright" unicode="&#xa9;" horiz-adv-x="729" 
d="M518 720q69 -41 109 -116t40 -171t-40 -171t-109 -116t-153 -41t-153 41t-109.5 116t-40.5 171t40.5 171t109.5 116t153 41t153 -41zM250.5 657.5q-50.5 -31.5 -79 -89.5t-28.5 -135t28.5 -135t79 -89t114.5 -31t114.5 31t79 89t28.5 135t-28.5 135t-79 89.5t-114.5 31.5
t-114.5 -31.5zM484 581l-42 -55q-18 13 -33 18t-32 5q-31 0 -49.5 -27.5t-18.5 -87.5q0 -115 68 -115q20 0 36.5 7t33.5 21l40 -58q-51 -51 -119 -51q-73 0 -115.5 51t-42.5 145q0 91 44 142.5t115 51.5q66 0 115 -47z" />
    <glyph glyph-name="ordfeminine" unicode="&#xaa;" horiz-adv-x="455" 
d="M259 527v18q0 31 -13.5 43.5t-46.5 12.5q-39 0 -100 -21l-29 82q35 15 74.5 22.5t74.5 7.5q162 0 162 -137v-162q0 -18 5.5 -27.5t19.5 -14.5l-25 -83q-35 3 -59 16t-39 38q-19 -28 -48 -42t-64 -14q-58 0 -93 35t-35 91q0 65 46.5 100t134.5 35h35zM259 386v73h-25
q-35 0 -50.5 -13.5t-15.5 -43.5q0 -47 39 -47q31 0 52 31zM47 108h369v-107h-369v107z" />
    <glyph glyph-name="guillemotleft" unicode="&#xab;" horiz-adv-x="575" 
d="M208 550l85 -56l-119 -209l119 -208l-85 -57l-170 220v90zM452 550l85 -56l-119 -209l119 -208l-85 -57l-170 220v90z" />
    <glyph glyph-name="logicalnot" unicode="&#xac;" horiz-adv-x="477" 
d="M433 380v-258h-116v151h-273v107h389z" />
    <glyph glyph-name="uni00AD" unicode="&#xad;" horiz-adv-x="373" 
d="M44 258v110h285v-110h-285z" />
    <glyph glyph-name="registered" unicode="&#xae;" horiz-adv-x="574" 
d="M413 721.5q56 -34.5 88 -95.5t32 -139t-32 -139t-88 -95t-126 -34q-69 0 -125.5 34t-88.5 95t-32 139t32 139t88.5 95.5t125.5 34.5q70 0 126 -34.5zM415 336.5q49 55.5 49 150.5q0 63 -22.5 110t-62.5 72.5t-92 25.5q-51 0 -91.5 -25.5t-63 -72.5t-22.5 -110
t22.5 -109.5t63 -71.5t91.5 -25q79 0 128 55.5zM374.5 500.5q-14.5 -19.5 -38.5 -29.5l66 -117h-72l-52 104h-20v-104h-64v280h75q120 0 120 -87q0 -27 -14.5 -46.5zM258 511h26q18 0 29 9.5t11 28.5q0 35 -41 35h-25v-73z" />
    <glyph glyph-name="macron" unicode="&#xaf;" horiz-adv-x="333" 
d="M306 659h-273v97h273v-97z" />
    <glyph glyph-name="degree" unicode="&#xb0;" horiz-adv-x="469" 
d="M118 393q-37 20 -59.5 58t-22.5 90t22.5 90t59.5 57.5t78 19.5q42 0 78.5 -19.5t59 -57.5t22.5 -90q0 -53 -22.5 -91t-59 -57.5t-78.5 -19.5q-41 0 -78 20zM243 477.5q17 21.5 17 63.5q0 41 -17 62.5t-47 21.5t-47 -20.5t-17 -63.5q0 -42 17 -63.5t47 -21.5t47 21.5z" />
    <glyph glyph-name="plusminus" unicode="&#xb1;" horiz-adv-x="477" 
d="M49 0v107h378v-107h-378zM296 599v-152h136v-109h-136v-152h-115v152h-137v109h137v152h115z" />
    <glyph glyph-name="uni00B2" unicode="&#xb2;" horiz-adv-x="363" 
d="M280 714q38 -36 38 -88q0 -32 -13 -61t-46 -67t-97 -96h164l-10 -81h-267v75q70 72 103 109t46 62.5t13 51.5q0 24 -12.5 37t-34.5 13q-20 0 -36.5 -9.5t-34.5 -30.5l-59 46q55 75 143 75q65 0 103 -36z" />
    <glyph glyph-name="uni00B3" unicode="&#xb3;" horiz-adv-x="363" 
d="M279.5 719q36.5 -31 36.5 -79q0 -75 -87 -97q47 -4 74 -29.5t27 -72.5q0 -56 -41.5 -93.5t-115.5 -37.5q-90 0 -143 65l56 53q19 -20 37.5 -29t41.5 -9q26 0 42 15t16 43q0 30 -16 43t-49 13h-31l12 72h21q27 0 41 13t14 37q0 23 -13 35t-37 12q-40 0 -77 -34l-50 53
q58 58 141 58q64 0 100.5 -31z" />
    <glyph glyph-name="acute" unicode="&#xb4;" horiz-adv-x="310" 
d="M227 822l56 -103l-212 -92l-38 69z" />
    <glyph glyph-name="uni00B5" unicode="&#xb5;" horiz-adv-x="527" 
d="M357 -16q-9 21 -12.5 38.5t-8.5 48.5q-43 -80 -102 -80q-24 0 -43 10.5t-34 34.5q18 -36 26 -67t8 -79v-94l-132 -14v748h139v-372q0 -63 47 -63q22 0 42.5 17t36.5 53v365h139v-348q0 -102 21 -182z" />
    <glyph glyph-name="paragraph" unicode="&#xb6;" horiz-adv-x="707" 
d="M602 692v-896l-121 -16v813h-85v-797l-122 -16v489q-104 4 -159 61.5t-55 150.5q0 99 62.5 155t176.5 56h303z" />
    <glyph glyph-name="periodcentered" unicode="&#xb7;" horiz-adv-x="227" 
d="M172.5 367.5q23.5 -24.5 23.5 -59.5t-23.5 -59.5t-59.5 -24.5q-35 0 -58.5 25t-23.5 59t23.5 59t58.5 25q36 0 59.5 -24.5z" />
    <glyph glyph-name="cedilla" unicode="&#xb8;" horiz-adv-x="292" 
d="M173 -53q46 -6 69 -29.5t23 -63.5q0 -50 -35.5 -80t-96.5 -30q-58 0 -100 28l33 65q28 -15 57 -15q42 0 42 33q0 19 -20 28t-63 9l14 124h77v-69z" />
    <glyph glyph-name="uni00B9" unicode="&#xb9;" horiz-adv-x="363" 
d="M268 741v-420h-102v319l-83 -54l-46 68l138 87h93z" />
    <glyph glyph-name="ordmasculine" unicode="&#xba;" horiz-adv-x="455" 
d="M368.5 637.5q50.5 -54.5 50.5 -158.5q0 -100 -51 -156.5t-140 -56.5q-90 0 -141 55t-51 159q0 99 51 155.5t141 56.5t140.5 -54.5zM179.5 573.5q-15.5 -27.5 -15.5 -93.5q0 -68 15 -95t49 -27q33 0 48 27.5t15 93.5q0 68 -15 95t-48 27t-48.5 -27.5zM39 0v107h378v-107
h-378z" />
    <glyph glyph-name="guillemotright" unicode="&#xbb;" horiz-adv-x="574" 
d="M124 550l169 -220v-90l-169 -220l-86 57l119 208l-119 209zM366 550l169 -220v-90l-169 -220l-86 57l119 208l-119 209z" />
    <glyph glyph-name="onequarter" unicode="&#xbc;" horiz-adv-x="876" 
d="M268 692v-420h-102v319l-83 -54l-46 68l138 87h93zM581 756l82 -37l-368 -802l-82 37zM851 165v-77h-43v-88h-97v88h-173v71l109 270l87 -33l-92 -231h70l19 99h77v-99h43z" />
    <glyph glyph-name="onehalf" unicode="&#xbd;" horiz-adv-x="876" 
d="M268 692v-420h-102v319l-83 -54l-46 68l138 87h93zM581 756l82 -37l-368 -802l-82 37zM793 393q38 -36 38 -88q0 -32 -13 -61t-46 -67t-97 -96h164l-10 -81h-267v75q70 72 103 109t46 62.5t13 51.5q0 24 -12.5 37t-34.5 13q-20 0 -36.5 -9.5t-34.5 -30.5l-59 46
q55 75 143 75q65 0 103 -36z" />
    <glyph glyph-name="threequarters" unicode="&#xbe;" horiz-adv-x="876" 
d="M279.5 670q36.5 -31 36.5 -79q0 -75 -87 -97q47 -4 74 -29.5t27 -72.5q0 -56 -41.5 -93.5t-115.5 -37.5q-90 0 -143 65l56 53q19 -20 37.5 -29t41.5 -9q26 0 42 15t16 43q0 30 -16 43t-49 13h-31l12 72h21q27 0 41 13t14 37q0 23 -13 35t-37 12q-40 0 -77 -34l-50 53
q58 58 141 58q64 0 100.5 -31zM581 756l82 -37l-368 -802l-82 37zM851 165v-77h-43v-88h-97v88h-173v71l109 270l87 -33l-92 -231h70l19 99h77v-99h43z" />
    <glyph glyph-name="questiondown" unicode="&#xbf;" horiz-adv-x="438" 
d="M181.5 361.5q-23.5 24.5 -23.5 59.5q0 34 23.5 58.5t59.5 24.5q35 0 58.5 -24.5t23.5 -58.5t-23.5 -59t-58.5 -25q-36 0 -59.5 24.5zM106 -198.5q-44 22.5 -66.5 60t-22.5 81.5q0 40 12.5 68t30.5 46t47 40q36 28 54 51.5t18 60.5v29h127v-35q0 -45 -12.5 -75.5
t-30 -48.5t-45.5 -40q-30 -23 -44 -41t-14 -46q0 -30 17.5 -46.5t49.5 -16.5q57 0 109 61l85 -66q-80 -105 -208 -105q-63 0 -107 22.5z" />
    <glyph glyph-name="Agrave" unicode="&#xc0;" horiz-adv-x="539" 
d="M397 0l-34 156h-190l-34 -156h-146l190 692h174l189 -692h-149zM197 262h142l-71 323zM195 940l196 -118l-35 -70l-214 84z" />
    <glyph glyph-name="Aacute" unicode="&#xc1;" horiz-adv-x="539" 
d="M397 0l-34 156h-190l-34 -156h-146l190 692h174l189 -692h-149zM197 262h142l-71 323zM341 941l53 -105l-213 -84l-36 70z" />
    <glyph glyph-name="Acircumflex" unicode="&#xc2;" horiz-adv-x="539" 
d="M397 0l-34 156h-190l-34 -156h-146l190 692h174l189 -692h-149zM197 262h142l-71 323zM150 758l-50 55l127 126h85l127 -126l-50 -55l-120 83z" />
    <glyph glyph-name="Atilde" unicode="&#xc3;" horiz-adv-x="539" 
d="M397 0l-34 156h-190l-34 -156h-146l190 692h174l189 -692h-149zM197 262h142l-71 323zM289.5 776q-14.5 7 -32.5 19q-23 18 -38 18t-25 -10t-23 -33l-69 32q17 48 47 78t67 30q21 0 35.5 -7t32.5 -19q12 -9 20.5 -13t17.5 -4q14 0 24.5 10t22.5 32l69 -33
q-18 -50 -47.5 -78.5t-66.5 -28.5q-20 0 -34.5 7z" />
    <glyph glyph-name="Adieresis" unicode="&#xc4;" horiz-adv-x="539" 
d="M397 0l-34 156h-190l-34 -156h-146l190 692h174l189 -692h-149zM197 262h142l-71 323zM220.5 895q20.5 -21 20.5 -51q0 -31 -20.5 -52t-51.5 -21t-51.5 21t-20.5 52q0 30 20.5 51t51.5 21t51.5 -21zM427.5 895q20.5 -21 20.5 -51q0 -31 -20.5 -52t-51.5 -21q-30 0 -51 21
t-21 52q0 30 21 51t51 21q31 0 51.5 -21z" />
    <glyph glyph-name="Aring" unicode="&#xc5;" horiz-adv-x="539" 
d="M397 0l-34 156h-190l-34 -156h-146l190 692h174l189 -692h-149zM197 262h142l-71 323zM359.5 949q33.5 -35 33.5 -89t-33.5 -89t-89.5 -35q-57 0 -90.5 35t-33.5 89t33.5 89t90.5 35q56 0 89.5 -35zM228 860q0 -53 42 -53q41 0 41 53t-41 53q-42 0 -42 -53z" />
    <glyph glyph-name="AE" unicode="&#xc6;" horiz-adv-x="759" 
d="M522 106h208v-106h-329l-24 156h-197l-47 -156h-152l245 692h470l-15 -105h-245l33 -185h219v-104h-200zM212 262h148l-50 323z" />
    <glyph glyph-name="Ccedilla" unicode="&#xc7;" horiz-adv-x="520" 
d="M440 14.5q-42 -22.5 -92 -28.5v-39q46 -6 69 -29.5t23 -63.5q0 -50 -35.5 -80t-96.5 -30q-58 0 -100 28l33 65q28 -15 57 -15q42 0 42 33q0 19 -20 28t-63 9l11 96q-108 17 -170.5 108.5t-62.5 250.5q0 117 36 198t100 122t145 41q58 0 103 -18.5t87 -55.5l-69 -82
q-28 24 -55 35.5t-58 11.5q-139 0 -139 -252q0 -130 37 -190t103 -60q35 0 62 14t59 40l67 -81q-31 -33 -73 -55.5z" />
    <glyph glyph-name="Egrave" unicode="&#xc8;" horiz-adv-x="475" 
d="M442 692l-15 -105h-221v-183h193v-104h-193v-194h236v-106h-380v692h380zM178 940l196 -118l-35 -70l-214 84z" />
    <glyph glyph-name="Eacute" unicode="&#xc9;" horiz-adv-x="475" 
d="M442 692l-15 -105h-221v-183h193v-104h-193v-194h236v-106h-380v692h380zM324 941l53 -105l-213 -84l-36 70z" />
    <glyph glyph-name="Ecircumflex" unicode="&#xca;" horiz-adv-x="475" 
d="M442 692l-15 -105h-221v-183h193v-104h-193v-194h236v-106h-380v692h380zM133 758l-50 55l127 126h85l127 -126l-50 -55l-120 83z" />
    <glyph glyph-name="Edieresis" unicode="&#xcb;" horiz-adv-x="475" 
d="M442 692l-15 -105h-221v-183h193v-104h-193v-194h236v-106h-380v692h380zM203.5 895q20.5 -21 20.5 -51q0 -31 -20.5 -52t-51.5 -21t-51.5 21t-20.5 52q0 30 20.5 51t51.5 21t51.5 -21zM410.5 895q20.5 -21 20.5 -51q0 -31 -20.5 -52t-51.5 -21q-30 0 -51 21t-21 52
q0 30 21 51t51 21q31 0 51.5 -21z" />
    <glyph glyph-name="Igrave" unicode="&#xcc;" horiz-adv-x="268" 
d="M206 692v-692h-144v692h144zM59 940l196 -118l-35 -70l-214 84z" />
    <glyph glyph-name="Iacute" unicode="&#xcd;" horiz-adv-x="268" 
d="M206 692v-692h-144v692h144zM205 941l53 -105l-213 -84l-36 70z" />
    <glyph glyph-name="Icircumflex" unicode="&#xce;" horiz-adv-x="268" 
d="M206 692v-692h-144v692h144zM14 758l-50 55l127 126h85l127 -126l-50 -55l-120 83z" />
    <glyph glyph-name="Idieresis" unicode="&#xcf;" horiz-adv-x="268" 
d="M206 692v-692h-144v692h144zM84.5 895q20.5 -21 20.5 -51q0 -31 -20.5 -52t-51.5 -21t-51.5 21t-20.5 52q0 30 20.5 51t51.5 21t51.5 -21zM291.5 895q20.5 -21 20.5 -51q0 -31 -20.5 -52t-51.5 -21q-30 0 -51 21t-21 52q0 30 21 51t51 21q31 0 51.5 -21z" />
    <glyph glyph-name="Eth" unicode="&#xd0;" horiz-adv-x="607" 
d="M414.5 665q70.5 -27 114 -103t43.5 -213q0 -349 -309 -349h-186v308h-62v90h62v294h172q95 0 165.5 -27zM384 158.5q39 52.5 39 190.5q0 96 -19.5 148t-52.5 70.5t-81 18.5h-49v-188h113v-90h-113v-202h50q74 0 113 52.5z" />
    <glyph glyph-name="Ntilde" unicode="&#xd1;" horiz-adv-x="602" 
d="M540 0h-183l-186 553q2 -14 2 -22q8 -70 12.5 -126.5t4.5 -131.5v-273h-128v692h180l189 -554q-19 130 -19 246v308h128v-692zM324.5 776q-14.5 7 -32.5 19q-23 18 -38 18t-25 -10t-23 -33l-69 32q17 48 47 78t67 30q21 0 35.5 -7t32.5 -19q12 -9 20.5 -13t17.5 -4
q14 0 24.5 10t22.5 32l69 -33q-18 -50 -47.5 -78.5t-66.5 -28.5q-20 0 -34.5 7z" />
    <glyph glyph-name="Ograve" unicode="&#xd2;" horiz-adv-x="629" 
d="M521 615.5q73 -92.5 73 -269.5q0 -175 -73 -268.5t-206 -93.5t-206.5 92.5t-73.5 269.5q0 175 73.5 268.5t206.5 93.5t206 -92.5zM217 541q-32 -59 -32 -195q0 -137 32.5 -195.5t97.5 -58.5q66 0 97.5 58.5t31.5 195.5q0 136 -31.5 195t-97.5 59t-98 -59zM240 940
l196 -118l-35 -70l-214 84z" />
    <glyph glyph-name="Oacute" unicode="&#xd3;" horiz-adv-x="629" 
d="M521 615.5q73 -92.5 73 -269.5q0 -175 -73 -268.5t-206 -93.5t-206.5 92.5t-73.5 269.5q0 175 73.5 268.5t206.5 93.5t206 -92.5zM217 541q-32 -59 -32 -195q0 -137 32.5 -195.5t97.5 -58.5q66 0 97.5 58.5t31.5 195.5q0 136 -31.5 195t-97.5 59t-98 -59zM386 941
l53 -105l-213 -84l-36 70z" />
    <glyph glyph-name="Ocircumflex" unicode="&#xd4;" horiz-adv-x="629" 
d="M521 615.5q73 -92.5 73 -269.5q0 -175 -73 -268.5t-206 -93.5t-206.5 92.5t-73.5 269.5q0 175 73.5 268.5t206.5 93.5t206 -92.5zM217 541q-32 -59 -32 -195q0 -137 32.5 -195.5t97.5 -58.5q66 0 97.5 58.5t31.5 195.5q0 136 -31.5 195t-97.5 59t-98 -59zM195 758l-50 55
l127 126h85l127 -126l-50 -55l-120 83z" />
    <glyph glyph-name="Otilde" unicode="&#xd5;" horiz-adv-x="629" 
d="M521 615.5q73 -92.5 73 -269.5q0 -175 -73 -268.5t-206 -93.5t-206.5 92.5t-73.5 269.5q0 175 73.5 268.5t206.5 93.5t206 -92.5zM217 541q-32 -59 -32 -195q0 -137 32.5 -195.5t97.5 -58.5q66 0 97.5 58.5t31.5 195.5q0 136 -31.5 195t-97.5 59t-98 -59zM334.5 776
q-14.5 7 -32.5 19q-23 18 -38 18t-25 -10t-23 -33l-69 32q17 48 47 78t67 30q21 0 35.5 -7t32.5 -19q12 -9 20.5 -13t17.5 -4q14 0 24.5 10t22.5 32l69 -33q-18 -50 -47.5 -78.5t-66.5 -28.5q-20 0 -34.5 7z" />
    <glyph glyph-name="Odieresis" unicode="&#xd6;" horiz-adv-x="629" 
d="M521 615.5q73 -92.5 73 -269.5q0 -175 -73 -268.5t-206 -93.5t-206.5 92.5t-73.5 269.5q0 175 73.5 268.5t206.5 93.5t206 -92.5zM217 541q-32 -59 -32 -195q0 -137 32.5 -195.5t97.5 -58.5q66 0 97.5 58.5t31.5 195.5q0 136 -31.5 195t-97.5 59t-98 -59zM265.5 895
q20.5 -21 20.5 -51q0 -31 -20.5 -52t-51.5 -21t-51.5 21t-20.5 52q0 30 20.5 51t51.5 21t51.5 -21zM472.5 895q20.5 -21 20.5 -51q0 -31 -20.5 -52t-51.5 -21q-30 0 -51 21t-21 52q0 30 21 51t51 21q31 0 51.5 -21z" />
    <glyph glyph-name="multiply" unicode="&#xd7;" horiz-adv-x="466" 
d="M339 503l80 -71l-110 -124l110 -127l-80 -71l-105 125l-107 -125l-80 71l110 124l-110 127l80 71l105 -125z" />
    <glyph glyph-name="Oslash" unicode="&#xd8;" horiz-adv-x="629" 
d="M560.5 546.5q33.5 -81.5 33.5 -200.5q0 -175 -73.5 -268.5t-205.5 -93.5q-23 0 -44 3l-32 -119l-109 29l36 127q-64 41 -97.5 122t-33.5 200q0 175 73.5 268.5t206.5 93.5q22 0 43 -3l33 120l109 -29l-37 -128q64 -40 97.5 -121.5zM214.5 542q-32.5 -59 -32.5 -196
q0 -160 41 -215l120 468q-18 2 -28 2q-68 0 -100.5 -59zM407 560l-120 -467q18 -2 28 -2q47 0 75.5 25.5t42.5 83.5t14 157q0 149 -40 203z" />
    <glyph glyph-name="Ugrave" unicode="&#xd9;" horiz-adv-x="588" 
d="M536 211q0 -65 -27.5 -116.5t-82 -81t-132.5 -29.5q-118 0 -180 62t-62 165v481h144v-475q0 -62 24 -92.5t74 -30.5q51 0 74.5 30.5t23.5 92.5v475h144v-481zM219 940l196 -118l-35 -70l-214 84z" />
    <glyph glyph-name="Uacute" unicode="&#xda;" horiz-adv-x="588" 
d="M536 211q0 -65 -27.5 -116.5t-82 -81t-132.5 -29.5q-118 0 -180 62t-62 165v481h144v-475q0 -62 24 -92.5t74 -30.5q51 0 74.5 30.5t23.5 92.5v475h144v-481zM365 941l53 -105l-213 -84l-36 70z" />
    <glyph glyph-name="Ucircumflex" unicode="&#xdb;" horiz-adv-x="588" 
d="M536 211q0 -65 -27.5 -116.5t-82 -81t-132.5 -29.5q-118 0 -180 62t-62 165v481h144v-475q0 -62 24 -92.5t74 -30.5q51 0 74.5 30.5t23.5 92.5v475h144v-481zM174 758l-50 55l127 126h85l127 -126l-50 -55l-120 83z" />
    <glyph glyph-name="Udieresis" unicode="&#xdc;" horiz-adv-x="588" 
d="M536 211q0 -65 -27.5 -116.5t-82 -81t-132.5 -29.5q-118 0 -180 62t-62 165v481h144v-475q0 -62 24 -92.5t74 -30.5q51 0 74.5 30.5t23.5 92.5v475h144v-481zM244.5 895q20.5 -21 20.5 -51q0 -31 -20.5 -52t-51.5 -21t-51.5 21t-20.5 52q0 30 20.5 51t51.5 21t51.5 -21z
M451.5 895q20.5 -21 20.5 -51q0 -31 -20.5 -52t-51.5 -21q-30 0 -51 21t-21 52q0 30 21 51t51 21q31 0 51.5 -21z" />
    <glyph glyph-name="Yacute" unicode="&#xdd;" horiz-adv-x="532" 
d="M538 692l-200 -431v-261h-144v260l-200 432h155l120 -316l120 316h149zM337 941l53 -105l-213 -84l-36 70z" />
    <glyph glyph-name="Thorn" unicode="&#xde;" horiz-adv-x="539" 
d="M452 524.5q69 -56.5 69 -168.5q0 -120 -68 -179t-187 -59h-60v-118h-144v692h144v-111h50q127 0 196 -56.5zM344 253q30 30 30 102q0 63 -30.5 92.5t-90.5 29.5h-47v-254h48q60 0 90 30z" />
    <glyph glyph-name="germandbls" unicode="&#xdf;" horiz-adv-x="548" 
d="M369.5 736.5q41.5 -19.5 63.5 -53t22 -73.5q0 -37 -13.5 -61.5t-37.5 -50.5q-19 -22 -27.5 -36t-8.5 -32q0 -21 13.5 -37t43.5 -41q32 -26 53 -48.5t36 -57t15 -81.5q0 -55 -23.5 -96.5t-64 -63t-90.5 -21.5q-62 0 -106 26l41 92q24 -10 44 -10q27 0 42.5 19t15.5 56
t-17.5 62.5t-51.5 55.5q-35 32 -53 58.5t-18 66.5q0 32 10.5 53t29.5 44q19 24 28 42t9 45q0 30 -16 46.5t-42 16.5q-69 0 -69 -102v-555h-139v549q0 95 55.5 151t155.5 56q58 0 99.5 -19.5z" />
    <glyph glyph-name="agrave" unicode="&#xe0;" horiz-adv-x="496" 
d="M442.5 99q7.5 -13 25.5 -21l-29 -92q-44 5 -71.5 22t-42.5 53q-49 -77 -143 -77q-71 0 -113.5 45.5t-42.5 118.5q0 86 58 132t167 46h47v30q0 49 -18.5 68.5t-61.5 19.5q-52 0 -127 -28l-31 91q44 19 91.5 29t89.5 10q99 0 146.5 -46t47.5 -137v-223q0 -28 7.5 -41z
M298 142v105h-33q-51 0 -76 -21.5t-25 -65.5q0 -37 15 -56.5t43 -19.5q49 0 76 58zM184 822l194 -126l-39 -69l-211 92z" />
    <glyph glyph-name="aacute" unicode="&#xe1;" horiz-adv-x="496" 
d="M442.5 99q7.5 -13 25.5 -21l-29 -92q-44 5 -71.5 22t-42.5 53q-49 -77 -143 -77q-71 0 -113.5 45.5t-42.5 118.5q0 86 58 132t167 46h47v30q0 49 -18.5 68.5t-61.5 19.5q-52 0 -127 -28l-31 91q44 19 91.5 29t89.5 10q99 0 146.5 -46t47.5 -137v-223q0 -28 7.5 -41z
M298 142v105h-33q-51 0 -76 -21.5t-25 -65.5q0 -37 15 -56.5t43 -19.5q49 0 76 58zM307 822l56 -103l-212 -92l-38 69z" />
    <glyph glyph-name="acircumflex" unicode="&#xe2;" horiz-adv-x="496" 
d="M442.5 99q7.5 -13 25.5 -21l-29 -92q-44 5 -71.5 22t-42.5 53q-49 -77 -143 -77q-71 0 -113.5 45.5t-42.5 118.5q0 86 58 132t167 46h47v30q0 49 -18.5 68.5t-61.5 19.5q-52 0 -127 -28l-31 91q44 19 91.5 29t89.5 10q99 0 146.5 -46t47.5 -137v-223q0 -28 7.5 -41z
M298 142v105h-33q-51 0 -76 -21.5t-25 -65.5q0 -37 15 -56.5t43 -19.5q49 0 76 58zM125 626l-50 55l127 132h85l127 -132l-51 -55l-119 90z" />
    <glyph glyph-name="atilde" unicode="&#xe3;" horiz-adv-x="496" 
d="M442.5 99q7.5 -13 25.5 -21l-29 -92q-44 5 -71.5 22t-42.5 53q-49 -77 -143 -77q-71 0 -113.5 45.5t-42.5 118.5q0 86 58 132t167 46h47v30q0 49 -18.5 68.5t-61.5 19.5q-52 0 -127 -28l-31 91q44 19 91.5 29t89.5 10q99 0 146.5 -46t47.5 -137v-223q0 -28 7.5 -41z
M298 142v105h-33q-51 0 -76 -21.5t-25 -65.5q0 -37 15 -56.5t43 -19.5q49 0 76 58zM263.5 650q-14.5 7 -32.5 19q-23 18 -38 18t-25 -10t-23 -33l-69 32q17 48 47 78t67 30q21 0 35.5 -7t32.5 -19q12 -9 20.5 -13t17.5 -4q14 0 24.5 10t22.5 32l69 -33q-18 -50 -47.5 -78.5
t-66.5 -28.5q-20 0 -34.5 7z" />
    <glyph glyph-name="adieresis" unicode="&#xe4;" horiz-adv-x="496" 
d="M442.5 99q7.5 -13 25.5 -21l-29 -92q-44 5 -71.5 22t-42.5 53q-49 -77 -143 -77q-71 0 -113.5 45.5t-42.5 118.5q0 86 58 132t167 46h47v30q0 49 -18.5 68.5t-61.5 19.5q-52 0 -127 -28l-31 91q44 19 91.5 29t89.5 10q99 0 146.5 -46t47.5 -137v-223q0 -28 7.5 -41z
M298 142v105h-33q-51 0 -76 -21.5t-25 -65.5q0 -37 15 -56.5t43 -19.5q49 0 76 58zM191.5 769q20.5 -21 20.5 -51q0 -31 -20.5 -52t-51.5 -21t-51.5 21t-20.5 52q0 30 20.5 51t51.5 21t51.5 -21zM398.5 769q20.5 -21 20.5 -51q0 -31 -20.5 -52t-51.5 -21q-30 0 -51 21
t-21 52q0 30 21 51t51 21q31 0 51.5 -21z" />
    <glyph glyph-name="aring" unicode="&#xe5;" horiz-adv-x="496" 
d="M442.5 99q7.5 -13 25.5 -21l-29 -92q-44 5 -71.5 22t-42.5 53q-49 -77 -143 -77q-71 0 -113.5 45.5t-42.5 118.5q0 86 58 132t167 46h47v30q0 49 -18.5 68.5t-61.5 19.5q-52 0 -127 -28l-31 91q44 19 91.5 29t89.5 10q99 0 146.5 -46t47.5 -137v-223q0 -28 7.5 -41z
M298 142v105h-33q-51 0 -76 -21.5t-25 -65.5q0 -37 15 -56.5t43 -19.5q49 0 76 58zM333.5 823q33.5 -35 33.5 -89t-33.5 -89t-89.5 -35q-57 0 -90.5 35t-33.5 89t33.5 89t90.5 35q56 0 89.5 -35zM202 734q0 -53 42 -53q41 0 41 53t-41 53q-42 0 -42 -53z" />
    <glyph glyph-name="ae" unicode="&#xe6;" horiz-adv-x="774" 
d="M742 223h-296q6 -74 33.5 -104.5t75.5 -30.5q29 0 56 11t59 34l57 -77q-81 -72 -184 -72q-62 0 -109.5 23.5t-78.5 67.5q-61 -91 -167 -91q-74 0 -118 45.5t-44 118.5q0 85 59.5 130.5t171.5 45.5h47v29q0 50 -18.5 70t-63.5 20q-50 0 -126 -28l-31 92q94 39 179 39
q54 0 89 -18t56 -52q57 70 149 70q95 0 151 -70.5t56 -198.5q0 -31 -3 -54zM610 317q0 133 -80 133q-39 0 -60 -32t-25 -108h165v7zM318 156q-10 39 -12 85v2h-35q-101 0 -101 -85q0 -74 58 -74q52 0 90 72z" />
    <glyph glyph-name="ccedilla" unicode="&#xe7;" horiz-adv-x="434" 
d="M294 -15v-38q46 -6 69 -29.5t23 -63.5q0 -50 -35.5 -80t-96.5 -30q-58 0 -100 28l33 65q28 -15 57 -15q42 0 42 33q0 19 -20 28t-63 9l11 97q-86 17 -133 87.5t-47 184.5q0 86 28.5 150.5t81.5 99.5t124 35q48 0 87 -15.5t74 -47.5l-60 -80q-46 35 -91 35
q-49 0 -73.5 -40.5t-24.5 -135.5q0 -92 25 -129.5t72 -37.5q24 0 44.5 8t46.5 26l61 -83q-61 -54 -135 -61z" />
    <glyph glyph-name="egrave" unicode="&#xe8;" 
d="M472 223h-298q6 -75 33 -105t75 -30q32 0 59.5 10.5t58.5 34.5l57 -78q-81 -71 -185 -71q-116 0 -177 73.5t-61 204.5q0 128 58.5 206t164.5 78q103 0 160.5 -69.5t57.5 -199.5q0 -31 -3 -54zM339 317q0 67 -19 100.5t-61 33.5q-39 0 -60 -32t-25 -109h165v7zM198 822
l194 -126l-39 -69l-211 92z" />
    <glyph glyph-name="eacute" unicode="&#xe9;" 
d="M472 223h-298q6 -75 33 -105t75 -30q32 0 59.5 10.5t58.5 34.5l57 -78q-81 -71 -185 -71q-116 0 -177 73.5t-61 204.5q0 128 58.5 206t164.5 78q103 0 160.5 -69.5t57.5 -199.5q0 -31 -3 -54zM339 317q0 67 -19 100.5t-61 33.5q-39 0 -60 -32t-25 -109h165v7zM321 822
l56 -103l-212 -92l-38 69z" />
    <glyph glyph-name="ecircumflex" unicode="&#xea;" 
d="M472 223h-298q6 -75 33 -105t75 -30q32 0 59.5 10.5t58.5 34.5l57 -78q-81 -71 -185 -71q-116 0 -177 73.5t-61 204.5q0 128 58.5 206t164.5 78q103 0 160.5 -69.5t57.5 -199.5q0 -31 -3 -54zM339 317q0 67 -19 100.5t-61 33.5q-39 0 -60 -32t-25 -109h165v7zM139 626
l-50 55l127 132h85l127 -132l-51 -55l-119 90z" />
    <glyph glyph-name="edieresis" unicode="&#xeb;" 
d="M472 223h-298q6 -75 33 -105t75 -30q32 0 59.5 10.5t58.5 34.5l57 -78q-81 -71 -185 -71q-116 0 -177 73.5t-61 204.5q0 128 58.5 206t164.5 78q103 0 160.5 -69.5t57.5 -199.5q0 -31 -3 -54zM339 317q0 67 -19 100.5t-61 33.5q-39 0 -60 -32t-25 -109h165v7zM205.5 769
q20.5 -21 20.5 -51q0 -31 -20.5 -52t-51.5 -21t-51.5 21t-20.5 52q0 30 20.5 51t51.5 21t51.5 -21zM412.5 769q20.5 -21 20.5 -51q0 -31 -20.5 -52t-51.5 -21q-30 0 -51 21t-21 52q0 30 21 51t51 21q31 0 51.5 -21z" />
    <glyph glyph-name="igrave" unicode="&#xec;" horiz-adv-x="258" 
d="M198 530v-530h-139v530h139zM69 822l194 -126l-39 -69l-211 92z" />
    <glyph glyph-name="iacute" unicode="&#xed;" horiz-adv-x="258" 
d="M198 530v-530h-139v530h139zM192 822l56 -103l-212 -92l-38 69z" />
    <glyph glyph-name="icircumflex" unicode="&#xee;" horiz-adv-x="258" 
d="M198 530v-530h-139v530h139zM10 626l-50 55l127 132h85l127 -132l-51 -55l-119 90z" />
    <glyph glyph-name="idieresis" unicode="&#xef;" horiz-adv-x="258" 
d="M198 530v-530h-139v530h139zM76.5 769q20.5 -21 20.5 -51q0 -31 -20.5 -52t-51.5 -21t-51.5 21t-20.5 52q0 30 20.5 51t51.5 21t51.5 -21zM283.5 769q20.5 -21 20.5 -51q0 -31 -20.5 -52t-51.5 -21q-30 0 -51 21t-21 52q0 30 21 51t51 21q31 0 51.5 -21z" />
    <glyph glyph-name="eth" unicode="&#xf0;" horiz-adv-x="528" 
d="M451 503q38 -95 38 -229q0 -85 -27 -150.5t-79.5 -102.5t-124.5 -37q-64 0 -115 29.5t-80 86t-29 134.5q0 69 24 124.5t66.5 87.5t94.5 32q38 0 67.5 -13t54.5 -38q-13 53 -34 91.5t-60 71.5l-54 -60l-86 42l59 66q-49 18 -87 26l27 92q71 -15 133 -40l66 75l74 -59
l-55 -64q89 -70 127 -165zM326.5 128q22.5 41 22.5 127l-1 73q-38 51 -90 51q-44 0 -64 -36t-20 -106q0 -150 86 -150q44 0 66.5 41z" />
    <glyph glyph-name="ntilde" unicode="&#xf1;" horiz-adv-x="524" 
d="M433.5 504.5q35.5 -41.5 35.5 -113.5v-391h-139v372q0 37 -11.5 53t-33.5 16q-45 0 -87 -73v-368h-139v530h121l10 -67q30 41 64.5 62t80.5 21q63 0 98.5 -41.5zM285.5 650q-14.5 7 -32.5 19q-23 18 -38 18t-25 -10t-23 -33l-69 32q17 48 47 78t67 30q21 0 35.5 -7
t32.5 -19q12 -9 20.5 -13t17.5 -4q14 0 24.5 10t22.5 32l69 -33q-18 -50 -47.5 -78.5t-66.5 -28.5q-20 0 -34.5 7z" />
    <glyph glyph-name="ograve" unicode="&#xf2;" horiz-adv-x="533" 
d="M437.5 473.5q61.5 -72.5 61.5 -208.5q0 -131 -62 -206t-171 -75t-170.5 73t-61.5 208q0 133 61.5 207t171.5 74q109 0 170.5 -72.5zM200 400q-22 -42 -22 -135q0 -95 21.5 -136t66.5 -41t67 42t22 135q0 94 -21.5 135.5t-66.5 41.5t-67 -42zM206 822l194 -126l-39 -69
l-211 92z" />
    <glyph glyph-name="oacute" unicode="&#xf3;" horiz-adv-x="533" 
d="M437.5 473.5q61.5 -72.5 61.5 -208.5q0 -131 -62 -206t-171 -75t-170.5 73t-61.5 208q0 133 61.5 207t171.5 74q109 0 170.5 -72.5zM200 400q-22 -42 -22 -135q0 -95 21.5 -136t66.5 -41t67 42t22 135q0 94 -21.5 135.5t-66.5 41.5t-67 -42zM329 822l56 -103l-212 -92
l-38 69z" />
    <glyph glyph-name="ocircumflex" unicode="&#xf4;" horiz-adv-x="533" 
d="M437.5 473.5q61.5 -72.5 61.5 -208.5q0 -131 -62 -206t-171 -75t-170.5 73t-61.5 208q0 133 61.5 207t171.5 74q109 0 170.5 -72.5zM200 400q-22 -42 -22 -135q0 -95 21.5 -136t66.5 -41t67 42t22 135q0 94 -21.5 135.5t-66.5 41.5t-67 -42zM147 626l-50 55l127 132h85
l127 -132l-51 -55l-119 90z" />
    <glyph glyph-name="otilde" unicode="&#xf5;" horiz-adv-x="533" 
d="M437.5 473.5q61.5 -72.5 61.5 -208.5q0 -131 -62 -206t-171 -75t-170.5 73t-61.5 208q0 133 61.5 207t171.5 74q109 0 170.5 -72.5zM200 400q-22 -42 -22 -135q0 -95 21.5 -136t66.5 -41t67 42t22 135q0 94 -21.5 135.5t-66.5 41.5t-67 -42zM285.5 650q-14.5 7 -32.5 19
q-23 18 -38 18t-25 -10t-23 -33l-69 32q17 48 47 78t67 30q21 0 35.5 -7t32.5 -19q12 -9 20.5 -13t17.5 -4q14 0 24.5 10t22.5 32l69 -33q-18 -50 -47.5 -78.5t-66.5 -28.5q-20 0 -34.5 7z" />
    <glyph glyph-name="odieresis" unicode="&#xf6;" horiz-adv-x="533" 
d="M437.5 473.5q61.5 -72.5 61.5 -208.5q0 -131 -62 -206t-171 -75t-170.5 73t-61.5 208q0 133 61.5 207t171.5 74q109 0 170.5 -72.5zM200 400q-22 -42 -22 -135q0 -95 21.5 -136t66.5 -41t67 42t22 135q0 94 -21.5 135.5t-66.5 41.5t-67 -42zM213.5 769q20.5 -21 20.5 -51
q0 -31 -20.5 -52t-51.5 -21t-51.5 21t-20.5 52q0 30 20.5 51t51.5 21t51.5 -21zM420.5 769q20.5 -21 20.5 -51q0 -31 -20.5 -52t-51.5 -21q-30 0 -51 21t-21 52q0 30 21 51t51 21q31 0 51.5 -21z" />
    <glyph glyph-name="divide" unicode="&#xf7;" horiz-adv-x="466" 
d="M292.5 154.5q23.5 -24.5 23.5 -59.5t-23.5 -59.5t-59.5 -24.5q-35 0 -58.5 25t-23.5 59t23.5 59t58.5 25q36 0 59.5 -24.5zM292.5 628.5q23.5 -24.5 23.5 -59.5t-23.5 -59.5t-59.5 -24.5q-35 0 -58.5 25t-23.5 59t23.5 59t58.5 25q36 0 59.5 -24.5zM44 279v107h378v-107
h-378z" />
    <glyph glyph-name="oslash" unicode="&#xf8;" horiz-adv-x="533" 
d="M472.5 414.5q26.5 -61.5 26.5 -149.5q0 -131 -62 -206t-171 -75q-11 0 -31 2l-33 -119l-102 29l37 124q-49 33 -76 95.5t-27 149.5q0 133 61.5 207t171.5 74q10 0 32 -2l34 120l102 -30l-38 -124q49 -34 75.5 -95.5zM189.5 401.5q-25.5 -41.5 -25.5 -136.5
q0 -108 27 -147l92 324q-5 1 -16 1q-52 0 -77.5 -41.5zM343 128q25 42 25 137q0 105 -26 145l-90 -323q4 -1 14 -1q52 0 77 42z" />
    <glyph glyph-name="ugrave" unicode="&#xf9;" horiz-adv-x="520" 
d="M461 0h-122l-6 67q-27 -41 -62 -62t-81 -21q-64 0 -99.5 42.5t-35.5 114.5v389h139v-377q0 -34 11.5 -49.5t34.5 -15.5q46 0 82 66v376h139v-530zM198 822l194 -126l-39 -69l-211 92z" />
    <glyph glyph-name="uacute" unicode="&#xfa;" horiz-adv-x="520" 
d="M461 0h-122l-6 67q-27 -41 -62 -62t-81 -21q-64 0 -99.5 42.5t-35.5 114.5v389h139v-377q0 -34 11.5 -49.5t34.5 -15.5q46 0 82 66v376h139v-530zM321 822l56 -103l-212 -92l-38 69z" />
    <glyph glyph-name="ucircumflex" unicode="&#xfb;" horiz-adv-x="520" 
d="M461 0h-122l-6 67q-27 -41 -62 -62t-81 -21q-64 0 -99.5 42.5t-35.5 114.5v389h139v-377q0 -34 11.5 -49.5t34.5 -15.5q46 0 82 66v376h139v-530zM139 626l-50 55l127 132h85l127 -132l-51 -55l-119 90z" />
    <glyph glyph-name="udieresis" unicode="&#xfc;" horiz-adv-x="520" 
d="M461 0h-122l-6 67q-27 -41 -62 -62t-81 -21q-64 0 -99.5 42.5t-35.5 114.5v389h139v-377q0 -34 11.5 -49.5t34.5 -15.5q46 0 82 66v376h139v-530zM205.5 769q20.5 -21 20.5 -51q0 -31 -20.5 -52t-51.5 -21t-51.5 21t-20.5 52q0 30 20.5 51t51.5 21t51.5 -21zM412.5 769
q20.5 -21 20.5 -51q0 -31 -20.5 -52t-51.5 -21q-30 0 -51 21t-21 52q0 30 21 51t51 21q31 0 51.5 -21z" />
    <glyph glyph-name="yacute" unicode="&#xfd;" horiz-adv-x="470" 
d="M319 -1q-29 -100 -93 -155t-173 -64l-15 99q69 11 102.5 37.5t53.5 83.5h-50l-146 530h144l91 -439l99 439h140zM298 822l56 -103l-212 -92l-38 69z" />
    <glyph glyph-name="thorn" unicode="&#xfe;" horiz-adv-x="541" 
d="M460.5 473.5q44.5 -72.5 44.5 -207.5q0 -84 -23 -147.5t-66 -99t-101 -35.5q-73 0 -117 59v-245l-139 -17v960l139 15v-279q52 69 129 69q89 0 133.5 -72.5zM361 265q0 99 -19.5 138t-58.5 39q-49 0 -85 -65v-240q32 -49 77 -49q86 0 86 177z" />
    <glyph glyph-name="ydieresis" unicode="&#xff;" horiz-adv-x="470" 
d="M319 -1q-29 -100 -93 -155t-173 -64l-15 99q69 11 102.5 37.5t53.5 83.5h-50l-146 530h144l91 -439l99 439h140zM182.5 769q20.5 -21 20.5 -51q0 -31 -20.5 -52t-51.5 -21t-51.5 21t-20.5 52q0 30 20.5 51t51.5 21t51.5 -21zM389.5 769q20.5 -21 20.5 -51
q0 -31 -20.5 -52t-51.5 -21q-30 0 -51 21t-21 52q0 30 21 51t51 21q31 0 51.5 -21z" />
    <glyph glyph-name="Amacron" unicode="&#x100;" horiz-adv-x="539" 
d="M397 0l-34 156h-190l-34 -156h-146l190 692h174l189 -692h-149zM197 262h142l-71 323zM406 785h-273v97h273v-97z" />
    <glyph glyph-name="amacron" unicode="&#x101;" horiz-adv-x="496" 
d="M442.5 99q7.5 -13 25.5 -21l-29 -92q-44 5 -71.5 22t-42.5 53q-49 -77 -143 -77q-71 0 -113.5 45.5t-42.5 118.5q0 86 58 132t167 46h47v30q0 49 -18.5 68.5t-61.5 19.5q-52 0 -127 -28l-31 91q44 19 91.5 29t89.5 10q99 0 146.5 -46t47.5 -137v-223q0 -28 7.5 -41z
M298 142v105h-33q-51 0 -76 -21.5t-25 -65.5q0 -37 15 -56.5t43 -19.5q49 0 76 58zM380 659h-273v97h273v-97z" />
    <glyph glyph-name="Abreve" unicode="&#x102;" horiz-adv-x="539" 
d="M397 0l-34 156h-190l-34 -156h-146l190 692h174l189 -692h-149zM197 262h142l-71 323zM161 795q-40 42 -45 109l77 14q18 -67 76 -67q30 0 49.5 18t28.5 49l77 -14q-6 -67 -46.5 -109t-108.5 -42t-108 42z" />
    <glyph glyph-name="abreve" unicode="&#x103;" horiz-adv-x="496" 
d="M442.5 99q7.5 -13 25.5 -21l-29 -92q-44 5 -71.5 22t-42.5 53q-49 -77 -143 -77q-71 0 -113.5 45.5t-42.5 118.5q0 86 58 132t167 46h47v30q0 49 -18.5 68.5t-61.5 19.5q-52 0 -127 -28l-31 91q44 19 91.5 29t89.5 10q99 0 146.5 -46t47.5 -137v-223q0 -28 7.5 -41z
M298 142v105h-33q-51 0 -76 -21.5t-25 -65.5q0 -37 15 -56.5t43 -19.5q49 0 76 58zM135 679.5q-40 43.5 -45 117.5l77 14q17 -78 76 -78q61 0 78 78l77 -14q-6 -74 -46 -117.5t-109 -43.5q-68 0 -108 43.5z" />
    <glyph glyph-name="Aogonek" unicode="&#x104;" horiz-adv-x="539" 
d="M388.5 -52q-22.5 -26 -22.5 -54q0 -47 49 -47q20 0 54 8l-10 -89q-33 -7 -62 -7q-59 0 -95.5 30t-36.5 81t32.5 88t94.5 65l-29 133h-190l-34 -156h-146l190 692h174l189 -692h-74q-61 -26 -83.5 -52zM197 262h142l-71 323z" />
    <glyph glyph-name="aogonek" unicode="&#x105;" horiz-adv-x="496" 
d="M439 -14h-1v0q-61 -26 -83.5 -52t-22.5 -54q0 -47 49 -47q20 0 54 8l-10 -89q-33 -7 -62 -7q-59 0 -95.5 30t-36.5 81q0 52 34 89.5t98 65.5q-25 19 -38 50q-49 -77 -143 -77q-71 0 -113.5 45.5t-42.5 118.5q0 86 58 132t167 46h47v30q0 49 -18.5 68.5t-61.5 19.5
q-52 0 -127 -28l-31 91q44 19 91.5 29t89.5 10q99 0 146.5 -46t47.5 -137v-223q0 -28 7.5 -41t25.5 -21zM298 142v105h-33q-51 0 -76 -21.5t-25 -65.5q0 -37 15 -56.5t43 -19.5q49 0 76 58z" />
    <glyph glyph-name="Cacute" unicode="&#x106;" horiz-adv-x="520" 
d="M419 689.5q45 -18.5 87 -55.5l-69 -82q-28 24 -55 35.5t-58 11.5q-139 0 -139 -252q0 -130 37 -190t103 -60q35 0 62 14t59 40l67 -81q-35 -38 -85 -62t-111 -24q-85 0 -148.5 40.5t-98.5 122t-35 200.5q0 117 36 198t100 122t145 41q58 0 103 -18.5zM393 941l53 -105
l-213 -84l-36 70z" />
    <glyph glyph-name="cacute" unicode="&#x107;" horiz-adv-x="434" 
d="M355 530.5q39 -15.5 74 -47.5l-60 -80q-46 35 -91 35q-49 0 -73.5 -40.5t-24.5 -135.5q0 -92 25 -129.5t72 -37.5q24 0 44.5 8t46.5 26l61 -83q-70 -62 -159 -62q-111 0 -173.5 72t-62.5 205q0 86 28.5 150.5t81.5 99.5t124 35q48 0 87 -15.5zM330 822l56 -103l-212 -92
l-38 69z" />
    <glyph glyph-name="Ccircumflex" unicode="&#x108;" horiz-adv-x="520" 
d="M419 689.5q45 -18.5 87 -55.5l-69 -82q-28 24 -55 35.5t-58 11.5q-139 0 -139 -252q0 -130 37 -190t103 -60q35 0 62 14t59 40l67 -81q-35 -38 -85 -62t-111 -24q-85 0 -148.5 40.5t-98.5 122t-35 200.5q0 117 36 198t100 122t145 41q58 0 103 -18.5zM202 758l-50 55
l127 126h85l127 -126l-50 -55l-120 83z" />
    <glyph glyph-name="ccircumflex" unicode="&#x109;" horiz-adv-x="434" 
d="M355 530.5q39 -15.5 74 -47.5l-60 -80q-46 35 -91 35q-49 0 -73.5 -40.5t-24.5 -135.5q0 -92 25 -129.5t72 -37.5q24 0 44.5 8t46.5 26l61 -83q-70 -62 -159 -62q-111 0 -173.5 72t-62.5 205q0 86 28.5 150.5t81.5 99.5t124 35q48 0 87 -15.5zM148 626l-50 55l127 132h85
l127 -132l-51 -55l-119 90z" />
    <glyph glyph-name="Cdotaccent" unicode="&#x10a;" horiz-adv-x="520" 
d="M419 689.5q45 -18.5 87 -55.5l-69 -82q-28 24 -55 35.5t-58 11.5q-139 0 -139 -252q0 -130 37 -190t103 -60q35 0 62 14t59 40l67 -81q-35 -38 -85 -62t-111 -24q-85 0 -148.5 40.5t-98.5 122t-35 200.5q0 117 36 198t100 122t145 41q58 0 103 -18.5zM381.5 904
q23.5 -23 23.5 -58t-23.5 -58.5t-59.5 -23.5t-59.5 23.5t-23.5 58.5t23.5 58t59.5 23t59.5 -23z" />
    <glyph glyph-name="cdotaccent" unicode="&#x10b;" horiz-adv-x="434" 
d="M355 530.5q39 -15.5 74 -47.5l-60 -80q-46 35 -91 35q-49 0 -73.5 -40.5t-24.5 -135.5q0 -92 25 -129.5t72 -37.5q24 0 44.5 8t46.5 26l61 -83q-70 -62 -159 -62q-111 0 -173.5 72t-62.5 205q0 86 28.5 150.5t81.5 99.5t124 35q48 0 87 -15.5zM326.5 778
q23.5 -23 23.5 -58t-23.5 -58.5t-59.5 -23.5t-59.5 23.5t-23.5 58.5t23.5 58t59.5 23t59.5 -23z" />
    <glyph glyph-name="Ccaron" unicode="&#x10c;" horiz-adv-x="520" 
d="M419 689.5q45 -18.5 87 -55.5l-69 -82q-28 24 -55 35.5t-58 11.5q-139 0 -139 -252q0 -130 37 -190t103 -60q35 0 62 14t59 40l67 -81q-35 -38 -85 -62t-111 -24q-85 0 -148.5 40.5t-98.5 122t-35 200.5q0 117 36 198t100 122t145 41q58 0 103 -18.5zM442 932l50 -55
l-127 -126h-85l-127 126l50 55l119 -83z" />
    <glyph glyph-name="ccaron" unicode="&#x10d;" horiz-adv-x="434" 
d="M355 530.5q39 -15.5 74 -47.5l-60 -80q-46 35 -91 35q-49 0 -73.5 -40.5t-24.5 -135.5q0 -92 25 -129.5t72 -37.5q24 0 44.5 8t46.5 26l61 -83q-70 -62 -159 -62q-111 0 -173.5 72t-62.5 205q0 86 28.5 150.5t81.5 99.5t124 35q48 0 87 -15.5zM387 804l50 -56l-127 -132
h-85l-127 132l50 56l119 -91z" />
    <glyph glyph-name="Dcaron" unicode="&#x10e;" horiz-adv-x="592" 
d="M399.5 665q70.5 -27 114 -103t43.5 -213q0 -349 -309 -349h-186v692h172q95 0 165.5 -27zM206 586v-480h50q74 0 113 52.5t39 190.5q0 96 -19.5 148t-52.5 70.5t-81 18.5h-49zM389 932l50 -55l-127 -126h-85l-127 126l50 55l119 -83z" />
    <glyph glyph-name="dcaron" unicode="&#x10f;" horiz-adv-x="615" 
d="M484 741v-741h-124l-6 63q-51 -79 -135 -79q-89 0 -136 74t-47 207q0 84 24.5 147.5t68.5 98.5t101 35q69 0 115 -53v263zM306.5 102.5q20.5 15.5 38.5 46.5v244q-18 25 -36 37.5t-42 12.5q-41 0 -64 -42.5t-23 -135.5q0 -97 21 -137.5t59 -40.5q26 0 46.5 15.5zM595 535
l49 206l-105 15l-21 -210z" />
    <glyph glyph-name="Dcroat" unicode="&#x110;" horiz-adv-x="607" 
d="M414.5 665q70.5 -27 114 -103t43.5 -213q0 -349 -309 -349h-186v308h-62v90h62v294h172q95 0 165.5 -27zM384 158.5q39 52.5 39 190.5q0 96 -19.5 148t-52.5 70.5t-81 18.5h-49v-188h113v-90h-113v-202h50q74 0 113 52.5z" />
    <glyph glyph-name="dcroat" unicode="&#x111;" horiz-adv-x="549" 
d="M540 685v-86h-56v-599h-124l-6 63q-51 -79 -135 -79q-89 0 -136 74t-47 207q0 84 24.5 147.5t68.5 98.5t101 35q69 0 115 -53v106h-124v86h124v71l139 -15v-56h56zM306.5 102.5q20.5 15.5 38.5 46.5v244q-18 25 -36 37.5t-42 12.5q-41 0 -64 -42.5t-23 -135.5
q0 -97 21 -137.5t59 -40.5q26 0 46.5 15.5z" />
    <glyph glyph-name="Emacron" unicode="&#x112;" horiz-adv-x="475" 
d="M442 692l-15 -105h-221v-183h193v-104h-193v-194h236v-106h-380v692h380zM389 785h-273v97h273v-97z" />
    <glyph glyph-name="emacron" unicode="&#x113;" 
d="M472 223h-298q6 -75 33 -105t75 -30q32 0 59.5 10.5t58.5 34.5l57 -78q-81 -71 -185 -71q-116 0 -177 73.5t-61 204.5q0 128 58.5 206t164.5 78q103 0 160.5 -69.5t57.5 -199.5q0 -31 -3 -54zM339 317q0 67 -19 100.5t-61 33.5q-39 0 -60 -32t-25 -109h165v7zM394 659
h-273v97h273v-97z" />
    <glyph glyph-name="Ebreve" unicode="&#x114;" horiz-adv-x="475" 
d="M442 692l-15 -105h-221v-183h193v-104h-193v-194h236v-106h-380v692h380zM144 795q-40 42 -45 109l77 14q18 -67 76 -67q30 0 49.5 18t28.5 49l77 -14q-6 -67 -46.5 -109t-108.5 -42t-108 42z" />
    <glyph glyph-name="ebreve" unicode="&#x115;" 
d="M472 223h-298q6 -75 33 -105t75 -30q32 0 59.5 10.5t58.5 34.5l57 -78q-81 -71 -185 -71q-116 0 -177 73.5t-61 204.5q0 128 58.5 206t164.5 78q103 0 160.5 -69.5t57.5 -199.5q0 -31 -3 -54zM339 317q0 67 -19 100.5t-61 33.5q-39 0 -60 -32t-25 -109h165v7zM149 679.5
q-40 43.5 -45 117.5l77 14q17 -78 76 -78q61 0 78 78l77 -14q-6 -74 -46 -117.5t-109 -43.5q-68 0 -108 43.5z" />
    <glyph glyph-name="Edotaccent" unicode="&#x116;" horiz-adv-x="475" 
d="M442 692l-15 -105h-221v-183h193v-104h-193v-194h236v-106h-380v692h380zM312.5 904q23.5 -23 23.5 -58t-23.5 -58.5t-59.5 -23.5t-59.5 23.5t-23.5 58.5t23.5 58t59.5 23t59.5 -23z" />
    <glyph glyph-name="edotaccent" unicode="&#x117;" 
d="M472 223h-298q6 -75 33 -105t75 -30q32 0 59.5 10.5t58.5 34.5l57 -78q-81 -71 -185 -71q-116 0 -177 73.5t-61 204.5q0 128 58.5 206t164.5 78q103 0 160.5 -69.5t57.5 -199.5q0 -31 -3 -54zM339 317q0 67 -19 100.5t-61 33.5q-39 0 -60 -32t-25 -109h165v7zM317.5 778
q23.5 -23 23.5 -58t-23.5 -58.5t-59.5 -23.5t-59.5 23.5t-23.5 58.5t23.5 58t59.5 23t59.5 -23z" />
    <glyph glyph-name="Eogonek" unicode="&#x118;" horiz-adv-x="475" 
d="M206 106h236v-106h-36q-61 -26 -83.5 -52t-22.5 -54q0 -47 49 -47q20 0 54 8l-10 -89q-33 -7 -62 -7q-59 0 -95.5 30t-36.5 81q0 79 83 130h-220v692h380l-15 -105h-221v-183h193v-104h-193v-194z" />
    <glyph glyph-name="eogonek" unicode="&#x119;" 
d="M472 223h-298q6 -75 33 -105t75 -30q32 0 59.5 10.5t58.5 34.5l57 -78q-40 -35 -85 -52q-54 -25 -74 -50t-20 -50q0 -47 47 -47q23 0 55 8l-9 -90q-35 -7 -63 -7q-58 0 -94.5 31t-36.5 81q0 66 68 106q-103 9 -157 81.5t-54 195.5q0 128 58.5 206t164.5 78
q103 0 160.5 -69.5t57.5 -199.5q0 -31 -3 -54zM339 317q0 67 -19 100.5t-61 33.5q-39 0 -60 -32t-25 -109h165v7z" />
    <glyph glyph-name="Ecaron" unicode="&#x11a;" horiz-adv-x="475" 
d="M442 692l-15 -105h-221v-183h193v-104h-193v-194h236v-106h-380v692h380zM373 932l50 -55l-127 -126h-85l-127 126l50 55l119 -83z" />
    <glyph glyph-name="ecaron" unicode="&#x11b;" 
d="M472 223h-298q6 -75 33 -105t75 -30q32 0 59.5 10.5t58.5 34.5l57 -78q-81 -71 -185 -71q-116 0 -177 73.5t-61 204.5q0 128 58.5 206t164.5 78q103 0 160.5 -69.5t57.5 -199.5q0 -31 -3 -54zM339 317q0 67 -19 100.5t-61 33.5q-39 0 -60 -32t-25 -109h165v7zM378 804
l50 -56l-127 -132h-85l-127 132l50 56l119 -91z" />
    <glyph glyph-name="Gcircumflex" unicode="&#x11c;" horiz-adv-x="586" 
d="M445.5 686.5q50.5 -21.5 93.5 -61.5l-73 -75q-34 27 -63 39t-66 12q-153 0 -153 -255q0 -97 14.5 -152.5t43 -78.5t74.5 -23q48 0 88 24v174h-84l-14 104h236v-340q-49 -33 -107 -51.5t-117 -18.5q-142 0 -212.5 90t-70.5 273q0 117 39 198.5t106.5 122t151.5 40.5
q63 0 113.5 -21.5zM200 758l-50 55l127 126h85l127 -126l-50 -55l-120 83z" />
    <glyph glyph-name="gcircumflex" unicode="&#x11d;" horiz-adv-x="492" 
d="M494 501q-46 -19 -137 -19q46 -21 68 -54t22 -83q0 -79 -54 -128t-147 -49q-29 0 -55 6q-8 -5 -13 -15t-5 -21q0 -17 11.5 -26.5t43.5 -9.5h67q85 0 136 -42t51 -108q0 -79 -64.5 -125t-183.5 -46q-128 0 -178 42.5t-50 125.5h124q0 -40 21.5 -57t83.5 -17q59 0 83 17.5
t24 49.5q0 61 -77 61h-56q-78 0 -115 28t-37 74q0 29 15.5 54.5t42.5 43.5q-46 26 -66.5 62t-20.5 89q0 88 58 140t154 51q72 -1 119 14.5t100 46.5zM185 428.5q-19 -24.5 -19 -72.5t19.5 -73.5t54.5 -25.5q37 0 55.5 24t18.5 77q0 49 -18.5 72t-55.5 23q-36 0 -55 -24.5z
M128 626l-50 55l127 132h85l127 -132l-51 -55l-119 90z" />
    <glyph glyph-name="Gbreve" unicode="&#x11e;" horiz-adv-x="586" 
d="M445.5 686.5q50.5 -21.5 93.5 -61.5l-73 -75q-34 27 -63 39t-66 12q-153 0 -153 -255q0 -97 14.5 -152.5t43 -78.5t74.5 -23q48 0 88 24v174h-84l-14 104h236v-340q-49 -33 -107 -51.5t-117 -18.5q-142 0 -212.5 90t-70.5 273q0 117 39 198.5t106.5 122t151.5 40.5
q63 0 113.5 -21.5zM211 795q-40 42 -45 109l77 14q18 -67 76 -67q30 0 49.5 18t28.5 49l77 -14q-6 -67 -46.5 -109t-108.5 -42t-108 42z" />
    <glyph glyph-name="gbreve" unicode="&#x11f;" horiz-adv-x="492" 
d="M494 501q-46 -19 -137 -19q46 -21 68 -54t22 -83q0 -79 -54 -128t-147 -49q-29 0 -55 6q-8 -5 -13 -15t-5 -21q0 -17 11.5 -26.5t43.5 -9.5h67q85 0 136 -42t51 -108q0 -79 -64.5 -125t-183.5 -46q-128 0 -178 42.5t-50 125.5h124q0 -40 21.5 -57t83.5 -17q59 0 83 17.5
t24 49.5q0 61 -77 61h-56q-78 0 -115 28t-37 74q0 29 15.5 54.5t42.5 43.5q-46 26 -66.5 62t-20.5 89q0 88 58 140t154 51q72 -1 119 14.5t100 46.5zM185 428.5q-19 -24.5 -19 -72.5t19.5 -73.5t54.5 -25.5q37 0 55.5 24t18.5 77q0 49 -18.5 72t-55.5 23q-36 0 -55 -24.5z
M138 679.5q-40 43.5 -45 117.5l77 14q17 -78 76 -78q61 0 78 78l77 -14q-6 -74 -46 -117.5t-109 -43.5q-68 0 -108 43.5z" />
    <glyph glyph-name="Gdotaccent" unicode="&#x120;" horiz-adv-x="586" 
d="M445.5 686.5q50.5 -21.5 93.5 -61.5l-73 -75q-34 27 -63 39t-66 12q-153 0 -153 -255q0 -97 14.5 -152.5t43 -78.5t74.5 -23q48 0 88 24v174h-84l-14 104h236v-340q-49 -33 -107 -51.5t-117 -18.5q-142 0 -212.5 90t-70.5 273q0 117 39 198.5t106.5 122t151.5 40.5
q63 0 113.5 -21.5zM379.5 904q23.5 -23 23.5 -58t-23.5 -58.5t-59.5 -23.5t-59.5 23.5t-23.5 58.5t23.5 58t59.5 23t59.5 -23z" />
    <glyph glyph-name="gdotaccent" unicode="&#x121;" horiz-adv-x="492" 
d="M494 501q-46 -19 -137 -19q46 -21 68 -54t22 -83q0 -79 -54 -128t-147 -49q-29 0 -55 6q-8 -5 -13 -15t-5 -21q0 -17 11.5 -26.5t43.5 -9.5h67q85 0 136 -42t51 -108q0 -79 -64.5 -125t-183.5 -46q-128 0 -178 42.5t-50 125.5h124q0 -40 21.5 -57t83.5 -17q59 0 83 17.5
t24 49.5q0 61 -77 61h-56q-78 0 -115 28t-37 74q0 29 15.5 54.5t42.5 43.5q-46 26 -66.5 62t-20.5 89q0 88 58 140t154 51q72 -1 119 14.5t100 46.5zM185 428.5q-19 -24.5 -19 -72.5t19.5 -73.5t54.5 -25.5q37 0 55.5 24t18.5 77q0 49 -18.5 72t-55.5 23q-36 0 -55 -24.5z
M306.5 778q23.5 -23 23.5 -58t-23.5 -58.5t-59.5 -23.5t-59.5 23.5t-23.5 58.5t23.5 58t59.5 23t59.5 -23z" />
    <glyph glyph-name="Gcommaaccent" unicode="&#x122;" horiz-adv-x="586" 
d="M445.5 686.5q50.5 -21.5 93.5 -61.5l-73 -75q-34 27 -63 39t-66 12q-153 0 -153 -255q0 -97 14.5 -152.5t43 -78.5t74.5 -23q48 0 88 24v174h-84l-14 104h236v-340q-49 -33 -107 -51.5t-117 -18.5q-142 0 -212.5 90t-70.5 273q0 117 39 198.5t106.5 122t151.5 40.5
q63 0 113.5 -21.5zM367.5 -90.5q19.5 -20.5 19.5 -51.5q0 -16 -5 -33t-19 -48l-41 -93h-70l27 115q-33 23 -33 59q0 30 20 51t51 21t50.5 -20.5z" />
    <glyph glyph-name="gcommaaccent" unicode="&#x123;" horiz-adv-x="492" 
d="M494 501q-46 -19 -137 -19q46 -21 68 -54t22 -83q0 -79 -54 -128t-147 -49q-29 0 -55 6q-8 -5 -13 -15t-5 -21q0 -17 11.5 -26.5t43.5 -9.5h67q85 0 136 -42t51 -108q0 -79 -64.5 -125t-183.5 -46q-128 0 -178 42.5t-50 125.5h124q0 -40 21.5 -57t83.5 -17q59 0 83 17.5
t24 49.5q0 61 -77 61h-56q-78 0 -115 28t-37 74q0 29 15.5 54.5t42.5 43.5q-46 26 -66.5 62t-20.5 89q0 88 58 140t154 51q72 -1 119 14.5t100 46.5zM185 428.5q-19 -24.5 -19 -72.5t19.5 -73.5t54.5 -25.5q37 0 55.5 24t18.5 77q0 49 -18.5 72t-55.5 23q-36 0 -55 -24.5z
M194.5 598.5q-19.5 20.5 -19.5 51.5q0 16 5 33t19 48l41 93h70l-27 -115q33 -23 33 -59q0 -30 -20 -51t-51 -21t-50.5 20.5z" />
    <glyph glyph-name="Hcircumflex" unicode="&#x124;" horiz-adv-x="604" 
d="M398 0v304h-192v-304h-144v692h144v-274h192v274h144v-692h-144zM182 758l-50 55l127 126h85l127 -126l-50 -55l-120 83z" />
    <glyph glyph-name="hcircumflex" unicode="&#x125;" horiz-adv-x="524" 
d="M433 504q36 -42 36 -113v-391h-139v372q0 37 -11.5 53t-34.5 16q-44 0 -86 -73v-368h-139v741l139 14v-286q29 39 62 58t75 19q62 0 98 -42zM142 807l-50 55l127 126h85l127 -126l-50 -55l-120 83z" />
    <glyph glyph-name="Hbar" unicode="&#x126;" horiz-adv-x="614" 
d="M599 587v-85h-52v-502h-144v304h-192v-304h-144v502h-52v85h52v105h144v-105h192v105h144v-105h52zM403 418v84h-192v-84h192z" />
    <glyph glyph-name="hbar" unicode="&#x127;" horiz-adv-x="530" 
d="M439 504q36 -42 36 -113v-391h-139v372q0 37 -11.5 53t-34.5 16q-44 0 -86 -73v-368h-139v600h-56v85h56v56l139 14v-70h120v-85h-120v-131q29 39 62 58t75 19q62 0 98 -42z" />
    <glyph glyph-name="Itilde" unicode="&#x128;" horiz-adv-x="268" 
d="M206 692v-692h-144v692h144zM153.5 776q-14.5 7 -32.5 19q-23 18 -38 18t-25 -10t-23 -33l-69 32q17 48 47 78t67 30q21 0 35.5 -7t32.5 -19q12 -9 20.5 -13t17.5 -4q14 0 24.5 10t22.5 32l69 -33q-18 -50 -47.5 -78.5t-66.5 -28.5q-20 0 -34.5 7z" />
    <glyph glyph-name="itilde" unicode="&#x129;" horiz-adv-x="258" 
d="M198 530v-530h-139v530h139zM148.5 650q-14.5 7 -32.5 19q-23 18 -38 18t-25 -10t-23 -33l-69 32q17 48 47 78t67 30q21 0 35.5 -7t32.5 -19q12 -9 20.5 -13t17.5 -4q14 0 24.5 10t22.5 32l69 -33q-18 -50 -47.5 -78.5t-66.5 -28.5q-20 0 -34.5 7z" />
    <glyph glyph-name="Imacron" unicode="&#x12a;" horiz-adv-x="268" 
d="M206 692v-692h-144v692h144zM270 785h-273v97h273v-97z" />
    <glyph glyph-name="imacron" unicode="&#x12b;" horiz-adv-x="258" 
d="M198 530v-530h-139v530h139zM265 659h-273v97h273v-97z" />
    <glyph glyph-name="Ibreve" unicode="&#x12c;" horiz-adv-x="268" 
d="M206 692v-692h-144v692h144zM25 795q-40 42 -45 109l77 14q18 -67 76 -67q30 0 49.5 18t28.5 49l77 -14q-6 -67 -46.5 -109t-108.5 -42t-108 42z" />
    <glyph glyph-name="ibreve" unicode="&#x12d;" horiz-adv-x="258" 
d="M198 530v-530h-139v530h139zM20 679.5q-40 43.5 -45 117.5l77 14q17 -78 76 -78q61 0 78 78l77 -14q-6 -74 -46 -117.5t-109 -43.5q-68 0 -108 43.5z" />
    <glyph glyph-name="Iogonek" unicode="&#x12e;" horiz-adv-x="268" 
d="M206 692v-692h-29q-61 -26 -83.5 -52t-22.5 -54q0 -47 49 -47q20 0 54 8l-10 -89q-33 -7 -62 -7q-59 0 -95.5 30t-36.5 81q0 83 92 135v687h144z" />
    <glyph glyph-name="iogonek" unicode="&#x12f;" horiz-adv-x="258" 
d="M69.5 661.5q-23.5 23.5 -23.5 58.5t23.5 58t59.5 23t59.5 -23t23.5 -58t-23.5 -58.5t-59.5 -23.5t-59.5 23.5zM59 530h139v-530h-22q-61 -26 -83.5 -52t-22.5 -54q0 -47 49 -47q20 0 54 8l-10 -89q-33 -7 -62 -7q-59 0 -95.5 30t-36.5 81q0 83 90 134v526z" />
    <glyph glyph-name="Idotaccent" unicode="&#x130;" horiz-adv-x="268" 
d="M206 692v-692h-144v692h144zM193.5 904q23.5 -23 23.5 -58t-23.5 -58.5t-59.5 -23.5t-59.5 23.5t-23.5 58.5t23.5 58t59.5 23t59.5 -23z" />
    <glyph glyph-name="dotlessi" unicode="&#x131;" horiz-adv-x="258" 
d="M198 530v-530h-139v530h139z" />
    <glyph glyph-name="IJ" unicode="&#x132;" horiz-adv-x="554" 
d="M206 692v-692h-144v692h144zM495 103q0 -114 -52.5 -171.5t-145.5 -91.5l-39 102q40 18 60 39t26.5 50t6.5 77v584h144v-589z" />
    <glyph glyph-name="ij" unicode="&#x133;" horiz-adv-x="515" 
d="M198 530v-530h-139v530h139zM188.5 778q23.5 -23 23.5 -58t-23.5 -58.5t-59.5 -23.5t-59.5 23.5t-23.5 58.5t23.5 58t59.5 23t59.5 -23zM456 41q0 -74 -23.5 -123t-64 -80t-102.5 -57l-46 101q35 18 55 35.5t31 45.5t11 73v494h139v-489zM446.5 778q23.5 -23 23.5 -58
t-23.5 -58.5t-59.5 -23.5t-59.5 23.5t-23.5 58.5t23.5 58t59.5 23t59.5 -23z" />
    <glyph glyph-name="Jcircumflex" unicode="&#x134;" horiz-adv-x="286" 
d="M227 103q0 -114 -52.5 -171.5t-145.5 -91.5l-39 102q40 18 60 39t26.5 50t6.5 77v584h144v-589zM35 758l-50 55l127 126h85l127 -126l-50 -55l-120 83z" />
    <glyph glyph-name="jcircumflex" unicode="&#x135;" horiz-adv-x="257" 
d="M198 41q0 -74 -23.5 -123t-64 -80t-102.5 -57l-46 101q35 18 55 35.5t31 45.5t11 73v494h139v-489zM10 626l-50 55l127 132h85l127 -132l-51 -55l-119 90z" />
    <glyph glyph-name="Kcommaaccent" unicode="&#x136;" horiz-adv-x="570" 
d="M206 692v-692h-144v692h144zM563 692l-203 -312l220 -380h-163l-206 369l204 323h148zM345.5 -90.5q19.5 -20.5 19.5 -51.5q0 -16 -5 -33t-19 -48l-41 -93h-70l27 115q-33 23 -33 59q0 30 20 51t51 21t50.5 -20.5z" />
    <glyph glyph-name="kcommaaccent" unicode="&#x137;" horiz-adv-x="498" 
d="M198 756v-756h-139v741zM493 530l-150 -233l162 -297h-153l-149 290l151 240h139zM301.5 -90.5q19.5 -20.5 19.5 -51.5q0 -16 -5 -33t-19 -48l-41 -93h-70l27 115q-33 23 -33 59q0 30 20 51t51 21t50.5 -20.5z" />
    <glyph glyph-name="kgreenlandic" unicode="&#x138;" horiz-adv-x="498" 
d="M198 530v-530h-139v530h139zM492 530l-149 -241l161 -289h-152l-150 282l151 248h139z" />
    <glyph glyph-name="Lacute" unicode="&#x139;" horiz-adv-x="460" 
d="M206 692v-576h244l-15 -116h-373v692h144zM205 941l53 -105l-213 -84l-36 70z" />
    <glyph glyph-name="lacute" unicode="&#x13a;" horiz-adv-x="271" 
d="M89 20q-35 36 -35 100v621l139 15v-630q0 -31 26 -31q11 0 23 4l27 -96q-35 -19 -84 -19q-61 0 -96 36zM195 990l53 -105l-213 -84l-36 70z" />
    <glyph glyph-name="Lcommaaccent" unicode="&#x13b;" horiz-adv-x="460" 
d="M206 692v-576h244l-15 -116h-373v692h144zM300.5 -90.5q19.5 -20.5 19.5 -51.5q0 -16 -5 -33t-19 -48l-41 -93h-70l27 115q-33 23 -33 59q0 30 20 51t51 21t50.5 -20.5z" />
    <glyph glyph-name="lcommaaccent" unicode="&#x13c;" horiz-adv-x="271" 
d="M89 20q-35 36 -35 100v621l139 15v-630q0 -31 26 -31q11 0 23 4l27 -96q-35 -19 -84 -19q-61 0 -96 36zM217.5 -90.5q19.5 -20.5 19.5 -51.5q0 -16 -5 -33t-19 -48l-41 -93h-70l27 115q-33 23 -33 59q0 30 20 51t51 21t50.5 -20.5z" />
    <glyph glyph-name="Lcaron" unicode="&#x13d;" horiz-adv-x="460" 
d="M206 692v-576h244l-15 -116h-373v692h144zM321 486l49 206l-105 15l-21 -210z" />
    <glyph glyph-name="lcaron" unicode="&#x13e;" horiz-adv-x="326" 
d="M89 20q-35 36 -35 100v621l139 15v-630q0 -31 26 -31q11 0 23 4l27 -96q-35 -19 -84 -19q-61 0 -96 36zM305 535l49 206l-105 15l-21 -210z" />
    <glyph glyph-name="Ldot" unicode="&#x13f;" horiz-adv-x="460" 
d="M206 692v-576h244l-15 -116h-373v692h144zM420.5 454q23.5 -23 23.5 -58t-23.5 -58.5t-59.5 -23.5t-59.5 23.5t-23.5 58.5t23.5 58t59.5 23t59.5 -23z" />
    <glyph glyph-name="ldot" unicode="&#x140;" horiz-adv-x="391" 
d="M89 20q-35 36 -35 100v621l139 15v-630q0 -31 26 -31q11 0 23 4l27 -96q-35 -19 -84 -19q-61 0 -96 36zM378.5 435q23.5 -23 23.5 -58t-23.5 -58.5t-59.5 -23.5t-59.5 23.5t-23.5 58.5t23.5 58t59.5 23t59.5 -23z" />
    <glyph glyph-name="Lslash" unicode="&#x141;" horiz-adv-x="495" 
d="M241 116h244l-15 -116h-373v233l-42 -28l-47 79l86 59l3 2v347h144v-251l114 76l48 -78l-162 -109v-214z" />
    <glyph glyph-name="lslash" unicode="&#x142;" horiz-adv-x="322" 
d="M268 99l27 -96q-35 -19 -84 -19q-61 0 -96 36t-35 100v157l-38 -25l-46 76l84 57v356l139 15v-281l61 39l46 -77l-107 -70v-241q0 -31 26 -31q11 0 23 4z" />
    <glyph glyph-name="Nacute" unicode="&#x143;" horiz-adv-x="602" 
d="M540 0h-183l-186 553q2 -14 2 -22q8 -70 12.5 -126.5t4.5 -131.5v-273h-128v692h180l189 -554q-19 130 -19 246v308h128v-692zM376 941l53 -105l-213 -84l-36 70z" />
    <glyph glyph-name="nacute" unicode="&#x144;" horiz-adv-x="524" 
d="M433.5 504.5q35.5 -41.5 35.5 -113.5v-391h-139v372q0 37 -11.5 53t-33.5 16q-45 0 -87 -73v-368h-139v530h121l10 -67q30 41 64.5 62t80.5 21q63 0 98.5 -41.5zM329 822l56 -103l-212 -92l-38 69z" />
    <glyph glyph-name="Ncommaaccent" unicode="&#x145;" horiz-adv-x="602" 
d="M540 0h-183l-186 553q2 -14 2 -22q8 -70 12.5 -126.5t4.5 -131.5v-273h-128v692h180l189 -554q-19 130 -19 246v308h128v-692zM353.5 -90.5q19.5 -20.5 19.5 -51.5q0 -16 -5 -33t-19 -48l-41 -93h-70l27 115q-33 23 -33 59q0 30 20 51t51 21t50.5 -20.5z" />
    <glyph glyph-name="ncommaaccent" unicode="&#x146;" horiz-adv-x="524" 
d="M433.5 504.5q35.5 -41.5 35.5 -113.5v-391h-139v372q0 37 -11.5 53t-33.5 16q-45 0 -87 -73v-368h-139v530h121l10 -67q30 41 64.5 62t80.5 21q63 0 98.5 -41.5zM313.5 -90.5q19.5 -20.5 19.5 -51.5q0 -16 -5 -33t-19 -48l-41 -93h-70l27 115q-33 23 -33 59q0 30 20 51
t51 21t50.5 -20.5z" />
    <glyph glyph-name="Ncaron" unicode="&#x147;" horiz-adv-x="602" 
d="M540 0h-183l-186 553q2 -14 2 -22q8 -70 12.5 -126.5t4.5 -131.5v-273h-128v692h180l189 -554q-19 130 -19 246v308h128v-692zM425 932l50 -55l-127 -126h-85l-127 126l50 55l119 -83z" />
    <glyph glyph-name="ncaron" unicode="&#x148;" horiz-adv-x="524" 
d="M433.5 504.5q35.5 -41.5 35.5 -113.5v-391h-139v372q0 37 -11.5 53t-33.5 16q-45 0 -87 -73v-368h-139v530h121l10 -67q30 41 64.5 62t80.5 21q63 0 98.5 -41.5zM386 804l50 -56l-127 -132h-85l-127 132l50 56l119 -91z" />
    <glyph glyph-name="napostrophe" unicode="&#x149;" horiz-adv-x="640" 
d="M141.5 739.5q17.5 -18.5 17.5 -45.5q0 -15 -4.5 -30.5t-17.5 -45.5l-36 -83h-62l22 105q-28 20 -28 54q0 27 18 45.5t46 18.5q27 0 44.5 -18.5zM548.5 504.5q35.5 -41.5 35.5 -113.5v-391h-139v372q0 37 -11.5 53t-33.5 16q-45 0 -87 -73v-368h-139v530h121l10 -67
q30 41 64.5 62t80.5 21q63 0 98.5 -41.5z" />
    <glyph glyph-name="Eng" unicode="&#x14a;" horiz-adv-x="602" 
d="M540 692v-740q0 -84 -48 -127.5t-129 -43.5q-73 0 -127 41l50 84q17 -10 30 -14.5t32 -4.5q48 0 48 57v56h-39l-186 553q2 -14 2 -22q8 -70 12.5 -126.5t4.5 -131.5v-273h-128v692h180l189 -554q-19 130 -19 246v308h128z" />
    <glyph glyph-name="eng" unicode="&#x14b;" horiz-adv-x="524" 
d="M433.5 504.5q35.5 -41.5 35.5 -113.5v-441q0 -82 -47.5 -125.5t-125.5 -43.5q-76 0 -128 41l49 80q17 -10 30.5 -14t31.5 -4q51 0 51 57v431q0 37 -11.5 53t-33.5 16q-45 0 -87 -73v-368h-139v530h121l10 -67q30 41 64.5 62t80.5 21q63 0 98.5 -41.5z" />
    <glyph glyph-name="Omacron" unicode="&#x14c;" horiz-adv-x="629" 
d="M521 615.5q73 -92.5 73 -269.5q0 -175 -73 -268.5t-206 -93.5t-206.5 92.5t-73.5 269.5q0 175 73.5 268.5t206.5 93.5t206 -92.5zM217 541q-32 -59 -32 -195q0 -137 32.5 -195.5t97.5 -58.5q66 0 97.5 58.5t31.5 195.5q0 136 -31.5 195t-97.5 59t-98 -59zM451 785h-273
v97h273v-97z" />
    <glyph glyph-name="omacron" unicode="&#x14d;" horiz-adv-x="533" 
d="M437.5 473.5q61.5 -72.5 61.5 -208.5q0 -131 -62 -206t-171 -75t-170.5 73t-61.5 208q0 133 61.5 207t171.5 74q109 0 170.5 -72.5zM200 400q-22 -42 -22 -135q0 -95 21.5 -136t66.5 -41t67 42t22 135q0 94 -21.5 135.5t-66.5 41.5t-67 -42zM402 659h-273v97h273v-97z
" />
    <glyph glyph-name="Obreve" unicode="&#x14e;" horiz-adv-x="629" 
d="M521 615.5q73 -92.5 73 -269.5q0 -175 -73 -268.5t-206 -93.5t-206.5 92.5t-73.5 269.5q0 175 73.5 268.5t206.5 93.5t206 -92.5zM217 541q-32 -59 -32 -195q0 -137 32.5 -195.5t97.5 -58.5q66 0 97.5 58.5t31.5 195.5q0 136 -31.5 195t-97.5 59t-98 -59zM206 795
q-40 42 -45 109l77 14q18 -67 76 -67q30 0 49.5 18t28.5 49l77 -14q-6 -67 -46.5 -109t-108.5 -42t-108 42z" />
    <glyph glyph-name="obreve" unicode="&#x14f;" horiz-adv-x="533" 
d="M437.5 473.5q61.5 -72.5 61.5 -208.5q0 -131 -62 -206t-171 -75t-170.5 73t-61.5 208q0 133 61.5 207t171.5 74q109 0 170.5 -72.5zM200 400q-22 -42 -22 -135q0 -95 21.5 -136t66.5 -41t67 42t22 135q0 94 -21.5 135.5t-66.5 41.5t-67 -42zM157 679.5
q-40 43.5 -45 117.5l77 14q17 -78 76 -78q61 0 78 78l77 -14q-6 -74 -46 -117.5t-109 -43.5q-68 0 -108 43.5z" />
    <glyph glyph-name="Ohungarumlaut" unicode="&#x150;" horiz-adv-x="629" 
d="M521 615.5q73 -92.5 73 -269.5q0 -175 -73 -268.5t-206 -93.5t-206.5 92.5t-73.5 269.5q0 175 73.5 268.5t206.5 93.5t206 -92.5zM217 541q-32 -59 -32 -195q0 -137 32.5 -195.5t97.5 -58.5q66 0 97.5 58.5t31.5 195.5q0 136 -31.5 195t-97.5 59t-98 -59zM276 977l94 -47
l-101 -172l-71 30zM432 977l94 -49l-109 -174l-70 33z" />
    <glyph glyph-name="ohungarumlaut" unicode="&#x151;" horiz-adv-x="533" 
d="M437.5 473.5q61.5 -72.5 61.5 -208.5q0 -131 -62 -206t-171 -75t-170.5 73t-61.5 208q0 133 61.5 207t171.5 74q109 0 170.5 -72.5zM200 400q-22 -42 -22 -135q0 -95 21.5 -136t66.5 -41t67 42t22 135q0 94 -21.5 135.5t-66.5 41.5t-67 -42zM224 851l94 -47l-101 -172
l-71 30zM380 851l94 -49l-109 -174l-70 33z" />
    <glyph glyph-name="OE" unicode="&#x152;" horiz-adv-x="817" 
d="M506 106h278v-106h-399q-36 -16 -85 -16q-80 0 -140 42t-92.5 123.5t-32.5 196.5q0 114 32.5 195.5t92.5 124t140 42.5q51 0 87 -16h397l-15 -105h-260q53 -71 64 -183h168v-104h-167q-9 -119 -68 -194zM395.5 151.5q30.5 59.5 30.5 194.5t-31 194.5t-90 59.5
t-89.5 -59.5t-30.5 -194.5q0 -134 31 -194t89 -60q60 0 90.5 59.5z" />
    <glyph glyph-name="oe" unicode="&#x153;" horiz-adv-x="824" 
d="M792 223h-296q6 -74 33 -104.5t75 -30.5q31 0 58.5 10.5t58.5 34.5l58 -77q-81 -72 -186 -72q-107 0 -168 85q-61 -85 -161 -85q-108 0 -169 73.5t-61 207.5q0 86 28 149t80 97.5t123 34.5q100 0 161 -82q59 82 156 82q99 0 156 -70t57 -199q0 -31 -3 -54zM660 317
q-1 66 -19.5 99.5t-59.5 33.5q-39 0 -60.5 -32.5t-25.5 -107.5h165v7zM332 130.5q22 42.5 22 135.5q0 91 -22 133.5t-66 42.5q-45 0 -66.5 -42t-21.5 -135q0 -95 21.5 -136t66.5 -41q44 0 66 42.5z" />
    <glyph glyph-name="Racute" unicode="&#x154;" horiz-adv-x="558" 
d="M268 273h-62v-273h-144v692h192q266 0 266 -206q0 -135 -121 -186l159 -300h-159zM261 374q57 0 83.5 27t26.5 85q0 53 -28.5 78t-89.5 25h-47v-215h55zM345 941l53 -105l-213 -84l-36 70z" />
    <glyph glyph-name="racute" unicode="&#x155;" horiz-adv-x="362" 
d="M364 537l-23 -134q-21 6 -42 6q-42 0 -65 -31.5t-36 -95.5v-282h-139v530h121l11 -96q19 53 51 81.5t75 28.5q26 0 47 -7zM276 822l56 -103l-212 -92l-38 69z" />
    <glyph glyph-name="Rcommaaccent" unicode="&#x156;" horiz-adv-x="558" 
d="M268 273h-62v-273h-144v692h192q266 0 266 -206q0 -135 -121 -186l159 -300h-159zM261 374q57 0 83.5 27t26.5 85q0 53 -28.5 78t-89.5 25h-47v-215h55zM333.5 -90.5q19.5 -20.5 19.5 -51.5q0 -16 -5 -33t-19 -48l-41 -93h-70l27 115q-33 23 -33 59q0 30 20 51t51 21
t50.5 -20.5z" />
    <glyph glyph-name="rcommaaccent" unicode="&#x157;" horiz-adv-x="362" 
d="M364 537l-23 -134q-21 6 -42 6q-42 0 -65 -31.5t-36 -95.5v-282h-139v530h121l11 -96q19 53 51 81.5t75 28.5q26 0 47 -7zM180.5 -90.5q19.5 -20.5 19.5 -51.5q0 -16 -5 -33t-19 -48l-41 -93h-70l27 115q-33 23 -33 59q0 30 20 51t51 21t50.5 -20.5z" />
    <glyph glyph-name="Rcaron" unicode="&#x158;" horiz-adv-x="558" 
d="M268 273h-62v-273h-144v692h192q266 0 266 -206q0 -135 -121 -186l159 -300h-159zM261 374q57 0 83.5 27t26.5 85q0 53 -28.5 78t-89.5 25h-47v-215h55zM394 932l50 -55l-127 -126h-85l-127 126l50 55l119 -83z" />
    <glyph glyph-name="rcaron" unicode="&#x159;" horiz-adv-x="362" 
d="M364 537l-23 -134q-21 6 -42 6q-42 0 -65 -31.5t-36 -95.5v-282h-139v530h121l11 -96q19 53 51 81.5t75 28.5q26 0 47 -7zM333 804l50 -56l-127 -132h-85l-127 132l50 56l119 -91z" />
    <glyph glyph-name="Sacute" unicode="&#x15a;" horiz-adv-x="513" 
d="M377.5 686q51.5 -22 94.5 -65l-67 -77q-33 29 -66 42.5t-69 13.5q-41 0 -64.5 -20.5t-23.5 -56.5q0 -24 10.5 -40.5t36.5 -31.5t76 -33q62 -23 101.5 -50t61 -68t21.5 -101q0 -62 -29.5 -110.5t-85.5 -76.5t-131 -28q-141 0 -235 96l72 80q38 -33 75.5 -50t80.5 -17
q49 0 76 26t27 71q0 40 -24.5 64.5t-90.5 48.5q-102 38 -146 86t-44 124q0 57 29 101.5t80 69t115 24.5q68 0 119.5 -22zM334 941l53 -105l-213 -84l-36 70z" />
    <glyph glyph-name="sacute" unicode="&#x15b;" horiz-adv-x="435" 
d="M320 529.5q45 -16.5 79 -47.5l-52 -77q-61 40 -115 40q-31 0 -47.5 -13.5t-16.5 -36.5q0 -17 8 -28t29 -22t63 -25q75 -25 111.5 -63t36.5 -103q0 -79 -60 -124.5t-151 -45.5q-60 0 -110.5 20.5t-87.5 55.5l67 75q64 -50 126 -50q34 0 54 15.5t20 43.5q0 21 -8 34
t-29.5 24t-65.5 26q-74 25 -107.5 63t-33.5 96q0 45 23.5 81t67.5 57t103 21q51 0 96 -16.5zM287 822l56 -103l-212 -92l-38 69z" />
    <glyph glyph-name="Scircumflex" unicode="&#x15c;" horiz-adv-x="513" 
d="M377.5 686q51.5 -22 94.5 -65l-67 -77q-33 29 -66 42.5t-69 13.5q-41 0 -64.5 -20.5t-23.5 -56.5q0 -24 10.5 -40.5t36.5 -31.5t76 -33q62 -23 101.5 -50t61 -68t21.5 -101q0 -62 -29.5 -110.5t-85.5 -76.5t-131 -28q-141 0 -235 96l72 80q38 -33 75.5 -50t80.5 -17
q49 0 76 26t27 71q0 40 -24.5 64.5t-90.5 48.5q-102 38 -146 86t-44 124q0 57 29 101.5t80 69t115 24.5q68 0 119.5 -22zM143 758l-50 55l127 126h85l127 -126l-50 -55l-120 83z" />
    <glyph glyph-name="scircumflex" unicode="&#x15d;" horiz-adv-x="435" 
d="M320 529.5q45 -16.5 79 -47.5l-52 -77q-61 40 -115 40q-31 0 -47.5 -13.5t-16.5 -36.5q0 -17 8 -28t29 -22t63 -25q75 -25 111.5 -63t36.5 -103q0 -79 -60 -124.5t-151 -45.5q-60 0 -110.5 20.5t-87.5 55.5l67 75q64 -50 126 -50q34 0 54 15.5t20 43.5q0 21 -8 34
t-29.5 24t-65.5 26q-74 25 -107.5 63t-33.5 96q0 45 23.5 81t67.5 57t103 21q51 0 96 -16.5zM105 626l-50 55l127 132h85l127 -132l-51 -55l-119 90z" />
    <glyph glyph-name="Scedilla" unicode="&#x15e;" horiz-adv-x="513" 
d="M436 57.5q-53 -57.5 -146 -70.5v-40q46 -6 69 -29.5t23 -63.5q0 -50 -35.5 -80t-96.5 -30q-58 0 -100 28l33 65q28 -15 57 -15q42 0 42 33q0 19 -20 28t-63 9l11 93q-119 11 -202 95l72 80q38 -33 75.5 -50t80.5 -17q49 0 76 26t27 71q0 40 -24.5 64.5t-90.5 48.5
q-102 38 -146 86t-44 124q0 57 29 101.5t80 69t115 24.5q68 0 119.5 -22t94.5 -65l-67 -77q-33 29 -66 42.5t-69 13.5q-41 0 -64.5 -20.5t-23.5 -56.5q0 -24 10.5 -40.5t36.5 -31.5t76 -33q62 -23 101.5 -50t61 -68t21.5 -101q0 -84 -53 -141.5z" />
    <glyph glyph-name="scedilla" unicode="&#x15f;" horiz-adv-x="435" 
d="M372.5 43.5q-43.5 -43.5 -115.5 -55.5v-41q46 -6 69 -29.5t23 -63.5q0 -50 -35.5 -80t-96.5 -30q-58 0 -100 28l33 65q28 -15 57 -15q42 0 42 33q0 19 -20 28t-63 9l11 93q-100 8 -170 75l67 75q64 -50 126 -50q34 0 54 15.5t20 43.5q0 21 -8 34t-29.5 24t-65.5 26
q-74 25 -107.5 63t-33.5 96q0 45 23.5 81t67.5 57t103 21q51 0 96 -16.5t79 -47.5l-52 -77q-61 40 -115 40q-31 0 -47.5 -13.5t-16.5 -36.5q0 -17 8 -28t29 -22t63 -25q75 -25 111.5 -63t36.5 -103q0 -67 -43.5 -110.5z" />
    <glyph glyph-name="Scaron" unicode="&#x160;" horiz-adv-x="513" 
d="M377.5 686q51.5 -22 94.5 -65l-67 -77q-33 29 -66 42.5t-69 13.5q-41 0 -64.5 -20.5t-23.5 -56.5q0 -24 10.5 -40.5t36.5 -31.5t76 -33q62 -23 101.5 -50t61 -68t21.5 -101q0 -62 -29.5 -110.5t-85.5 -76.5t-131 -28q-141 0 -235 96l72 80q38 -33 75.5 -50t80.5 -17
q49 0 76 26t27 71q0 40 -24.5 64.5t-90.5 48.5q-102 38 -146 86t-44 124q0 57 29 101.5t80 69t115 24.5q68 0 119.5 -22zM383 932l50 -55l-127 -126h-85l-127 126l50 55l119 -83z" />
    <glyph glyph-name="scaron" unicode="&#x161;" horiz-adv-x="435" 
d="M320 529.5q45 -16.5 79 -47.5l-52 -77q-61 40 -115 40q-31 0 -47.5 -13.5t-16.5 -36.5q0 -17 8 -28t29 -22t63 -25q75 -25 111.5 -63t36.5 -103q0 -79 -60 -124.5t-151 -45.5q-60 0 -110.5 20.5t-87.5 55.5l67 75q64 -50 126 -50q34 0 54 15.5t20 43.5q0 21 -8 34
t-29.5 24t-65.5 26q-74 25 -107.5 63t-33.5 96q0 45 23.5 81t67.5 57t103 21q51 0 96 -16.5zM344 804l50 -56l-127 -132h-85l-127 132l50 56l119 -91z" />
    <glyph glyph-name="uni0162" unicode="&#x162;" horiz-adv-x="485" 
d="M314 580v-564h1v-66q47 -6 70.5 -31t23.5 -64q0 -51 -36 -81t-98 -30q-29 0 -55 8t-44 20l32 67q31 -17 55 -17q45 0 45 34q0 18 -20 27t-63 9l12 108h-67v580h-162v112h476l-15 -112h-155z" />
    <glyph glyph-name="uni0163" unicode="&#x163;" horiz-adv-x="347" 
d="M319 -82.5q23 -23.5 23 -63.5q0 -50 -35.5 -80t-96.5 -30q-58 0 -100 28l33 65q28 -15 57 -15q42 0 42 33q0 19 -20 28t-63 9l11 100q-49 14 -74 55.5t-25 103.5v280h-68v99h68v116l139 17v-133h110l-14 -99h-96v-279q0 -57 45 -57q24 0 53 16l47 -86q-44 -33 -105 -40
v-38q46 -6 69 -29.5z" />
    <glyph glyph-name="Tcaron" unicode="&#x164;" horiz-adv-x="485" 
d="M484 692l-15 -112h-155v-580h-144v580h-162v112h476zM362 932l50 -55l-127 -126h-85l-127 126l50 55l119 -83z" />
    <glyph glyph-name="tcaron" unicode="&#x165;" horiz-adv-x="347" 
d="M356 771l-49 -206l-77 11l21 210zM308 111l47 -86q-26 -20 -60 -30.5t-68 -10.5q-77 0 -116.5 44t-39.5 123v280h-68v99h68v116l139 17v-133h110l-14 -99h-96v-279q0 -57 45 -57q24 0 53 16z" />
    <glyph glyph-name="Tbar" unicode="&#x166;" horiz-adv-x="485" 
d="M469 579h-155v-190h104v-86h-104v-304h-144v304h-104v86h104v190h-162v112h476z" />
    <glyph glyph-name="tbar" unicode="&#x167;" horiz-adv-x="347" 
d="M355 25q-26 -20 -60 -30.5t-68 -10.5q-77 0 -116.5 44t-39.5 123v115h-61v94h61v71h-68v99h68v116l139 17v-133h110l-14 -99h-96v-71h93v-94h-93v-114q0 -57 45 -57q24 0 53 16z" />
    <glyph glyph-name="Utilde" unicode="&#x168;" horiz-adv-x="588" 
d="M536 211q0 -65 -27.5 -116.5t-82 -81t-132.5 -29.5q-118 0 -180 62t-62 165v481h144v-475q0 -62 24 -92.5t74 -30.5q51 0 74.5 30.5t23.5 92.5v475h144v-481zM313.5 776q-14.5 7 -32.5 19q-23 18 -38 18t-25 -10t-23 -33l-69 32q17 48 47 78t67 30q21 0 35.5 -7t32.5 -19
q12 -9 20.5 -13t17.5 -4q14 0 24.5 10t22.5 32l69 -33q-18 -50 -47.5 -78.5t-66.5 -28.5q-20 0 -34.5 7z" />
    <glyph glyph-name="utilde" unicode="&#x169;" horiz-adv-x="520" 
d="M461 0h-122l-6 67q-27 -41 -62 -62t-81 -21q-64 0 -99.5 42.5t-35.5 114.5v389h139v-377q0 -34 11.5 -49.5t34.5 -15.5q46 0 82 66v376h139v-530zM277.5 650q-14.5 7 -32.5 19q-23 18 -38 18t-25 -10t-23 -33l-69 32q17 48 47 78t67 30q21 0 35.5 -7t32.5 -19
q12 -9 20.5 -13t17.5 -4q14 0 24.5 10t22.5 32l69 -33q-18 -50 -47.5 -78.5t-66.5 -28.5q-20 0 -34.5 7z" />
    <glyph glyph-name="Umacron" unicode="&#x16a;" horiz-adv-x="588" 
d="M536 211q0 -65 -27.5 -116.5t-82 -81t-132.5 -29.5q-118 0 -180 62t-62 165v481h144v-475q0 -62 24 -92.5t74 -30.5q51 0 74.5 30.5t23.5 92.5v475h144v-481zM430 785h-273v97h273v-97z" />
    <glyph glyph-name="umacron" unicode="&#x16b;" horiz-adv-x="520" 
d="M461 0h-122l-6 67q-27 -41 -62 -62t-81 -21q-64 0 -99.5 42.5t-35.5 114.5v389h139v-377q0 -34 11.5 -49.5t34.5 -15.5q46 0 82 66v376h139v-530zM394 659h-273v97h273v-97z" />
    <glyph glyph-name="Ubreve" unicode="&#x16c;" horiz-adv-x="588" 
d="M536 211q0 -65 -27.5 -116.5t-82 -81t-132.5 -29.5q-118 0 -180 62t-62 165v481h144v-475q0 -62 24 -92.5t74 -30.5q51 0 74.5 30.5t23.5 92.5v475h144v-481zM185 795q-40 42 -45 109l77 14q18 -67 76 -67q30 0 49.5 18t28.5 49l77 -14q-6 -67 -46.5 -109t-108.5 -42
t-108 42z" />
    <glyph glyph-name="ubreve" unicode="&#x16d;" horiz-adv-x="520" 
d="M461 0h-122l-6 67q-27 -41 -62 -62t-81 -21q-64 0 -99.5 42.5t-35.5 114.5v389h139v-377q0 -34 11.5 -49.5t34.5 -15.5q46 0 82 66v376h139v-530zM149 679.5q-40 43.5 -45 117.5l77 14q17 -78 76 -78q61 0 78 78l77 -14q-6 -74 -46 -117.5t-109 -43.5q-68 0 -108 43.5z
" />
    <glyph glyph-name="Uring" unicode="&#x16e;" horiz-adv-x="588" 
d="M536 211q0 -65 -27.5 -116.5t-82 -81t-132.5 -29.5q-118 0 -180 62t-62 165v481h144v-475q0 -62 24 -92.5t74 -30.5q51 0 74.5 30.5t23.5 92.5v475h144v-481zM383.5 949q33.5 -35 33.5 -89t-33.5 -89t-89.5 -35q-57 0 -90.5 35t-33.5 89t33.5 89t90.5 35q56 0 89.5 -35z
M252 860q0 -53 42 -53q41 0 41 53t-41 53q-42 0 -42 -53z" />
    <glyph glyph-name="uring" unicode="&#x16f;" horiz-adv-x="520" 
d="M461 0h-122l-6 67q-27 -41 -62 -62t-81 -21q-64 0 -99.5 42.5t-35.5 114.5v389h139v-377q0 -34 11.5 -49.5t34.5 -15.5q46 0 82 66v376h139v-530zM347.5 823q33.5 -35 33.5 -89t-33.5 -89t-89.5 -35q-57 0 -90.5 35t-33.5 89t33.5 89t90.5 35q56 0 89.5 -35zM216 734
q0 -53 42 -53q41 0 41 53t-41 53q-42 0 -42 -53z" />
    <glyph glyph-name="Uhungarumlaut" unicode="&#x170;" horiz-adv-x="588" 
d="M536 211q0 -65 -27.5 -116.5t-82 -81t-132.5 -29.5q-118 0 -180 62t-62 165v481h144v-475q0 -62 24 -92.5t74 -30.5q51 0 74.5 30.5t23.5 92.5v475h144v-481zM255 977l94 -47l-101 -172l-71 30zM411 977l94 -49l-109 -174l-70 33z" />
    <glyph glyph-name="uhungarumlaut" unicode="&#x171;" horiz-adv-x="520" 
d="M461 0h-122l-6 67q-27 -41 -62 -62t-81 -21q-64 0 -99.5 42.5t-35.5 114.5v389h139v-377q0 -34 11.5 -49.5t34.5 -15.5q46 0 82 66v376h139v-530zM216 851l94 -47l-101 -172l-71 30zM372 851l94 -49l-109 -174l-70 33z" />
    <glyph glyph-name="Uogonek" unicode="&#x172;" horiz-adv-x="588" 
d="M536 692v-481q0 -77 -38 -133.5t-110 -79.5q-100 -46 -100 -103q0 -47 47 -47q23 0 55 8l-9 -90q-35 -7 -63 -7q-58 0 -94.5 31t-36.5 81q0 37 21.5 66t60.5 48q-106 7 -161.5 68t-55.5 158v481h144v-475q0 -62 24 -92.5t74 -30.5q51 0 74.5 30.5t23.5 92.5v475h144z" />
    <glyph glyph-name="uogonek" unicode="&#x173;" horiz-adv-x="520" 
d="M461 530v-530h-2q-61 -26 -83.5 -52t-22.5 -54q0 -47 49 -47q20 0 54 8l-10 -89q-33 -7 -62 -7q-59 0 -95.5 30t-36.5 81q0 80 87 132l-6 65q-27 -41 -62 -62t-81 -21q-64 0 -99.5 42.5t-35.5 114.5v389h139v-377q0 -34 11.5 -49.5t34.5 -15.5q46 0 82 66v376h139z" />
    <glyph glyph-name="Wcircumflex" unicode="&#x174;" horiz-adv-x="767" 
d="M755 692l-106 -692h-187l-80 544l-83 -544h-184l-103 692h141l67 -580l89 580h151l85 -580l75 580h135zM265 758l-50 55l127 126h85l127 -126l-50 -55l-120 83z" />
    <glyph glyph-name="wcircumflex" unicode="&#x175;" horiz-adv-x="680" 
d="M671 530l-99 -530h-168l-64 405l-64 -405h-165l-102 530h136l56 -426l74 426h137l68 -426l60 426h131zM222 626l-50 55l127 132h85l127 -132l-51 -55l-119 90z" />
    <glyph glyph-name="Ycircumflex" unicode="&#x176;" horiz-adv-x="532" 
d="M538 692l-200 -431v-261h-144v260l-200 432h155l120 -316l120 316h149zM146 758l-50 55l127 126h85l127 -126l-50 -55l-120 83z" />
    <glyph glyph-name="ycircumflex" unicode="&#x177;" horiz-adv-x="470" 
d="M319 -1q-29 -100 -93 -155t-173 -64l-15 99q69 11 102.5 37.5t53.5 83.5h-50l-146 530h144l91 -439l99 439h140zM116 626l-50 55l127 132h85l127 -132l-51 -55l-119 90z" />
    <glyph glyph-name="Ydieresis" unicode="&#x178;" horiz-adv-x="532" 
d="M538 692l-200 -431v-261h-144v260l-200 432h155l120 -316l120 316h149zM216.5 895q20.5 -21 20.5 -51q0 -31 -20.5 -52t-51.5 -21t-51.5 21t-20.5 52q0 30 20.5 51t51.5 21t51.5 -21zM423.5 895q20.5 -21 20.5 -51q0 -31 -20.5 -52t-51.5 -21q-30 0 -51 21t-21 52
q0 30 21 51t51 21q31 0 51.5 -21z" />
    <glyph glyph-name="Zacute" unicode="&#x179;" horiz-adv-x="486" 
d="M459 692v-110l-281 -466h286l-15 -116h-433v109l284 470h-256v113h415zM319 941l53 -105l-213 -84l-36 70z" />
    <glyph glyph-name="zacute" unicode="&#x17a;" horiz-adv-x="413" 
d="M392 530v-99l-224 -323h228l-12 -108h-371v100l224 323h-205v107h360zM273 822l56 -103l-212 -92l-38 69z" />
    <glyph glyph-name="Zdotaccent" unicode="&#x17b;" horiz-adv-x="486" 
d="M459 692v-110l-281 -466h286l-15 -116h-433v109l284 470h-256v113h415zM307.5 904q23.5 -23 23.5 -58t-23.5 -58.5t-59.5 -23.5t-59.5 23.5t-23.5 58.5t23.5 58t59.5 23t59.5 -23z" />
    <glyph glyph-name="zdotaccent" unicode="&#x17c;" horiz-adv-x="413" 
d="M392 530v-99l-224 -323h228l-12 -108h-371v100l224 323h-205v107h360zM269.5 778q23.5 -23 23.5 -58t-23.5 -58.5t-59.5 -23.5t-59.5 23.5t-23.5 58.5t23.5 58t59.5 23t59.5 -23z" />
    <glyph glyph-name="Zcaron" unicode="&#x17d;" horiz-adv-x="486" 
d="M459 692v-110l-281 -466h286l-15 -116h-433v109l284 470h-256v113h415zM368 932l50 -55l-127 -126h-85l-127 126l50 55l119 -83z" />
    <glyph glyph-name="zcaron" unicode="&#x17e;" horiz-adv-x="413" 
d="M392 530v-99l-224 -323h228l-12 -108h-371v100l224 323h-205v107h360zM330 804l50 -56l-127 -132h-85l-127 132l50 56l119 -91z" />
    <glyph glyph-name="longs" unicode="&#x17f;" horiz-adv-x="323" 
d="M388 725l-38 -91q-37 18 -75 18q-31 0 -45 -15t-14 -49v-588h-139v431h-72v99h72v57q0 76 47 122.5t134 46.5q66 0 130 -31z" />
    <glyph glyph-name="uni0180" unicode="&#x180;" horiz-adv-x="547" 
d="M465 473.5q46 -72.5 46 -208.5q0 -85 -23 -148.5t-66 -98t-101 -34.5q-38 0 -70.5 18t-54.5 49l-7 -51h-124v599h-56v86h56v56l139 15v-71h120v-86h-120v-124q23 33 57 52t74 19q84 0 130 -72.5zM344.5 128q22.5 41 22.5 137q0 101 -20 139t-58 38q-25 0 -46.5 -17.5
t-38.5 -48.5v-234q14 -26 34 -40.5t44 -14.5q40 0 62.5 41z" />
    <glyph glyph-name="uni0181" unicode="&#x181;" horiz-adv-x="679" 
d="M614.5 314q40.5 -38 40.5 -114q0 -105 -72.5 -152.5t-200.5 -47.5h-197v587h-24q-43 0 -43 -44q0 -32 17 -69l-90 -40q-19 30 -30 58t-11 62q0 63 43 100.5t121 37.5h189q131 0 201.5 -43.5t70.5 -133.5q0 -59 -34.5 -96.5t-88.5 -52.5q68 -14 108.5 -52zM329 588v-178
h52q101 0 101 92q0 46 -26.5 66t-84.5 20h-42zM475.5 129q31.5 22 31.5 78q0 105 -116 105h-62v-205h54q61 0 92.5 22z" />
    <glyph glyph-name="uni0182" unicode="&#x182;" horiz-adv-x="539" 
d="M456 388q65 -54 65 -161q0 -114 -67.5 -170.5t-185.5 -56.5h-206v692h387l-15 -111h-228v-139h65q120 0 185 -54zM343.5 134.5q26.5 27.5 26.5 90.5q0 59 -26.5 86.5t-84.5 27.5h-53v-232h56q55 0 81.5 27.5z" />
    <glyph glyph-name="uni0183" unicode="&#x183;" horiz-adv-x="541" 
d="M459 469.5q46 -71.5 46 -206.5q0 -84 -23 -147t-66 -97.5t-101 -34.5q-38 0 -70.5 18t-54.5 49l-7 -51h-124v741h336l-15 -100h-182v-170q23 33 57 51.5t73 18.5q85 0 131 -71.5zM338.5 127.5q22.5 40.5 22.5 135.5q0 99 -20 137t-58 38q-49 0 -85 -66v-230
q14 -26 34 -40.5t44 -14.5q40 0 62.5 40.5z" />
    <glyph glyph-name="uni0184" unicode="&#x184;" horiz-adv-x="551" 
d="M470.5 396q65.5 -55 65.5 -165q0 -117 -66.5 -174t-185.5 -57h-207v502l-66 47q52 57 89 143h121v-241h63q121 0 186.5 -55zM358.5 135q26.5 28 26.5 95q0 62 -27 90t-85 28h-52v-241h56q55 0 81.5 28z" />
    <glyph glyph-name="uni0185" unicode="&#x185;" horiz-adv-x="486" 
d="M416 317q54 -46 54 -135q0 -91 -56 -136.5t-153 -45.5h-187v349l-67 48q54 58 89 133h117v-167h32q117 0 171 -46zM309.5 115q19.5 21 19.5 69q0 47 -18 67.5t-64 20.5h-34v-178h39q38 0 57.5 21z" />
    <glyph glyph-name="uni0186" unicode="&#x186;" horiz-adv-x="520" 
d="M414 616q72 -92 72 -268q0 -118 -35 -200t-98 -123t-148 -41q-112 0 -198 86l67 80q33 -26 60.5 -39t63.5 -13q137 0 137 249q0 136 -33 194t-93 58q-35 0 -65 -12t-60 -36l-69 83q43 36 91.5 55t110.5 19q125 0 197 -92z" />
    <glyph glyph-name="uni0187" unicode="&#x187;" horiz-adv-x="520" 
d="M655 809l-42 -85q-16 10 -29.5 14.5t-30.5 4.5q-24 0 -35.5 -14t-11.5 -45v-50l-63 -75q-30 20 -58.5 30t-60.5 10q-139 0 -139 -252q0 -130 37 -190t103 -60q34 0 61 13.5t60 40.5l67 -81q-35 -38 -85.5 -62t-111.5 -24q-84 0 -147.5 40.5t-98.5 122t-35 200.5
q0 116 36 197.5t96.5 122.5t133.5 41q43 0 82 -17q0 74 39.5 115t110.5 41q69 0 122 -38z" />
    <glyph glyph-name="uni0188" unicode="&#x188;" horiz-adv-x="434" 
d="M578 719l-42 -85q-17 9 -30.5 13.5t-29.5 4.5q-24 0 -35.5 -14t-11.5 -45v-110l-55 -74q-24 15 -46.5 22t-48.5 7q-49 0 -74 -40.5t-25 -135.5q0 -92 25 -129.5t72 -37.5q24 0 44.5 8t46.5 26l61 -83q-70 -62 -159 -62q-111 0 -173.5 72t-62.5 205q0 86 28 150.5t78 99.5
t114 35q25 0 52 -8v62q0 75 39.5 115.5t110.5 40.5q67 0 122 -37z" />
    <glyph glyph-name="uni0189" unicode="&#x189;" horiz-adv-x="607" 
d="M414.5 665q70.5 -27 114 -103t43.5 -213q0 -349 -309 -349h-186v308h-62v90h62v294h172q95 0 165.5 -27zM384 158.5q39 52.5 39 190.5q0 96 -19.5 148t-52.5 70.5t-81 18.5h-49v-188h113v-90h-113v-202h50q74 0 113 52.5z" />
    <glyph glyph-name="uni018A" unicode="&#x18a;" horiz-adv-x="714" 
d="M522.5 665q70.5 -27 114 -103t43.5 -213q0 -349 -309 -349h-186v587h-24q-43 0 -43 -44q0 -32 17 -69l-90 -40q-19 30 -30 58t-11 62q0 63 43 100.5t121 37.5h189q95 0 165.5 -27zM492 158.5q39 52.5 39 190.5q0 96 -19.5 148t-52.5 70.5t-81 18.5h-49v-480h50
q74 0 113 52.5z" />
    <glyph glyph-name="uni018B" unicode="&#x18b;" horiz-adv-x="539" 
d="M477 0h-206q-120 0 -186.5 54t-66.5 167q0 107 66 164t188 57h61v139h-237v111h381v-692zM333 107v232h-49q-60 0 -87.5 -28t-27.5 -90t27.5 -88t84.5 -26h52z" />
    <glyph glyph-name="uni018C" unicode="&#x18c;" horiz-adv-x="543" 
d="M484 0h-124l-6 63q-51 -79 -135 -79q-89 0 -136 73.5t-47 202.5q0 81 24 144t68.5 97.5t102.5 34.5q68 0 114 -53v158h-189v100h328v-741zM307 102.5q20 15.5 38 46.5v234q-18 25 -36 37.5t-41 12.5q-41 0 -64.5 -41.5t-23.5 -130.5q0 -94 21 -134t60 -40q26 0 46 15.5z
" />
    <glyph glyph-name="uni018D" unicode="&#x18d;" horiz-adv-x="527" 
d="M425 8q19 -32 19 -77q0 -65 -48.5 -108.5t-142.5 -43.5q-101 0 -171 58l61 74q26 -17 49.5 -25t51.5 -8q34 0 50.5 14.5t16.5 39.5q0 19 -6.5 31.5t-26 25.5t-59.5 32q-99 46 -142 103.5t-43 156.5q0 124 61.5 194.5t168.5 70.5q108 0 168.5 -65.5t60.5 -191.5
q0 -149 -139 -219q52 -30 71 -62zM186 204.5q8 -30.5 30 -53t67 -45.5q37 33 52 75.5t15 105.5q0 84 -20.5 119.5t-65.5 35.5q-44 0 -65 -36t-21 -120q0 -51 8 -81.5z" />
    <glyph glyph-name="uni018E" unicode="&#x18e;" horiz-adv-x="475" 
d="M38 692h375v-692h-380v106h236v194h-193v104h193v183h-231v105z" />
    <glyph glyph-name="uni018F" unicode="&#x18f;" horiz-adv-x="582" 
d="M479 620.5q69 -87.5 69 -267.5q0 -186 -70 -277.5t-194 -91.5q-259 0 -259 353q0 24 4 62h373q-3 108 -36.5 154.5t-96.5 46.5q-43 0 -76.5 -15t-67.5 -42l-65 77q48 44 101 66t120 22q129 0 198 -87.5zM368 137.5q29 46.5 33 159.5h-237q0 -112 30.5 -159t87.5 -47
t86 46.5z" />
    <glyph glyph-name="uni0190" unicode="&#x190;" horiz-adv-x="486" 
d="M374.5 685.5q50.5 -22.5 94.5 -67.5l-69 -74q-60 57 -122 57q-45 0 -66 -24.5t-21 -64.5q0 -45 25.5 -69.5t72.5 -24.5h64l-16 -106h-48q-57 0 -85 -28t-28 -81t27.5 -81t78.5 -28q38 0 68 15t60 45l78 -73q-83 -97 -219 -97q-71 0 -126.5 26t-87 74t-31.5 112
q0 76 42 119.5t115 52.5q-68 16 -103 56.5t-35 102.5q0 51 27 92.5t76.5 65t114.5 23.5q63 0 113.5 -22.5z" />
    <glyph glyph-name="uni0191" unicode="&#x191;" horiz-adv-x="441" 
d="M206 587v-199h183v-105h-183v-331q0 -84 -48 -127.5t-129 -43.5q-73 0 -127 41l50 84q17 -10 30 -14.5t32 -4.5q48 0 48 57v748h370l-16 -105h-210z" />
    <glyph glyph-name="florin" unicode="&#x192;" horiz-adv-x="336" 
d="M234 637q-14 -15 -14 -49v-58h113l-15 -99h-98v-379q0 -79 -23.5 -130.5t-63.5 -82.5t-103 -58l-46 102q35 18 55 35.5t31 47t11 77.5v388h-72v99h72v57q0 76 46.5 122.5t134.5 46.5q74 0 138 -31l-38 -91q-42 18 -80 18q-34 0 -48 -15z" />
    <glyph glyph-name="uni0193" unicode="&#x193;" horiz-adv-x="553" 
d="M688 809l-42 -85q-16 10 -29.5 14.5t-30.5 4.5q-24 0 -35.5 -14t-11.5 -45v-59l-67 -70q-35 24 -66.5 35t-68.5 11q-153 0 -153 -255q0 -97 14.5 -152.5t43 -78.5t74.5 -23q48 0 88 24v174h-84l-14 104h236v-340q-48 -33 -106.5 -51.5t-118.5 -18.5q-141 0 -211.5 90
t-70.5 273q0 116 38.5 197.5t103 122.5t141.5 41q56 0 98 -20v3q0 74 39 115t111 41q69 0 122 -38z" />
    <glyph glyph-name="uni0194" unicode="&#x194;" horiz-adv-x="520" 
d="M337 85q32 -59 46 -100.5t14 -85.5q0 -118 -135 -118q-68 0 -101 31t-33 86q0 39 13.5 80t46.5 107l-195 607h149l121 -513l121 513h143zM282.5 -51q-6.5 22 -20.5 58q-13 -35 -19.5 -58t-6.5 -42q0 -32 26 -32q27 0 27 32q0 20 -6.5 42z" />
    <glyph glyph-name="uni0195" unicode="&#x195;" horiz-adv-x="789" 
d="M747 254q0 -95 -32.5 -155.5t-85 -87.5t-113.5 -27q-82 0 -134 46.5t-52 134.5v207q0 37 -11.5 53t-34.5 16q-44 0 -86 -73v-368h-139v741l139 14v-286q29 39 62 58t75 19q62 0 98 -42t36 -113v-226q0 -40 13.5 -58.5t41.5 -18.5q37 0 60.5 39t23.5 134q0 119 -24 269
h137q26 -152 26 -276z" />
    <glyph glyph-name="uni0196" unicode="&#x196;" horiz-adv-x="352" 
d="M356 26q-54 -41 -127 -41q-81 0 -129 43.5t-48 127.5v536h144v-544q0 -57 48 -57q19 0 32 4.5t30 14.5z" />
    <glyph glyph-name="uni0197" unicode="&#x197;" horiz-adv-x="298" 
d="M292 413v-107h-71v-306h-144v306h-70v107h70v279h144v-279h71z" />
    <glyph glyph-name="uni0198" unicode="&#x198;" horiz-adv-x="588" 
d="M211 369l119 219q34 65 68.5 92.5t92.5 27.5t106 -37l-39 -82q-22 15 -45 15q-19 0 -32 -10.5t-30 -41.5l-93 -172l222 -380h-163zM206 692v-692h-144v692h144z" />
    <glyph glyph-name="uni0199" unicode="&#x199;" horiz-adv-x="498" 
d="M212 636.5q-14 -15.5 -14 -50.5v-586h-139v590q0 73 47 119.5t134 46.5q71 0 130 -31l-39 -90q-37 17 -74 17q-31 0 -45 -15.5zM343 297l162 -297h-153l-149 290l151 240h139z" />
    <glyph glyph-name="uni019A" unicode="&#x19a;" horiz-adv-x="303" 
d="M294 3q-35 -19 -84 -19q-61 0 -96 36t-35 100v202h-72v99h72v320l139 15v-335h74v-99h-74v-196q0 -31 26 -31q11 0 23 4z" />
    <glyph glyph-name="uni019B" unicode="&#x19b;" horiz-adv-x="474" 
d="M414 190q30 -91 78 -160l-133 -46q-43 79 -69 166t-52 245l-93 -411l-136 31l145 481h65q-10 52 -25 84l-54 -55l-72 46l69 71q-27 14 -79 24l16 90q91 -16 142 -48l65 63l59 -62l-62 -60q43 -59 67 -176q39 -192 69 -283z" />
    <glyph glyph-name="uni019C" unicode="&#x19c;" horiz-adv-x="827" 
d="M766 692v-692h-127l-10 65q-31 -42 -64.5 -61.5t-76.5 -19.5q-47 0 -81 24.5t-52 66.5q-35 -47 -71 -69t-80 -22q-71 0 -111.5 51.5t-40.5 133.5v523h144v-517q0 -39 14 -60t40 -21q25 0 44.5 16.5t42.5 52.5v6v523h144v-517q0 -38 14 -59.5t39 -21.5q26 0 46 16.5
t41 53.5v528h145z" />
    <glyph glyph-name="uni019D" unicode="&#x19d;" horiz-adv-x="602" 
d="M540 692v-692h-183l-186 553q2 -14 2 -22q8 -70 12.5 -126.5t4.5 -131.5v-321q0 -83 -45 -127t-120 -44q-73 0 -125 41l49 79q19 -10 32 -14.5t31 -4.5q50 0 50 60v750h180l189 -554q-19 130 -19 246v308h128z" />
    <glyph glyph-name="uni019E" unicode="&#x19e;" horiz-adv-x="524" 
d="M433.5 504.5q35.5 -41.5 35.5 -113.5v-610l-139 15v576q0 37 -11.5 53t-33.5 16q-45 0 -87 -73v-368h-139v530h121l10 -67q30 41 64.5 62t80.5 21q63 0 98.5 -41.5z" />
    <glyph glyph-name="uni019F" unicode="&#x19f;" horiz-adv-x="629" 
d="M521 615.5q73 -92.5 73 -269.5q0 -175 -73 -268.5t-206 -93.5t-206.5 92.5t-73.5 269.5q0 175 73.5 268.5t206.5 93.5t206 -92.5zM220.5 551.5q-33.5 -48.5 -39.5 -157.5h267q-6 109 -39 157.5t-94 48.5t-94.5 -48.5zM411 142q33 50 37 166h-267q4 -115 38 -165.5
t96 -50.5q63 0 96 50z" />
    <glyph glyph-name="Ohorn" unicode="&#x1a0;" horiz-adv-x="657" 
d="M618 608q-24 -29 -68 -39q44 -86 44 -223q0 -175 -73 -268.5t-206 -93.5t-206.5 92.5t-73.5 269.5q0 175 73.5 268.5t206.5 93.5q119 0 190 -74q22 3 32 16t10 37q0 37 -12 71l90 15q17 -38 17 -88q0 -48 -24 -77zM412.5 150.5q31.5 58.5 31.5 195.5q0 136 -31.5 195
t-97.5 59t-98 -59t-32 -195q0 -137 32.5 -195.5t97.5 -58.5q66 0 97.5 58.5z" />
    <glyph glyph-name="ohorn" unicode="&#x1a1;" horiz-adv-x="566" 
d="M477 405q22 -61 22 -140q0 -131 -62 -206t-171 -75t-170.5 73t-61.5 208q0 133 61.5 207t171.5 74t171 -73q22 3 31 15t9 35q0 38 -12 72l90 15q18 -40 18 -88q0 -98 -97 -117zM333 130q22 42 22 135q0 94 -21.5 135.5t-66.5 41.5t-67 -42t-22 -135q0 -95 21.5 -136
t66.5 -41t67 42z" />
    <glyph glyph-name="uni01A2" unicode="&#x1a2;" horiz-adv-x="865" 
d="M755 662.5q48 -46.5 48 -130.5v-740h-145v746q0 68 -54 68q-33 0 -66 -18q56 -92 56 -242q0 -175 -73 -268.5t-206 -93.5t-206.5 92.5t-73.5 269.5q0 175 73.5 268.5t206.5 93.5q95 0 159 -49q34 25 70 37.5t80 12.5q83 0 131 -46.5zM412.5 150.5q31.5 58.5 31.5 195.5
q0 136 -31.5 195t-97.5 59t-98 -59t-32 -195q0 -137 32.5 -195.5t97.5 -58.5q66 0 97.5 58.5z" />
    <glyph glyph-name="uni01A3" unicode="&#x1a3;" horiz-adv-x="747" 
d="M642 500.5q45 -45.5 45 -131.5v-588l-139 15v584q0 63 -51 63q-17 0 -38 -6q38 -67 38 -172q0 -131 -62 -206t-170 -75t-169.5 73.5t-61.5 207.5q0 133 61.5 207t170.5 74q73 0 125 -34q30 18 59.5 26t66.5 8q80 0 125 -45.5zM330.5 129.5q21.5 41.5 21.5 135.5
q0 95 -21 136t-65 41q-45 0 -66.5 -41.5t-21.5 -135.5q0 -95 21 -136t66 -41q44 0 65.5 41.5z" />
    <glyph glyph-name="uni01A4" unicode="&#x1a4;" horiz-adv-x="662" 
d="M574 636q70 -56 70 -166q0 -116 -69 -174.5t-190 -58.5h-56v-237h-144v587h-24q-43 0 -43 -44q0 -32 17 -69l-90 -40q-19 30 -30 58t-11 62q0 63 43 100.5t121 37.5h205q131 0 201 -56zM466 372q30 29 30 97q0 61 -30 90t-92 29h-45v-245h46q61 0 91 29z" />
    <glyph glyph-name="uni01A5" unicode="&#x1a5;" horiz-adv-x="541" 
d="M460.5 473.5q44.5 -72.5 44.5 -207.5q0 -84 -23 -147.5t-66 -99t-101 -35.5q-72 0 -117 56v-244l-139 -15v809q0 73 47 119.5t134 46.5q71 0 130 -31l-39 -90q-37 17 -74 17q-31 0 -45 -15.5t-14 -50.5v-107q53 67 129 67q89 0 133.5 -72.5zM361 265q0 99 -19.5 138
t-58.5 39q-49 0 -85 -65v-240q32 -49 77 -49q86 0 86 177z" />
    <glyph glyph-name="uni01A6" unicode="&#x1a6;" horiz-adv-x="561" 
d="M271 155h-65v-155h-144v692h144v-117h51q265 0 265 -207q0 -134 -121 -186l160 -299h-159zM263 257q57 0 84 26.5t27 84.5q0 54 -28.5 78.5t-90.5 25.5h-49v-215h57z" />
    <glyph glyph-name="uni01A7" unicode="&#x1a7;" 
d="M377.5 684.5q49.5 -23.5 77 -66.5t27.5 -100q0 -77 -45 -124t-148 -83q-67 -23 -91 -50.5t-24 -72.5t26 -69t71 -24q77 0 153 64l72 -78q-43 -45 -102 -71t-133 -26q-72 0 -125.5 26.5t-82.5 74.5t-29 110q0 86 45 134t139 82q50 17 76.5 33t37.5 34.5t11 46.5
q0 37 -21.5 56t-60.5 19q-40 0 -73.5 -13.5t-66.5 -41.5l-68 76q92 87 220 87q65 0 114.5 -23.5z" />
    <glyph glyph-name="uni01A8" unicode="&#x1a8;" horiz-adv-x="427" 
d="M355 502q50 -44 50 -113q0 -62 -34.5 -98t-108.5 -59q-43 -14 -64 -26t-28.5 -25.5t-7.5 -34.5q0 -29 19 -45t51 -16q60 0 121 49l67 -73q-36 -36 -87 -56.5t-111 -20.5q-88 0 -145 45t-57 123q0 66 37 102.5t112 59.5q41 12 62 23.5t28.5 25t7.5 33.5q0 23 -15.5 36
t-45.5 13q-58 0 -117 -39l-52 76q80 64 182 64q86 0 136 -44z" />
    <glyph glyph-name="uni01A9" unicode="&#x1a9;" horiz-adv-x="453" 
d="M433 692v-107h-260l159 -212v-64l-162 -200h263v-109h-413v107l183 233l-183 246v106h413z" />
    <glyph glyph-name="uni01AA" unicode="&#x1aa;" horiz-adv-x="361" 
d="M463 -178q-52 -41 -128 -41q-78 0 -125.5 43.5t-47.5 125.5v51h1v445q-25 -11 -55 -11q-63 0 -102.5 43t-39.5 116q0 74 44.5 118t119.5 44q80 0 126 -45t46 -121v-590h-1v-59q0 -57 51 -57q18 0 31.5 4t30.5 14zM163 538v64q0 56 -37 56q-39 0 -39 -61q0 -34 11 -49
t34 -15q14 0 31 5z" />
    <glyph glyph-name="uni01AB" unicode="&#x1ab;" horiz-adv-x="347" 
d="M355 25v-75q0 -82 -46.5 -125.5t-125.5 -43.5q-75 0 -129 41l49 81q18 -10 33.5 -15t36.5 -5q60 0 60 61v41q-4 -1 -12 -1q-73 0 -111.5 44t-38.5 122v281h-68v99h68v116l139 17v-133h110l-14 -99h-96v-285q0 -29 11.5 -43t35.5 -14q25 0 57 11z" />
    <glyph glyph-name="uni01AC" unicode="&#x1ac;" horiz-adv-x="534" 
d="M518 579h-154v-579h-145v579h-57q-44 0 -44 -42q0 -16 4 -29t12 -32l-94 -42q-36 58 -36 116q0 67 45.5 104.5t124.5 37.5h359z" />
    <glyph glyph-name="uni01AD" unicode="&#x1ad;" horiz-adv-x="347" 
d="M355 25q-26 -20 -60 -30.5t-68 -10.5q-77 0 -116.5 44t-39.5 123v280h-68v99h68v61q0 75 43.5 120t121.5 45q66 0 118 -37l-41 -80q-18 10 -30.5 14t-28.5 4q-44 0 -44 -56v-71h110l-14 -99h-96v-279q0 -57 46 -57q24 0 52 17z" />
    <glyph glyph-name="uni01AE" unicode="&#x1ae;" horiz-adv-x="488" 
d="M394 -108.5q13 4.5 30 14.5l50 -84q-54 -41 -127 -41q-81 0 -129 43.5t-48 127.5v628h-162v112h476l-15 -112h-155v-636q0 -57 48 -57q19 0 32 4.5z" />
    <glyph glyph-name="Uhorn" unicode="&#x1af;" horiz-adv-x="654" 
d="M668 685q0 -58 -34.5 -88.5t-97.5 -32.5v-353q0 -65 -27.5 -116.5t-82 -81t-132.5 -29.5q-118 0 -180 62t-62 165v481h144v-475q0 -62 24 -92.5t74 -30.5q51 0 74.5 30.5t23.5 92.5v475h144v-57q37 7 37 52q0 37 -12 71l90 15q17 -38 17 -88z" />
    <glyph glyph-name="uhorn" unicode="&#x1b0;" horiz-adv-x="578" 
d="M558.5 433.5q-34.5 -30.5 -97.5 -32.5v-401h-122l-6 67q-27 -41 -62 -62t-81 -21q-64 0 -99.5 42.5t-35.5 114.5v389h139v-377q0 -34 11.5 -49.5t34.5 -15.5q46 0 82 66v376h139v-57q19 4 27.5 16t8.5 34q0 38 -12 72l90 15q18 -40 18 -88q0 -58 -34.5 -88.5z" />
    <glyph glyph-name="uni01B1" unicode="&#x1b1;" horiz-adv-x="622" 
d="M160.5 23q-63.5 39 -96.5 111t-33 169q0 104 30.5 170.5t87.5 112.5h-99v106h211v-101q-41 -51 -60 -114.5t-19 -173.5t32 -160.5t97 -50.5q64 0 96.5 50.5t32.5 160.5q0 108 -19.5 172t-58.5 116v101h210v-106h-100q57 -42 88 -109.5t31 -173.5q0 -96 -34 -168
t-97 -111.5t-149 -39.5q-87 0 -150.5 39z" />
    <glyph glyph-name="uni01B2" unicode="&#x1b2;" horiz-adv-x="588" 
d="M501 671q35 -37 35 -110v-281q0 -92 -32.5 -158.5t-91 -102t-136.5 -35.5q-69 0 -119.5 28t-77.5 76.5t-27 110.5v493h144v-494q0 -50 21.5 -77t61.5 -27q53 0 83 46t30 136v288q0 19 -6.5 28t-21.5 9q-11 0 -25 -4l-23 94q41 17 85 17q65 0 100 -37z" />
    <glyph glyph-name="uni01B3" unicode="&#x1b3;" horiz-adv-x="565" 
d="M194 260l-200 432h155l119 -316l70 198q24 72 59.5 103t95.5 31t109 -37l-40 -82q-23 16 -49 16q-20 0 -32.5 -12t-25.5 -44l-117 -288v-261h-144v260z" />
    <glyph glyph-name="uni01B4" unicode="&#x1b4;" horiz-adv-x="472" 
d="M38 -121q69 11 102.5 37.5t53.5 83.5h-50l-146 530h144l91 -439l73 362q13 68 42.5 98.5t85.5 30.5q40 0 75 -16l-25 -90q-12 5 -25 5q-15 0 -23.5 -8t-12.5 -28l-100 -436q-47 -211 -270 -229z" />
    <glyph glyph-name="uni01B5" unicode="&#x1b5;" horiz-adv-x="486" 
d="M168 116h296l-15 -116h-433v104l120 194h-74v96h133l115 185h-266v113h415v-106l-119 -192h77v-96h-136z" />
    <glyph glyph-name="uni01B6" unicode="&#x1b6;" horiz-adv-x="412" 
d="M159 103h237l-12 -103h-371v95l90 129h-62v88h124l81 116h-214v102h360v-95l-86 -123h62v-88h-124z" />
    <glyph glyph-name="uni01B7" unicode="&#x1b7;" horiz-adv-x="487" 
d="M414 346.5q51 -50.5 51 -143.5q0 -63 -29.5 -112.5t-85 -78t-131.5 -28.5q-73 0 -125.5 25t-90.5 74l77 70q31 -32 60.5 -46t68.5 -14q51 0 79 30t28 85q0 57 -29 81.5t-87 24.5h-86v84l167 187h-243v107h396v-104l-170 -187q99 -4 150 -54.5z" />
    <glyph glyph-name="uni01B8" unicode="&#x1b8;" horiz-adv-x="487" 
d="M484 83q-39 -49 -92 -74t-127 -25q-75 0 -129.5 27.5t-83.5 76.5t-29 112q0 91 51.5 143.5t148.5 57.5l-169 187v104h395v-107h-242l167 -187v-84h-86q-59 0 -88 -27t-29 -84q0 -53 27 -81.5t75 -28.5q41 0 71.5 14t63.5 46z" />
    <glyph glyph-name="uni01B9" unicode="&#x1b9;" horiz-adv-x="456" 
d="M468 -120q-38 -48 -90 -73.5t-123 -25.5q-73 0 -127 28.5t-83 79t-29 115.5q0 95 52 148t148 59l-171 222v97h387v-105h-237l162 -216v-84h-80q-60 0 -88.5 -28t-28.5 -89q0 -59 27 -89.5t77 -30.5q37 0 66.5 14t63.5 47z" />
    <glyph glyph-name="uni01BA" unicode="&#x1ba;" horiz-adv-x="456" 
d="M62.5 -158q-37.5 37 -37.5 86q0 52 37 83t115 45q65 13 90.5 30t25.5 53q0 28 -17.5 41t-55.5 13h-120v80l151 156h-231v101h386v-93l-162 -159h26q78 0 122 -37.5t44 -105.5q0 -75 -48 -114t-131 -55q-63 -13 -83 -23.5t-20 -29.5q0 -28 47 -54l-34 -79
q-67 25 -104.5 62z" />
    <glyph glyph-name="uni01BB" unicode="&#x1bb;" horiz-adv-x="464" 
d="M431 108l-15 -108h-393v101q74 82 124 142h-91v96h165q30 45 42 79t12 71q0 43 -21 66.5t-58 23.5q-32 0 -57 -16t-55 -52l-82 64q80 112 207 112q65 0 112.5 -25t72 -67.5t24.5 -94.5q0 -42 -11 -80t-38 -81h58v-96h-130q-45 -55 -122 -135h256z" />
    <glyph glyph-name="uni01BC" unicode="&#x1bc;" horiz-adv-x="489" 
d="M414 591h-228v-167q46 25 96 25q78 0 127 -58.5t49 -164.5q0 -72 -29.5 -127t-84 -85t-127.5 -30q-65 0 -114.5 25.5t-89.5 72.5l78 70q54 -62 121 -62q50 0 77 34t27 102q0 69 -23 97.5t-65 28.5q-21 0 -39 -5.5t-40 -18.5h-95v364h376z" />
    <glyph glyph-name="uni01BD" unicode="&#x1bd;" horiz-adv-x="431" 
d="M356 427h-179v-96q34 16 77 16q41 0 75.5 -20t55 -59t20.5 -94q0 -87 -57.5 -138.5t-150.5 -51.5q-59 0 -101 20t-79 58l72 75q30 -26 52 -36t51 -10q35 0 54.5 21t19.5 63q0 40 -16 58t-43 18q-16 0 -30 -4t-32 -13h-90v296h320z" />
    <glyph glyph-name="uni01BE" unicode="&#x1be;" horiz-adv-x="464" 
d="M394 358.5q37 -49.5 37 -139.5q0 -109 -61.5 -171.5t-163.5 -62.5q-60 0 -109 22t-92 68l69 69q30 -28 57 -41.5t60 -13.5q46 0 71 33t25 98q0 68 -26 104t-83 52l-51 13v145h-63v86h63v121l139 14v-135h88v-86h-88v-97l26 -7q65 -22 102 -71.5z" />
    <glyph glyph-name="uni01BF" unicode="&#x1bf;" horiz-adv-x="538" 
d="M425 523q37 -23 58.5 -67t21.5 -103q0 -84 -31 -144t-83 -102t-134 -87l-59 -33v-191l-139 -15v749h123l7 -62q65 78 152 78q47 0 84 -23zM329.5 217.5q31.5 55.5 31.5 132.5q0 94 -65 94q-28 0 -51 -14t-47 -41v-300l36 27q64 46 95.5 101.5z" />
    <glyph glyph-name="uni01C0" unicode="&#x1c0;" horiz-adv-x="245" 
d="M183 754v-754h-121v741z" />
    <glyph glyph-name="uni01C1" unicode="&#x1c1;" horiz-adv-x="429" 
d="M183 754v-754h-121v741zM368 754v-754h-121v741z" />
    <glyph glyph-name="uni01C2" unicode="&#x1c2;" horiz-adv-x="298" 
d="M292 400h-82v-68h82v-83h-82v-249h-121v249h-82v83h82v68h-82v83h82v258l121 13v-271h82v-83z" />
    <glyph glyph-name="uni01C3" unicode="&#x1c3;" horiz-adv-x="289" 
d="M205 754v-526h-120v513zM203.5 127.5q23.5 -24.5 23.5 -59.5t-23.5 -59.5t-59.5 -24.5q-35 0 -58.5 25t-23.5 59t23.5 59t58.5 25q36 0 59.5 -24.5z" />
    <glyph glyph-name="uni01C4" unicode="&#x1c4;" horiz-adv-x="1053" 
d="M399.5 665q70.5 -27 114 -103t43.5 -213q0 -349 -309 -349h-186v692h172q95 0 165.5 -27zM206 586v-480h50q74 0 113 52.5t39 190.5q0 96 -19.5 148t-52.5 70.5t-81 18.5h-49zM1026 692v-110l-281 -466h286l-15 -116h-433v109l284 470h-256v113h415zM935 932l50 -55
l-127 -126h-85l-127 126l50 55l119 -83z" />
    <glyph glyph-name="uni01C5" unicode="&#x1c5;" horiz-adv-x="995" 
d="M399.5 665q70.5 -27 114 -103t43.5 -213q0 -349 -309 -349h-186v692h172q95 0 165.5 -27zM206 586v-480h50q74 0 113 52.5t39 190.5q0 96 -19.5 148t-52.5 70.5t-81 18.5h-49zM974 530v-99l-224 -323h228l-12 -108h-371v100l224 323h-205v107h360zM912 804l50 -56
l-127 -132h-85l-127 132l50 56l119 -91z" />
    <glyph glyph-name="uni01C6" unicode="&#x1c6;" horiz-adv-x="956" 
d="M484 741v-741h-124l-6 63q-51 -79 -135 -79q-89 0 -136 74t-47 207q0 84 24.5 147.5t68.5 98.5t101 35q69 0 115 -53v263zM306.5 102.5q20.5 15.5 38.5 46.5v244q-18 25 -36 37.5t-42 12.5q-41 0 -64 -42.5t-23 -135.5q0 -97 21 -137.5t59 -40.5q26 0 46.5 15.5zM935 530
v-99l-224 -323h228l-12 -108h-371v100l224 323h-205v107h360zM873 804l50 -56l-127 -132h-85l-127 132l50 56l119 -91z" />
    <glyph glyph-name="uni01C7" unicode="&#x1c7;" horiz-adv-x="724" 
d="M206 692v-576h244l-15 -116h-373v692h144zM665 103q0 -114 -52.5 -171.5t-145.5 -91.5l-39 102q40 18 60 39t26.5 50t6.5 77v584h144v-589z" />
    <glyph glyph-name="uni01C8" unicode="&#x1c8;" horiz-adv-x="702" 
d="M206 692v-576h244l-15 -116h-373v692h144zM643 41q0 -74 -23.5 -123t-64 -80t-102.5 -57l-46 101q35 18 55 35.5t31 45.5t11 73v494h139v-489zM633.5 778q23.5 -23 23.5 -58t-23.5 -58.5t-59.5 -23.5t-59.5 23.5t-23.5 58.5t23.5 58t59.5 23t59.5 -23z" />
    <glyph glyph-name="uni01C9" unicode="&#x1c9;" horiz-adv-x="528" 
d="M89 20q-35 36 -35 100v621l139 15v-630q0 -31 26 -31q11 0 23 4l27 -96q-35 -19 -84 -19q-61 0 -96 36zM469 41q0 -74 -23.5 -123t-64 -80t-102.5 -57l-46 101q35 18 55 35.5t31 45.5t11 73v494h139v-489zM459.5 778q23.5 -23 23.5 -58t-23.5 -58.5t-59.5 -23.5
t-59.5 23.5t-23.5 58.5t23.5 58t59.5 23t59.5 -23z" />
    <glyph glyph-name="uni01CA" unicode="&#x1ca;" horiz-adv-x="888" 
d="M540 0h-183l-186 553q2 -14 2 -22q8 -70 12.5 -126.5t4.5 -131.5v-273h-128v692h180l189 -554q-19 130 -19 246v308h128v-692zM829 103q0 -114 -52.5 -171.5t-145.5 -91.5l-39 102q40 18 60 39t26.5 50t6.5 77v584h144v-589z" />
    <glyph glyph-name="uni01CB" unicode="&#x1cb;" horiz-adv-x="859" 
d="M540 0h-183l-186 553q2 -14 2 -22q8 -70 12.5 -126.5t4.5 -131.5v-273h-128v692h180l189 -554q-19 130 -19 246v308h128v-692zM800 41q0 -74 -23.5 -123t-64 -80t-102.5 -57l-46 101q35 18 55 35.5t31 45.5t11 73v494h139v-489zM790.5 778q23.5 -23 23.5 -58t-23.5 -58.5
t-59.5 -23.5t-59.5 23.5t-23.5 58.5t23.5 58t59.5 23t59.5 -23z" />
    <glyph glyph-name="uni01CC" unicode="&#x1cc;" horiz-adv-x="781" 
d="M433.5 504.5q35.5 -41.5 35.5 -113.5v-391h-139v372q0 37 -11.5 53t-33.5 16q-45 0 -87 -73v-368h-139v530h121l10 -67q30 41 64.5 62t80.5 21q63 0 98.5 -41.5zM722 41q0 -74 -23.5 -123t-64 -80t-102.5 -57l-46 101q35 18 55 35.5t31 45.5t11 73v494h139v-489z
M712.5 778q23.5 -23 23.5 -58t-23.5 -58.5t-59.5 -23.5t-59.5 23.5t-23.5 58.5t23.5 58t59.5 23t59.5 -23z" />
    <glyph glyph-name="uni01CD" unicode="&#x1cd;" horiz-adv-x="539" 
d="M397 0l-34 156h-190l-34 -156h-146l190 692h174l189 -692h-149zM197 262h142l-71 323zM390 932l50 -55l-127 -126h-85l-127 126l50 55l119 -83z" />
    <glyph glyph-name="uni01CE" unicode="&#x1ce;" horiz-adv-x="496" 
d="M442.5 99q7.5 -13 25.5 -21l-29 -92q-44 5 -71.5 22t-42.5 53q-49 -77 -143 -77q-71 0 -113.5 45.5t-42.5 118.5q0 86 58 132t167 46h47v30q0 49 -18.5 68.5t-61.5 19.5q-52 0 -127 -28l-31 91q44 19 91.5 29t89.5 10q99 0 146.5 -46t47.5 -137v-223q0 -28 7.5 -41z
M298 142v105h-33q-51 0 -76 -21.5t-25 -65.5q0 -37 15 -56.5t43 -19.5q49 0 76 58zM364 804l50 -56l-127 -132h-85l-127 132l50 56l119 -91z" />
    <glyph glyph-name="uni01CF" unicode="&#x1cf;" horiz-adv-x="268" 
d="M206 692v-692h-144v692h144zM254 932l50 -55l-127 -126h-85l-127 126l50 55l119 -83z" />
    <glyph glyph-name="uni01D0" unicode="&#x1d0;" horiz-adv-x="258" 
d="M198 530v-530h-139v530h139zM249 804l50 -56l-127 -132h-85l-127 132l50 56l119 -91z" />
    <glyph glyph-name="uni01D1" unicode="&#x1d1;" horiz-adv-x="629" 
d="M521 615.5q73 -92.5 73 -269.5q0 -175 -73 -268.5t-206 -93.5t-206.5 92.5t-73.5 269.5q0 175 73.5 268.5t206.5 93.5t206 -92.5zM217 541q-32 -59 -32 -195q0 -137 32.5 -195.5t97.5 -58.5q66 0 97.5 58.5t31.5 195.5q0 136 -31.5 195t-97.5 59t-98 -59zM435 932l50 -55
l-127 -126h-85l-127 126l50 55l119 -83z" />
    <glyph glyph-name="uni01D2" unicode="&#x1d2;" horiz-adv-x="533" 
d="M437.5 473.5q61.5 -72.5 61.5 -208.5q0 -131 -62 -206t-171 -75t-170.5 73t-61.5 208q0 133 61.5 207t171.5 74q109 0 170.5 -72.5zM200 400q-22 -42 -22 -135q0 -95 21.5 -136t66.5 -41t67 42t22 135q0 94 -21.5 135.5t-66.5 41.5t-67 -42zM386 804l50 -56l-127 -132
h-85l-127 132l50 56l119 -91z" />
    <glyph glyph-name="uni01D3" unicode="&#x1d3;" horiz-adv-x="588" 
d="M536 211q0 -65 -27.5 -116.5t-82 -81t-132.5 -29.5q-118 0 -180 62t-62 165v481h144v-475q0 -62 24 -92.5t74 -30.5q51 0 74.5 30.5t23.5 92.5v475h144v-481zM414 932l50 -55l-127 -126h-85l-127 126l50 55l119 -83z" />
    <glyph glyph-name="uni01D4" unicode="&#x1d4;" horiz-adv-x="520" 
d="M461 0h-122l-6 67q-27 -41 -62 -62t-81 -21q-64 0 -99.5 42.5t-35.5 114.5v389h139v-377q0 -34 11.5 -49.5t34.5 -15.5q46 0 82 66v376h139v-530zM378 804l50 -56l-127 -132h-85l-127 132l50 56l119 -91z" />
    <glyph glyph-name="uni01D5" unicode="&#x1d5;" horiz-adv-x="588" 
d="M536 211q0 -65 -27.5 -116.5t-82 -81t-132.5 -29.5q-118 0 -180 62t-62 165v481h144v-475q0 -62 24 -92.5t74 -30.5q51 0 74.5 30.5t23.5 92.5v475h144v-481zM242.5 870q20.5 -21 20.5 -51q0 -31 -20.5 -52t-51.5 -21t-51.5 21t-20.5 52q0 30 20.5 51t51.5 21t51.5 -21z
M449.5 870q20.5 -21 20.5 -51q0 -31 -20.5 -52t-51.5 -21q-30 0 -51 21t-21 52q0 30 21 51t51 21q31 0 51.5 -21zM432 932h-273v97h273v-97z" />
    <glyph glyph-name="uni01D6" unicode="&#x1d6;" horiz-adv-x="520" 
d="M461 0h-122l-6 67q-27 -41 -62 -62t-81 -21q-64 0 -99.5 42.5t-35.5 114.5v389h139v-377q0 -34 11.5 -49.5t34.5 -15.5q46 0 82 66v376h139v-530zM205.5 732q20.5 -21 20.5 -51q0 -31 -20.5 -52t-51.5 -21t-51.5 21t-20.5 52q0 30 20.5 51t51.5 21t51.5 -21zM412.5 732
q20.5 -21 20.5 -51q0 -31 -20.5 -52t-51.5 -21q-30 0 -51 21t-21 52q0 30 21 51t51 21q31 0 51.5 -21zM395 800h-273v97h273v-97z" />
    <glyph glyph-name="uni01D7" unicode="&#x1d7;" horiz-adv-x="588" 
d="M536 211q0 -65 -27.5 -116.5t-82 -81t-132.5 -29.5q-118 0 -180 62t-62 165v481h144v-475q0 -62 24 -92.5t74 -30.5q51 0 74.5 30.5t23.5 92.5v475h144v-481zM363 1073l80 -72l-145 -139l-54 46zM236.5 871q20.5 -21 20.5 -51q0 -31 -20.5 -52t-51.5 -21t-51.5 21
t-20.5 52q0 30 20.5 51t51.5 21t51.5 -21zM453.5 871q20.5 -21 20.5 -51q0 -31 -20.5 -52t-51.5 -21t-51.5 21t-20.5 52q0 30 20.5 51t51.5 21t51.5 -21z" />
    <glyph glyph-name="uni01D8" unicode="&#x1d8;" horiz-adv-x="520" 
d="M461 0h-122l-6 67q-27 -41 -62 -62t-81 -21q-64 0 -99.5 42.5t-35.5 114.5v389h139v-377q0 -34 11.5 -49.5t34.5 -15.5q46 0 82 66v376h139v-530zM327 933l80 -72l-145 -139l-54 46zM200.5 731q20.5 -21 20.5 -51q0 -31 -20.5 -51.5t-51.5 -20.5t-51.5 20.5t-20.5 51.5
q0 30 20.5 51t51.5 21t51.5 -21zM417.5 731q20.5 -21 20.5 -51q0 -31 -20.5 -51.5t-51.5 -20.5t-51.5 20.5t-20.5 51.5q0 30 20.5 51t51.5 21t51.5 -21z" />
    <glyph glyph-name="uni01D9" unicode="&#x1d9;" horiz-adv-x="588" 
d="M536 211q0 -65 -27.5 -116.5t-82 -81t-132.5 -29.5q-118 0 -180 62t-62 165v481h144v-475q0 -62 24 -92.5t74 -30.5q51 0 74.5 30.5t23.5 92.5v475h144v-481zM413 1074l50 -55l-127 -126h-85l-127 126l50 55l119 -83zM236.5 871q20.5 -21 20.5 -51q0 -31 -20.5 -52
t-51.5 -21t-51.5 21t-20.5 52q0 30 20.5 51t51.5 21t51.5 -21zM453.5 871q20.5 -21 20.5 -51q0 -31 -20.5 -52t-51.5 -21t-51.5 21t-20.5 52q0 30 20.5 51t51.5 21t51.5 -21z" />
    <glyph glyph-name="uni01DA" unicode="&#x1da;" horiz-adv-x="520" 
d="M461 0h-122l-6 67q-27 -41 -62 -62t-81 -21q-64 0 -99.5 42.5t-35.5 114.5v389h139v-377q0 -34 11.5 -49.5t34.5 -15.5q46 0 82 66v376h139v-530zM378 935l50 -55l-127 -126h-85l-127 126l50 55l119 -83zM201.5 731q20.5 -21 20.5 -51q0 -31 -20.5 -51.5t-51.5 -20.5
t-51.5 20.5t-20.5 51.5q0 30 20.5 51t51.5 21t51.5 -21zM418.5 731q20.5 -21 20.5 -51q0 -31 -20.5 -51.5t-51.5 -20.5t-51.5 20.5t-20.5 51.5q0 30 20.5 51t51.5 21t51.5 -21z" />
    <glyph glyph-name="uni01DB" unicode="&#x1db;" horiz-adv-x="588" 
d="M536 211q0 -65 -27.5 -116.5t-82 -81t-132.5 -29.5q-118 0 -180 62t-62 165v481h144v-475q0 -62 24 -92.5t74 -30.5q51 0 74.5 30.5t23.5 92.5v475h144v-481zM231 1073l120 -165l-55 -46l-145 139zM236.5 871q20.5 -21 20.5 -51q0 -31 -20.5 -52t-51.5 -21t-51.5 21
t-20.5 52q0 30 20.5 51t51.5 21t51.5 -21zM453.5 871q20.5 -21 20.5 -51q0 -31 -20.5 -52t-51.5 -21q-30 0 -51 21t-21 52q0 30 21 51t51 21q31 0 51.5 -21z" />
    <glyph glyph-name="uni01DC" unicode="&#x1dc;" horiz-adv-x="520" 
d="M461 0h-122l-6 67q-27 -41 -62 -62t-81 -21q-64 0 -99.5 42.5t-35.5 114.5v389h139v-377q0 -34 11.5 -49.5t34.5 -15.5q46 0 82 66v376h139v-530zM192 933l120 -165l-55 -46l-145 139zM200.5 731q20.5 -21 20.5 -51q0 -31 -20.5 -51.5t-51.5 -20.5t-51.5 20.5t-20.5 51.5
q0 30 20.5 51t51.5 21t51.5 -21zM417.5 731q20.5 -21 20.5 -51q0 -31 -20.5 -51.5t-51.5 -20.5q-30 0 -51 20.5t-21 51.5q0 30 21 51t51 21q31 0 51.5 -21z" />
    <glyph glyph-name="uni01DD" unicode="&#x1dd;" horiz-adv-x="507" 
d="M416.5 473q56.5 -73 56.5 -207q0 -131 -59 -206.5t-166 -75.5q-101 0 -160 69t-59 200q0 32 3 54h307q-4 74 -28 105.5t-71 31.5q-33 0 -62 -10t-60 -33l-57 78q78 67 184 67q115 0 171.5 -73zM313.5 114.5q21.5 29.5 25.5 105.5h-180v-7q1 -128 90 -128q43 0 64.5 29.5z
" />
    <glyph glyph-name="uni01DE" unicode="&#x1de;" horiz-adv-x="539" 
d="M397 0l-34 156h-190l-34 -156h-146l190 692h174l189 -692h-149zM197 262h142l-71 323zM218.5 870q20.5 -21 20.5 -51q0 -31 -20.5 -52t-51.5 -21t-51.5 21t-20.5 52q0 30 20.5 51t51.5 21t51.5 -21zM425.5 870q20.5 -21 20.5 -51q0 -31 -20.5 -52t-51.5 -21q-30 0 -51 21
t-21 52q0 30 21 51t51 21q31 0 51.5 -21zM408 932h-273v97h273v-97z" />
    <glyph glyph-name="uni01DF" unicode="&#x1df;" horiz-adv-x="496" 
d="M442.5 99q7.5 -13 25.5 -21l-29 -92q-44 5 -71.5 22t-42.5 53q-49 -77 -143 -77q-71 0 -113.5 45.5t-42.5 118.5q0 86 58 132t167 46h47v30q0 49 -18.5 68.5t-61.5 19.5q-52 0 -127 -28l-31 91q44 19 91.5 29t89.5 10q99 0 146.5 -46t47.5 -137v-223q0 -28 7.5 -41z
M298 142v105h-33q-51 0 -76 -21.5t-25 -65.5q0 -37 15 -56.5t43 -19.5q49 0 76 58zM191.5 732q20.5 -21 20.5 -51q0 -31 -20.5 -52t-51.5 -21t-51.5 21t-20.5 52q0 30 20.5 51t51.5 21t51.5 -21zM398.5 732q20.5 -21 20.5 -51q0 -31 -20.5 -52t-51.5 -21q-30 0 -51 21
t-21 52q0 30 21 51t51 21q31 0 51.5 -21zM381 800h-273v97h273v-97z" />
    <glyph glyph-name="uni01E0" unicode="&#x1e0;" horiz-adv-x="539" 
d="M397 0l-34 156h-190l-34 -156h-146l190 692h174l189 -692h-149zM197 262h142l-71 323zM328.5 877q23.5 -23 23.5 -58t-23.5 -58.5t-59.5 -23.5t-59.5 23.5t-23.5 58.5t23.5 58t59.5 23t59.5 -23zM407 933h-273v97h273v-97z" />
    <glyph glyph-name="uni01E1" unicode="&#x1e1;" horiz-adv-x="496" 
d="M442.5 99q7.5 -13 25.5 -21l-29 -92q-44 5 -71.5 22t-42.5 53q-49 -77 -143 -77q-71 0 -113.5 45.5t-42.5 118.5q0 86 58 132t167 46h47v30q0 49 -18.5 68.5t-61.5 19.5q-52 0 -127 -28l-31 91q44 19 91.5 29t89.5 10q99 0 146.5 -46t47.5 -137v-223q0 -28 7.5 -41z
M298 142v105h-33q-51 0 -76 -21.5t-25 -65.5q0 -37 15 -56.5t43 -19.5q49 0 76 58zM303.5 737q23.5 -23 23.5 -58t-23.5 -58.5t-59.5 -23.5t-59.5 23.5t-23.5 58.5t23.5 58t59.5 23t59.5 -23zM381 796h-273v97h273v-97z" />
    <glyph glyph-name="uni01E2" unicode="&#x1e2;" horiz-adv-x="759" 
d="M522 106h208v-106h-329l-24 156h-197l-47 -156h-152l245 692h470l-15 -105h-245l33 -185h219v-104h-200zM212 262h148l-50 323zM571 785h-273v97h273v-97z" />
    <glyph glyph-name="uni01E3" unicode="&#x1e3;" horiz-adv-x="774" 
d="M742 223h-296q6 -74 33.5 -104.5t75.5 -30.5q29 0 56 11t59 34l57 -77q-81 -72 -184 -72q-62 0 -109.5 23.5t-78.5 67.5q-61 -91 -167 -91q-74 0 -118 45.5t-44 118.5q0 85 59.5 130.5t171.5 45.5h47v29q0 50 -18.5 70t-63.5 20q-50 0 -126 -28l-31 92q94 39 179 39
q54 0 89 -18t56 -52q57 70 149 70q95 0 151 -70.5t56 -198.5q0 -31 -3 -54zM610 317q0 133 -80 133q-39 0 -60 -32t-25 -108h165v7zM318 156q-10 39 -12 85v2h-35q-101 0 -101 -85q0 -74 58 -74q52 0 90 72zM523 659h-273v97h273v-97z" />
    <glyph glyph-name="uni01E4" unicode="&#x1e4;" horiz-adv-x="601" 
d="M603 175h-61v-121q-49 -33 -107 -51.5t-119 -18.5q-140 0 -210.5 91t-70.5 272q0 115 39 196.5t106 123t151 41.5q65 0 115 -21.5t93 -61.5l-74 -77q-33 28 -61.5 40.5t-65.5 12.5q-71 0 -112.5 -61.5t-41.5 -193.5q0 -139 32 -196.5t101 -57.5q50 0 97 25v58h-96v86h96
v51h-96l-12 93h236v-144h61v-86z" />
    <glyph glyph-name="uni01E5" unicode="&#x1e5;" horiz-adv-x="492" 
d="M529 -89h-52q-15 -61 -77.5 -95.5t-165.5 -34.5q-128 0 -178 42.5t-50 125.5h124q0 -29 9 -45t32 -24t67 -8q50 0 77.5 9.5t38.5 29.5h-110v68h109q-20 33 -88 33h-56q-78 0 -115 26t-37 69q0 28 15.5 52.5t42.5 43.5q-46 26 -66.5 62t-20.5 89q0 88 58 140t154 51
q72 -1 119 14.5t100 46.5l35 -105q-46 -19 -137 -19q46 -21 68 -54t22 -83q0 -79 -54 -128t-147 -49q-29 0 -55 6q-8 -5 -13 -15t-5 -21q0 -17 11.5 -26t43.5 -9h67q76 0 125 -34t60 -90h49v-68zM185 428.5q-19 -24.5 -19 -72.5t19.5 -73.5t54.5 -25.5q37 0 55.5 24t18.5 77
q0 49 -18.5 72t-55.5 23q-36 0 -55 -24.5z" />
    <glyph glyph-name="Gcaron" unicode="&#x1e6;" horiz-adv-x="586" 
d="M445.5 686.5q50.5 -21.5 93.5 -61.5l-73 -75q-34 27 -63 39t-66 12q-153 0 -153 -255q0 -97 14.5 -152.5t43 -78.5t74.5 -23q48 0 88 24v174h-84l-14 104h236v-340q-49 -33 -107 -51.5t-117 -18.5q-142 0 -212.5 90t-70.5 273q0 117 39 198.5t106.5 122t151.5 40.5
q63 0 113.5 -21.5zM440 932l50 -55l-127 -126h-85l-127 126l50 55l119 -83z" />
    <glyph glyph-name="gcaron" unicode="&#x1e7;" horiz-adv-x="492" 
d="M494 501q-46 -19 -137 -19q46 -21 68 -54t22 -83q0 -79 -54 -128t-147 -49q-29 0 -55 6q-8 -5 -13 -15t-5 -21q0 -17 11.5 -26.5t43.5 -9.5h67q85 0 136 -42t51 -108q0 -79 -64.5 -125t-183.5 -46q-128 0 -178 42.5t-50 125.5h124q0 -40 21.5 -57t83.5 -17q59 0 83 17.5
t24 49.5q0 61 -77 61h-56q-78 0 -115 28t-37 74q0 29 15.5 54.5t42.5 43.5q-46 26 -66.5 62t-20.5 89q0 88 58 140t154 51q72 -1 119 14.5t100 46.5zM185 428.5q-19 -24.5 -19 -72.5t19.5 -73.5t54.5 -25.5q37 0 55.5 24t18.5 77q0 49 -18.5 72t-55.5 23q-36 0 -55 -24.5z
M367 804l50 -56l-127 -132h-85l-127 132l50 56l119 -91z" />
    <glyph glyph-name="uni01E8" unicode="&#x1e8;" horiz-adv-x="570" 
d="M206 692v-692h-144v692h144zM563 692l-203 -312l220 -380h-163l-206 369l204 323h148zM418 932l50 -55l-127 -126h-85l-127 126l50 55l119 -83z" />
    <glyph glyph-name="uni01E9" unicode="&#x1e9;" horiz-adv-x="498" 
d="M198 756v-756h-139v741zM493 530l-150 -233l162 -297h-153l-149 290l151 240h139zM389 981l50 -55l-127 -126h-85l-127 126l50 55l119 -83z" />
    <glyph glyph-name="uni01EA" unicode="&#x1ea;" horiz-adv-x="629" 
d="M327 -54q-21 -25 -21 -52q0 -47 49 -47q20 0 54 8l-10 -89q-33 -7 -62 -7q-59 0 -95.5 30t-36.5 81q0 69 64 117q-112 15 -173 106.5t-61 252.5q0 175 73.5 268.5t206.5 93.5t206 -92.5t73 -269.5q0 -142 -49 -231t-140 -118q-57 -26 -78 -51zM217.5 150.5
q32.5 -58.5 97.5 -58.5q66 0 97.5 58.5t31.5 195.5q0 136 -31.5 195t-97.5 59t-98 -59t-32 -195q0 -137 32.5 -195.5z" />
    <glyph glyph-name="uni01EB" unicode="&#x1eb;" horiz-adv-x="533" 
d="M267.5 -54.5q-20.5 -24.5 -20.5 -51.5q0 -47 49 -47q20 0 54 8l-10 -89q-33 -7 -62 -7q-59 0 -95.5 30t-36.5 81q0 71 67 119q-85 17 -132 88t-47 188q0 133 61.5 207t171.5 74q109 0 170.5 -72.5t61.5 -208.5q0 -105 -40.5 -175t-115.5 -94q-55 -26 -75.5 -50.5z
M200 400q-22 -42 -22 -135q0 -95 21.5 -136t66.5 -41t67 42t22 135q0 94 -21.5 135.5t-66.5 41.5t-67 -42z" />
    <glyph glyph-name="uni01EC" unicode="&#x1ec;" horiz-adv-x="629" 
d="M451 882v-97h-273v97h273zM327 -54q-21 -25 -21 -52q0 -47 49 -47q20 0 54 8l-10 -89q-33 -7 -62 -7q-59 0 -95.5 30t-36.5 81q0 69 64 117q-112 15 -173 106.5t-61 252.5q0 175 73.5 268.5t206.5 93.5t206 -92.5t73 -269.5q0 -142 -49 -231t-140 -118q-57 -26 -78 -51z
M217.5 150.5q32.5 -58.5 97.5 -58.5q66 0 97.5 58.5t31.5 195.5q0 136 -31.5 195t-97.5 59t-98 -59t-32 -195q0 -137 32.5 -195.5z" />
    <glyph glyph-name="uni01ED" unicode="&#x1ed;" horiz-adv-x="533" 
d="M402 756v-97h-273v97h273zM267.5 -54.5q-20.5 -24.5 -20.5 -51.5q0 -47 49 -47q20 0 54 8l-10 -89q-33 -7 -62 -7q-59 0 -95.5 30t-36.5 81q0 71 67 119q-85 17 -132 88t-47 188q0 133 61.5 207t171.5 74q109 0 170.5 -72.5t61.5 -208.5q0 -105 -40.5 -175t-115.5 -94
q-55 -26 -75.5 -50.5zM200 400q-22 -42 -22 -135q0 -95 21.5 -136t66.5 -41t67 42t22 135q0 94 -21.5 135.5t-66.5 41.5t-67 -42z" />
    <glyph glyph-name="uni01EE" unicode="&#x1ee;" horiz-adv-x="487" 
d="M414 346.5q51 -50.5 51 -143.5q0 -63 -29.5 -112.5t-85 -78t-131.5 -28.5q-73 0 -125.5 25t-90.5 74l77 70q31 -32 60.5 -46t68.5 -14q51 0 79 30t28 85q0 57 -29 81.5t-87 24.5h-86v84l167 187h-243v107h396v-104l-170 -187q99 -4 150 -54.5zM356 932l50 -55l-127 -126
h-85l-127 126l50 55l119 -83z" />
    <glyph glyph-name="uni01EF" unicode="&#x1ef;" horiz-adv-x="456" 
d="M389 154.5q51 -50.5 51 -145.5q0 -67 -29 -118.5t-83 -80.5t-128 -29q-135 0 -212 99l75 70q33 -33 62.5 -47.5t66.5 -14.5q50 0 77 32t27 95q0 59 -28.5 84.5t-88.5 25.5h-80v85l161 215h-236v105h387v-97l-171 -222q98 -6 149 -56.5zM338 804l50 -56l-127 -132h-85
l-127 132l50 56l119 -91z" />
    <glyph glyph-name="uni01F0" unicode="&#x1f0;" horiz-adv-x="257" 
d="M198 41q0 -74 -23.5 -123t-64 -80t-102.5 -57l-46 101q35 18 55 35.5t31 45.5t11 73v494h139v-489zM249 804l50 -56l-127 -132h-85l-127 132l50 56l119 -91z" />
    <glyph glyph-name="uni01F1" unicode="&#x1f1;" horiz-adv-x="1053" 
d="M399.5 665q70.5 -27 114 -103t43.5 -213q0 -349 -309 -349h-186v692h172q95 0 165.5 -27zM206 586v-480h50q74 0 113 52.5t39 190.5q0 96 -19.5 148t-52.5 70.5t-81 18.5h-49zM1026 692v-110l-281 -466h286l-15 -116h-433v109l284 470h-256v113h415z" />
    <glyph glyph-name="uni01F2" unicode="&#x1f2;" horiz-adv-x="995" 
d="M399.5 665q70.5 -27 114 -103t43.5 -213q0 -349 -309 -349h-186v692h172q95 0 165.5 -27zM206 586v-480h50q74 0 113 52.5t39 190.5q0 96 -19.5 148t-52.5 70.5t-81 18.5h-49zM974 530v-99l-224 -323h228l-12 -108h-371v100l224 323h-205v107h360z" />
    <glyph glyph-name="uni01F3" unicode="&#x1f3;" horiz-adv-x="956" 
d="M484 741v-741h-124l-6 63q-51 -79 -135 -79q-89 0 -136 74t-47 207q0 84 24.5 147.5t68.5 98.5t101 35q69 0 115 -53v263zM306.5 102.5q20.5 15.5 38.5 46.5v244q-18 25 -36 37.5t-42 12.5q-41 0 -64 -42.5t-23 -135.5q0 -97 21 -137.5t59 -40.5q26 0 46.5 15.5zM935 530
v-99l-224 -323h228l-12 -108h-371v100l224 323h-205v107h360z" />
    <glyph glyph-name="uni01F4" unicode="&#x1f4;" horiz-adv-x="586" 
d="M445.5 686.5q50.5 -21.5 93.5 -61.5l-73 -75q-34 27 -63 39t-66 12q-153 0 -153 -255q0 -97 14.5 -152.5t43 -78.5t74.5 -23q48 0 88 24v174h-84l-14 104h236v-340q-49 -33 -107 -51.5t-117 -18.5q-142 0 -212.5 90t-70.5 273q0 117 39 198.5t106.5 122t151.5 40.5
q63 0 113.5 -21.5zM391 941l53 -105l-213 -84l-36 70z" />
    <glyph glyph-name="uni01F5" unicode="&#x1f5;" horiz-adv-x="492" 
d="M494 501q-46 -19 -137 -19q46 -21 68 -54t22 -83q0 -79 -54 -128t-147 -49q-29 0 -55 6q-8 -5 -13 -15t-5 -21q0 -17 11.5 -26.5t43.5 -9.5h67q85 0 136 -42t51 -108q0 -79 -64.5 -125t-183.5 -46q-128 0 -178 42.5t-50 125.5h124q0 -40 21.5 -57t83.5 -17q59 0 83 17.5
t24 49.5q0 61 -77 61h-56q-78 0 -115 28t-37 74q0 29 15.5 54.5t42.5 43.5q-46 26 -66.5 62t-20.5 89q0 88 58 140t154 51q72 -1 119 14.5t100 46.5zM185 428.5q-19 -24.5 -19 -72.5t19.5 -73.5t54.5 -25.5q37 0 55.5 24t18.5 77q0 49 -18.5 72t-55.5 23q-36 0 -55 -24.5z
M310 822l56 -103l-212 -92l-38 69z" />
    <glyph glyph-name="uni01F6" unicode="&#x1f6;" horiz-adv-x="862" 
d="M820 254q0 -95 -32.5 -155.5t-85 -87.5t-114.5 -27q-83 0 -136.5 46.5t-53.5 134.5v139h-192v-304h-144v692h144v-274h192v274h144v-526q0 -41 14 -59.5t41 -18.5q37 0 60.5 39t23.5 134q0 119 -24 269h137q26 -152 26 -276z" />
    <glyph glyph-name="uni01F7" unicode="&#x1f7;" horiz-adv-x="539" 
d="M435 684.5q40 -23.5 63 -67t23 -102.5q0 -75 -32 -128t-84 -88t-130 -68l-69 -28v-203h-144v692h144v-43q57 59 141 59q48 0 88 -23.5zM341 402.5q32 43.5 32 106.5q0 47 -19.5 69.5t-55.5 22.5q-51 0 -92 -41v-253l40 19q63 33 95 76.5z" />
    <glyph glyph-name="uni01F8" unicode="&#x1f8;" horiz-adv-x="602" 
d="M540 0h-183l-186 553q2 -14 2 -22q8 -70 12.5 -126.5t4.5 -131.5v-273h-128v692h180l189 -554q-19 130 -19 246v308h128v-692zM230 940l196 -118l-35 -70l-214 84z" />
    <glyph glyph-name="uni01F9" unicode="&#x1f9;" horiz-adv-x="524" 
d="M433.5 504.5q35.5 -41.5 35.5 -113.5v-391h-139v372q0 37 -11.5 53t-33.5 16q-45 0 -87 -73v-368h-139v530h121l10 -67q30 41 64.5 62t80.5 21q63 0 98.5 -41.5zM206 822l194 -126l-39 -69l-211 92z" />
    <glyph glyph-name="Aringacute" unicode="&#x1fa;" horiz-adv-x="539" 
d="M397 0l-34 156h-190l-34 -156h-146l190 692h174l189 -692h-149zM197 262h142l-71 323zM359.5 936q33.5 -35 33.5 -89t-33.5 -89t-89.5 -35q-57 0 -90.5 35t-33.5 89t33.5 89t90.5 35q56 0 89.5 -35zM228 847q0 -53 42 -53q41 0 41 53t-41 53q-42 0 -42 -53zM341 1166
l53 -105l-213 -84l-36 70z" />
    <glyph glyph-name="aringacute" unicode="&#x1fb;" horiz-adv-x="496" 
d="M368 918l-213 -84l-36 70l196 119zM153.5 792q33.5 35 90.5 35q56 0 89.5 -35t33.5 -89t-33.5 -89t-89.5 -35q-57 0 -90.5 35t-33.5 89t33.5 89zM244 756q-42 0 -42 -53t42 -53q41 0 41 53t-41 53zM442.5 99q7.5 -13 25.5 -21l-29 -92q-44 5 -71.5 22t-42.5 53
q-49 -77 -143 -77q-71 0 -113.5 45.5t-42.5 118.5q0 86 58 132t167 46h47v30q0 49 -18.5 68.5t-61.5 19.5q-52 0 -127 -28l-31 91q44 19 91.5 29t89.5 10q99 0 146.5 -46t47.5 -137v-223q0 -28 7.5 -41zM298 142v105h-33q-51 0 -76 -21.5t-25 -65.5q0 -37 15 -56.5t43 -19.5
q49 0 76 58z" />
    <glyph glyph-name="AEacute" unicode="&#x1fc;" horiz-adv-x="759" 
d="M522 106h208v-106h-329l-24 156h-197l-47 -156h-152l245 692h470l-15 -105h-245l33 -185h219v-104h-200zM212 262h148l-50 323zM506 941l53 -105l-213 -84l-36 70z" />
    <glyph glyph-name="aeacute" unicode="&#x1fd;" horiz-adv-x="774" 
d="M742 223h-296q6 -74 33.5 -104.5t75.5 -30.5q29 0 56 11t59 34l57 -77q-81 -72 -184 -72q-62 0 -109.5 23.5t-78.5 67.5q-61 -91 -167 -91q-74 0 -118 45.5t-44 118.5q0 85 59.5 130.5t171.5 45.5h47v29q0 50 -18.5 70t-63.5 20q-50 0 -126 -28l-31 92q94 39 179 39
q54 0 89 -18t56 -52q57 70 149 70q95 0 151 -70.5t56 -198.5q0 -31 -3 -54zM610 317q0 133 -80 133q-39 0 -60 -32t-25 -108h165v7zM318 156q-10 39 -12 85v2h-35q-101 0 -101 -85q0 -74 58 -74q52 0 90 72zM450 822l56 -103l-212 -92l-38 69z" />
    <glyph glyph-name="Oslashacute" unicode="&#x1fe;" horiz-adv-x="629" 
d="M560.5 546.5q33.5 -81.5 33.5 -200.5q0 -175 -73.5 -268.5t-205.5 -93.5q-23 0 -44 3l-32 -119l-109 29l36 127q-64 41 -97.5 122t-33.5 200q0 175 73.5 268.5t206.5 93.5q22 0 43 -3l33 120l109 -29l-37 -128q64 -40 97.5 -121.5zM214.5 542q-32.5 -59 -32.5 -196
q0 -160 41 -215l120 468q-18 2 -28 2q-68 0 -100.5 -59zM407 560l-120 -467q18 -2 28 -2q47 0 75.5 25.5t42.5 83.5t14 157q0 149 -40 203zM384 969l53 -105l-213 -84l-36 70z" />
    <glyph glyph-name="oslashacute" unicode="&#x1ff;" horiz-adv-x="533" 
d="M472.5 414.5q26.5 -61.5 26.5 -149.5q0 -131 -62 -206t-171 -75q-11 0 -31 2l-33 -119l-102 29l37 124q-49 33 -76 95.5t-27 149.5q0 133 61.5 207t171.5 74q10 0 32 -2l34 120l102 -30l-38 -124q49 -34 75.5 -95.5zM189.5 401.5q-25.5 -41.5 -25.5 -136.5
q0 -108 27 -147l92 324q-5 1 -16 1q-52 0 -77.5 -41.5zM343 128q25 42 25 137q0 105 -26 145l-90 -323q4 -1 14 -1q52 0 77 42zM329 822l56 -103l-212 -92l-38 69z" />
    <glyph glyph-name="uni0200" unicode="&#x200;" horiz-adv-x="539" 
d="M397 0l-34 156h-190l-34 -156h-146l190 692h174l189 -692h-149zM197 262h142l-71 323zM151 977l86 -190l-70 -33l-109 174zM308 977l78 -189l-72 -30l-101 172z" />
    <glyph glyph-name="uni0201" unicode="&#x201;" horiz-adv-x="496" 
d="M442.5 99q7.5 -13 25.5 -21l-29 -92q-44 5 -71.5 22t-42.5 53q-49 -77 -143 -77q-71 0 -113.5 45.5t-42.5 118.5q0 86 58 132t167 46h47v30q0 49 -18.5 68.5t-61.5 19.5q-52 0 -127 -28l-31 91q44 19 91.5 29t89.5 10q99 0 146.5 -46t47.5 -137v-223q0 -28 7.5 -41z
M298 142v105h-33q-51 0 -76 -21.5t-25 -65.5q0 -37 15 -56.5t43 -19.5q49 0 76 58zM135 851l86 -190l-70 -33l-109 174zM292 851l78 -189l-72 -30l-101 172z" />
    <glyph glyph-name="uni0202" unicode="&#x202;" horiz-adv-x="539" 
d="M397 0l-34 156h-190l-34 -156h-146l190 692h174l189 -692h-149zM197 262h142l-71 323zM378 898.5q40 -43.5 46 -117.5l-77 -14q-17 78 -78 78q-59 0 -76 -78l-77 14q5 74 45 117.5t108 43.5q69 0 109 -43.5z" />
    <glyph glyph-name="uni0203" unicode="&#x203;" horiz-adv-x="496" 
d="M442.5 99q7.5 -13 25.5 -21l-29 -92q-44 5 -71.5 22t-42.5 53q-49 -77 -143 -77q-71 0 -113.5 45.5t-42.5 118.5q0 86 58 132t167 46h47v30q0 49 -18.5 68.5t-61.5 19.5q-52 0 -127 -28l-31 91q44 19 91.5 29t89.5 10q99 0 146.5 -46t47.5 -137v-223q0 -28 7.5 -41z
M298 142v105h-33q-51 0 -76 -21.5t-25 -65.5q0 -37 15 -56.5t43 -19.5q49 0 76 58zM352 736.5q40 -43.5 46 -117.5l-77 -14q-17 78 -78 78q-59 0 -76 -78l-77 14q5 74 45 117.5t108 43.5q69 0 109 -43.5z" />
    <glyph glyph-name="uni0204" unicode="&#x204;" horiz-adv-x="475" 
d="M442 692l-15 -105h-221v-183h193v-104h-193v-194h236v-106h-380v692h380zM134 977l86 -190l-70 -33l-109 174zM291 977l78 -189l-72 -30l-101 172z" />
    <glyph glyph-name="uni0205" unicode="&#x205;" 
d="M472 223h-298q6 -75 33 -105t75 -30q32 0 59.5 10.5t58.5 34.5l57 -78q-81 -71 -185 -71q-116 0 -177 73.5t-61 204.5q0 128 58.5 206t164.5 78q103 0 160.5 -69.5t57.5 -199.5q0 -31 -3 -54zM339 317q0 67 -19 100.5t-61 33.5q-39 0 -60 -32t-25 -109h165v7zM149 851
l86 -190l-70 -33l-109 174zM306 851l78 -189l-72 -30l-101 172z" />
    <glyph glyph-name="uni0206" unicode="&#x206;" horiz-adv-x="475" 
d="M442 692l-15 -105h-221v-183h193v-104h-193v-194h236v-106h-380v692h380zM361 898.5q40 -43.5 46 -117.5l-77 -14q-17 78 -78 78q-59 0 -76 -78l-77 14q5 74 45 117.5t108 43.5q69 0 109 -43.5z" />
    <glyph glyph-name="uni0207" unicode="&#x207;" 
d="M472 223h-298q6 -75 33 -105t75 -30q32 0 59.5 10.5t58.5 34.5l57 -78q-81 -71 -185 -71q-116 0 -177 73.5t-61 204.5q0 128 58.5 206t164.5 78q103 0 160.5 -69.5t57.5 -199.5q0 -31 -3 -54zM339 317q0 67 -19 100.5t-61 33.5q-39 0 -60 -32t-25 -109h165v7zM366 736.5
q40 -43.5 46 -117.5l-77 -14q-17 78 -78 78q-59 0 -76 -78l-77 14q5 74 45 117.5t108 43.5q69 0 109 -43.5z" />
    <glyph glyph-name="uni0208" unicode="&#x208;" horiz-adv-x="268" 
d="M206 692v-692h-144v692h144zM15 977l86 -190l-70 -33l-109 174zM172 977l78 -189l-72 -30l-101 172z" />
    <glyph glyph-name="uni0209" unicode="&#x209;" horiz-adv-x="258" 
d="M198 530v-530h-139v530h139zM20 851l86 -190l-70 -33l-109 174zM177 851l78 -189l-72 -30l-101 172z" />
    <glyph glyph-name="uni020A" unicode="&#x20a;" horiz-adv-x="268" 
d="M206 692v-692h-144v692h144zM242 898.5q40 -43.5 46 -117.5l-77 -14q-17 78 -78 78q-59 0 -76 -78l-77 14q5 74 45 117.5t108 43.5q69 0 109 -43.5z" />
    <glyph glyph-name="uni020B" unicode="&#x20b;" horiz-adv-x="258" 
d="M198 530v-530h-139v530h139zM237 736.5q40 -43.5 46 -117.5l-77 -14q-17 78 -78 78q-59 0 -76 -78l-77 14q5 74 45 117.5t108 43.5q69 0 109 -43.5z" />
    <glyph glyph-name="uni020C" unicode="&#x20c;" horiz-adv-x="629" 
d="M521 615.5q73 -92.5 73 -269.5q0 -175 -73 -268.5t-206 -93.5t-206.5 92.5t-73.5 269.5q0 175 73.5 268.5t206.5 93.5t206 -92.5zM217 541q-32 -59 -32 -195q0 -137 32.5 -195.5t97.5 -58.5q66 0 97.5 58.5t31.5 195.5q0 136 -31.5 195t-97.5 59t-98 -59zM196 977
l86 -190l-70 -33l-109 174zM353 977l78 -189l-72 -30l-101 172z" />
    <glyph glyph-name="uni020D" unicode="&#x20d;" horiz-adv-x="533" 
d="M437.5 473.5q61.5 -72.5 61.5 -208.5q0 -131 -62 -206t-171 -75t-170.5 73t-61.5 208q0 133 61.5 207t171.5 74q109 0 170.5 -72.5zM200 400q-22 -42 -22 -135q0 -95 21.5 -136t66.5 -41t67 42t22 135q0 94 -21.5 135.5t-66.5 41.5t-67 -42zM157 851l86 -190l-70 -33
l-109 174zM314 851l78 -189l-72 -30l-101 172z" />
    <glyph glyph-name="uni020E" unicode="&#x20e;" horiz-adv-x="629" 
d="M521 615.5q73 -92.5 73 -269.5q0 -175 -73 -268.5t-206 -93.5t-206.5 92.5t-73.5 269.5q0 175 73.5 268.5t206.5 93.5t206 -92.5zM217 541q-32 -59 -32 -195q0 -137 32.5 -195.5t97.5 -58.5q66 0 97.5 58.5t31.5 195.5q0 136 -31.5 195t-97.5 59t-98 -59zM423 898.5
q40 -43.5 46 -117.5l-77 -14q-17 78 -78 78q-59 0 -76 -78l-77 14q5 74 45 117.5t108 43.5q69 0 109 -43.5z" />
    <glyph glyph-name="uni020F" unicode="&#x20f;" horiz-adv-x="533" 
d="M437.5 473.5q61.5 -72.5 61.5 -208.5q0 -131 -62 -206t-171 -75t-170.5 73t-61.5 208q0 133 61.5 207t171.5 74q109 0 170.5 -72.5zM200 400q-22 -42 -22 -135q0 -95 21.5 -136t66.5 -41t67 42t22 135q0 94 -21.5 135.5t-66.5 41.5t-67 -42zM374 736.5
q40 -43.5 46 -117.5l-77 -14q-17 78 -78 78q-59 0 -76 -78l-77 14q5 74 45 117.5t108 43.5q69 0 109 -43.5z" />
    <glyph glyph-name="uni0210" unicode="&#x210;" horiz-adv-x="558" 
d="M268 273h-62v-273h-144v692h192q266 0 266 -206q0 -135 -121 -186l159 -300h-159zM261 374q57 0 83.5 27t26.5 85q0 53 -28.5 78t-89.5 25h-47v-215h55zM155 977l86 -190l-70 -33l-109 174zM312 977l78 -189l-72 -30l-101 172z" />
    <glyph glyph-name="uni0211" unicode="&#x211;" horiz-adv-x="362" 
d="M364 537l-23 -134q-21 6 -42 6q-42 0 -65 -31.5t-36 -95.5v-282h-139v530h121l11 -96q19 53 51 81.5t75 28.5q26 0 47 -7zM104 851l86 -190l-70 -33l-109 174zM261 851l78 -189l-72 -30l-101 172z" />
    <glyph glyph-name="uni0212" unicode="&#x212;" horiz-adv-x="558" 
d="M268 273h-62v-273h-144v692h192q266 0 266 -206q0 -135 -121 -186l159 -300h-159zM261 374q57 0 83.5 27t26.5 85q0 53 -28.5 78t-89.5 25h-47v-215h55zM382 898.5q40 -43.5 46 -117.5l-77 -14q-17 78 -78 78q-59 0 -76 -78l-77 14q5 74 45 117.5t108 43.5
q69 0 109 -43.5z" />
    <glyph glyph-name="uni0213" unicode="&#x213;" horiz-adv-x="362" 
d="M364 537l-23 -134q-21 6 -42 6q-42 0 -65 -31.5t-36 -95.5v-282h-139v530h121l11 -96q19 53 51 81.5t75 28.5q26 0 47 -7zM321 736.5q40 -43.5 46 -117.5l-77 -14q-17 78 -78 78q-59 0 -76 -78l-77 14q5 74 45 117.5t108 43.5q69 0 109 -43.5z" />
    <glyph glyph-name="uni0214" unicode="&#x214;" horiz-adv-x="588" 
d="M536 211q0 -65 -27.5 -116.5t-82 -81t-132.5 -29.5q-118 0 -180 62t-62 165v481h144v-475q0 -62 24 -92.5t74 -30.5q51 0 74.5 30.5t23.5 92.5v475h144v-481zM175 977l86 -190l-70 -33l-109 174zM332 977l78 -189l-72 -30l-101 172z" />
    <glyph glyph-name="uni0215" unicode="&#x215;" horiz-adv-x="520" 
d="M461 0h-122l-6 67q-27 -41 -62 -62t-81 -21q-64 0 -99.5 42.5t-35.5 114.5v389h139v-377q0 -34 11.5 -49.5t34.5 -15.5q46 0 82 66v376h139v-530zM149 851l86 -190l-70 -33l-109 174zM306 851l78 -189l-72 -30l-101 172z" />
    <glyph glyph-name="uni0216" unicode="&#x216;" horiz-adv-x="588" 
d="M536 211q0 -65 -27.5 -116.5t-82 -81t-132.5 -29.5q-118 0 -180 62t-62 165v481h144v-475q0 -62 24 -92.5t74 -30.5q51 0 74.5 30.5t23.5 92.5v475h144v-481zM402 898.5q40 -43.5 46 -117.5l-77 -14q-17 78 -78 78q-59 0 -76 -78l-77 14q5 74 45 117.5t108 43.5
q69 0 109 -43.5z" />
    <glyph glyph-name="uni0217" unicode="&#x217;" horiz-adv-x="520" 
d="M461 0h-122l-6 67q-27 -41 -62 -62t-81 -21q-64 0 -99.5 42.5t-35.5 114.5v389h139v-377q0 -34 11.5 -49.5t34.5 -15.5q46 0 82 66v376h139v-530zM366 736.5q40 -43.5 46 -117.5l-77 -14q-17 78 -78 78q-59 0 -76 -78l-77 14q5 74 45 117.5t108 43.5q69 0 109 -43.5z" />
    <glyph glyph-name="Scommaaccent" unicode="&#x218;" horiz-adv-x="513" 
d="M377.5 686q51.5 -22 94.5 -65l-67 -77q-33 29 -66 42.5t-69 13.5q-41 0 -64.5 -20.5t-23.5 -56.5q0 -24 10.5 -40.5t36.5 -31.5t76 -33q62 -23 101.5 -50t61 -68t21.5 -101q0 -62 -29.5 -110.5t-85.5 -76.5t-131 -28q-141 0 -235 96l72 80q38 -33 75.5 -50t80.5 -17
q49 0 76 26t27 71q0 40 -24.5 64.5t-90.5 48.5q-102 38 -146 86t-44 124q0 57 29 101.5t80 69t115 24.5q68 0 119.5 -22zM304.5 -90.5q19.5 -20.5 19.5 -51.5q0 -16 -5 -33t-19 -48l-41 -93h-70l27 115q-33 23 -33 59q0 30 20 51t51 21t50.5 -20.5z" />
    <glyph glyph-name="scommaaccent" unicode="&#x219;" horiz-adv-x="435" 
d="M320 529.5q45 -16.5 79 -47.5l-52 -77q-61 40 -115 40q-31 0 -47.5 -13.5t-16.5 -36.5q0 -17 8 -28t29 -22t63 -25q75 -25 111.5 -63t36.5 -103q0 -79 -60 -124.5t-151 -45.5q-60 0 -110.5 20.5t-87.5 55.5l67 75q64 -50 126 -50q34 0 54 15.5t20 43.5q0 21 -8 34
t-29.5 24t-65.5 26q-74 25 -107.5 63t-33.5 96q0 45 23.5 81t67.5 57t103 21q51 0 96 -16.5zM269.5 -90.5q19.5 -20.5 19.5 -51.5q0 -16 -5 -33t-19 -48l-41 -93h-70l27 115q-33 23 -33 59q0 30 20 51t51 21t50.5 -20.5z" />
    <glyph glyph-name="uni021A" unicode="&#x21a;" horiz-adv-x="485" 
d="M484 692l-15 -112h-155v-580h-144v580h-162v112h476zM293.5 -90.5q19.5 -20.5 19.5 -51.5q0 -16 -5 -33t-19 -48l-41 -93h-70l27 115q-33 23 -33 59q0 30 20 51t51 21t50.5 -20.5z" />
    <glyph glyph-name="uni021B" unicode="&#x21b;" horiz-adv-x="347" 
d="M355 25q-26 -20 -60 -30.5t-68 -10.5q-77 0 -116.5 44t-39.5 123v280h-68v99h68v116l139 17v-133h110l-14 -99h-96v-279q0 -57 45 -57q24 0 53 16zM262.5 -90.5q19.5 -20.5 19.5 -51.5q0 -16 -5 -33t-19 -48l-41 -93h-70l27 115q-33 23 -33 59q0 30 20 51t51 21
t50.5 -20.5z" />
    <glyph glyph-name="uni021C" unicode="&#x21c;" horiz-adv-x="467" 
d="M324.5 684q48.5 -24 74 -66t25.5 -96q0 -133 -143 -164q162 -18 162 -163q0 -106 -92.5 -186t-288.5 -119l-12 109q95 26 148 56t73.5 65t20.5 81q0 101 -116 101h-62l16 106h49q47 0 72 25.5t25 73.5q0 43 -20 68.5t-63 25.5q-60 0 -128 -57l-66 74q88 90 212 90
q65 0 113.5 -24z" />
    <glyph glyph-name="uni021D" unicode="&#x21d;" horiz-adv-x="436" 
d="M325.5 506q53.5 -40 53.5 -110q0 -49 -27 -79t-84 -44q66 -4 100 -33.5t34 -83.5q0 -88 -90 -156t-258 -105l-14 93q116 39 167 78t51 92q0 31 -17 45t-50 14h-82l8 93h46q75 0 75 72q0 65 -67 65q-30 0 -53.5 -8.5t-50.5 -26.5l-64 73q79 61 187 61q82 0 135.5 -40z" />
    <glyph glyph-name="uni021E" unicode="&#x21e;" horiz-adv-x="604" 
d="M398 0v304h-192v-304h-144v692h144v-274h192v274h144v-692h-144zM422 932l50 -55l-127 -126h-85l-127 126l50 55l119 -83z" />
    <glyph glyph-name="uni021F" unicode="&#x21f;" horiz-adv-x="524" 
d="M433 504q36 -42 36 -113v-391h-139v372q0 37 -11.5 53t-34.5 16q-44 0 -86 -73v-368h-139v741l139 14v-286q29 39 62 58t75 19q62 0 98 -42zM382 981l50 -55l-127 -126h-85l-127 126l50 55l119 -83z" />
    <glyph glyph-name="uni0220" unicode="&#x220;" horiz-adv-x="593" 
d="M495 658.5q42 -49.5 42 -130.5v-736h-144v711q0 50 -16 73t-51 23t-61.5 -17.5t-58.5 -53.5v-528h-144v692h126l10 -67q39 42 80.5 62.5t94.5 20.5q80 0 122 -49.5z" />
    <glyph glyph-name="uni0221" unicode="&#x221;" horiz-adv-x="706" 
d="M685 207.5q30 -29.5 30 -80.5q0 -70 -47.5 -106.5t-123.5 -36.5q-26 0 -46 4l-29 -70l-68 28l28 65q-41 22 -63 65q-57 -92 -147 -92q-89 0 -136 74t-47 207q0 84 24 147.5t68.5 98.5t102.5 35q68 0 114 -53v263l139 -15v-573q0 -14 2 -32q23 53 51.5 77t70.5 24
q47 0 77 -29.5zM346 150q-1 7 -1 23v220q-18 25 -36 37.5t-41 12.5q-88 0 -88 -178q0 -97 21 -137.5t60 -40.5q49 0 85 63zM618 130q0 29 -25 29q-16 0 -27 -15t-27 -56q7 -1 23 -1q56 0 56 43z" />
    <glyph glyph-name="uni0222" unicode="&#x222;" horiz-adv-x="593" 
d="M526.5 327q31.5 -46 31.5 -112q0 -63 -32 -115.5t-91.5 -84t-138.5 -31.5t-138.5 30.5t-91 83t-31.5 117.5q0 64 31 110t89 70q-84 44 -84 138v159h145v-165q0 -41 18.5 -63.5t62.5 -22.5t62 24t18 62v165h145v-159q0 -45 -22 -79.5t-63 -57.5q58 -23 89.5 -69z
M379.5 122.5q27.5 30.5 27.5 94.5q0 59 -27.5 89.5t-83.5 30.5q-54 0 -82.5 -31t-28.5 -90q0 -124 111 -124q56 0 83.5 30.5z" />
    <glyph glyph-name="uni0223" unicode="&#x223;" horiz-adv-x="527" 
d="M494 218q0 -68 -27 -121t-79 -83t-124 -30q-109 0 -169.5 63.5t-60.5 169.5q0 72 27.5 121.5t81.5 73.5q-77 39 -77 133v196h138v-215q0 -73 60 -73q32 0 46.5 18t14.5 55v215h136v-196q0 -44 -20 -77.5t-58 -53.5q111 -48 111 -196zM330.5 119q20.5 31 20.5 103
q0 71 -20.5 104t-66.5 33q-45 0 -66 -33t-21 -105q0 -70 21 -101.5t66 -31.5q46 0 66.5 31z" />
    <glyph glyph-name="uni0224" unicode="&#x224;" horiz-adv-x="482" 
d="M459 582l-281 -466h279v-164q0 -84 -48 -127.5t-128 -43.5q-74 0 -128 41l49 85q19 -11 32.5 -15.5t33.5 -4.5q24 0 37 14t13 43v56h-302v109l284 470h-256v113h415v-110z" />
    <glyph glyph-name="uni0225" unicode="&#x225;" horiz-adv-x="408" 
d="M392 431l-224 -323h222v-158q0 -82 -47.5 -125.5t-125.5 -43.5q-74 0 -128 41l49 81q18 -10 32 -14.5t34 -4.5q53 0 53 57v59h-244v100l224 323h-205v107h360v-99z" />
    <glyph glyph-name="uni0226" unicode="&#x226;" horiz-adv-x="539" 
d="M397 0l-34 156h-190l-34 -156h-146l190 692h174l189 -692h-149zM197 262h142l-71 323zM329.5 904q23.5 -23 23.5 -58t-23.5 -58.5t-59.5 -23.5t-59.5 23.5t-23.5 58.5t23.5 58t59.5 23t59.5 -23z" />
    <glyph glyph-name="uni0227" unicode="&#x227;" horiz-adv-x="496" 
d="M442.5 99q7.5 -13 25.5 -21l-29 -92q-44 5 -71.5 22t-42.5 53q-49 -77 -143 -77q-71 0 -113.5 45.5t-42.5 118.5q0 86 58 132t167 46h47v30q0 49 -18.5 68.5t-61.5 19.5q-52 0 -127 -28l-31 91q44 19 91.5 29t89.5 10q99 0 146.5 -46t47.5 -137v-223q0 -28 7.5 -41z
M298 142v105h-33q-51 0 -76 -21.5t-25 -65.5q0 -37 15 -56.5t43 -19.5q49 0 76 58zM303.5 778q23.5 -23 23.5 -58t-23.5 -58.5t-59.5 -23.5t-59.5 23.5t-23.5 58.5t23.5 58t59.5 23t59.5 -23z" />
    <glyph glyph-name="uni0228" unicode="&#x228;" horiz-adv-x="475" 
d="M206 106h236v-106h-153v-53q46 -6 69 -29.5t23 -63.5q0 -50 -35.5 -80t-96.5 -30q-58 0 -100 28l33 65q28 -15 57 -15q42 0 42 33q0 19 -20 28t-63 9l12 108h-148v692h380l-15 -105h-221v-183h193v-104h-193v-194z" />
    <glyph glyph-name="uni0229" unicode="&#x229;" 
d="M472 223h-298q6 -75 33 -105t75 -30q32 0 59.5 10.5t58.5 34.5l57 -78q-66 -58 -150 -69v-39q46 -6 69 -29.5t23 -63.5q0 -50 -35.5 -80t-96.5 -30q-58 0 -100 28l33 65q28 -15 57 -15q42 0 42 33q0 19 -20 28t-63 9l11 95q-95 14 -144 86t-49 189q0 128 58.5 206
t164.5 78q103 0 160.5 -69.5t57.5 -199.5q0 -31 -3 -54zM339 317q0 67 -19 100.5t-61 33.5q-39 0 -60 -32t-25 -109h165v7z" />
    <glyph glyph-name="uni022A" unicode="&#x22a;" horiz-adv-x="629" 
d="M521 615.5q73 -92.5 73 -269.5q0 -175 -73 -268.5t-206 -93.5t-206.5 92.5t-73.5 269.5q0 175 73.5 268.5t206.5 93.5t206 -92.5zM217 541q-32 -59 -32 -195q0 -137 32.5 -195.5t97.5 -58.5q66 0 97.5 58.5t31.5 195.5q0 136 -31.5 195t-97.5 59t-98 -59zM263.5 870
q20.5 -21 20.5 -51q0 -31 -20.5 -52t-51.5 -21t-51.5 21t-20.5 52q0 30 20.5 51t51.5 21t51.5 -21zM470.5 870q20.5 -21 20.5 -51q0 -31 -20.5 -52t-51.5 -21q-30 0 -51 21t-21 52q0 30 21 51t51 21q31 0 51.5 -21zM453 932h-273v97h273v-97z" />
    <glyph glyph-name="uni022B" unicode="&#x22b;" horiz-adv-x="533" 
d="M437.5 473.5q61.5 -72.5 61.5 -208.5q0 -131 -62 -206t-171 -75t-170.5 73t-61.5 208q0 133 61.5 207t171.5 74q109 0 170.5 -72.5zM200 400q-22 -42 -22 -135q0 -95 21.5 -136t66.5 -41t67 42t22 135q0 94 -21.5 135.5t-66.5 41.5t-67 -42zM213.5 732q20.5 -21 20.5 -51
q0 -31 -20.5 -52t-51.5 -21t-51.5 21t-20.5 52q0 30 20.5 51t51.5 21t51.5 -21zM420.5 732q20.5 -21 20.5 -51q0 -31 -20.5 -52t-51.5 -21q-30 0 -51 21t-21 52q0 30 21 51t51 21q31 0 51.5 -21zM403 800h-273v97h273v-97z" />
    <glyph glyph-name="uni022C" unicode="&#x22c;" horiz-adv-x="629" 
d="M521 615.5q73 -92.5 73 -269.5q0 -175 -73 -268.5t-206 -93.5t-206.5 92.5t-73.5 269.5q0 175 73.5 268.5t206.5 93.5t206 -92.5zM217 541q-32 -59 -32 -195q0 -137 32.5 -195.5t97.5 -58.5q66 0 97.5 58.5t31.5 195.5q0 136 -31.5 195t-97.5 59t-98 -59zM334.5 765
q-14.5 7 -32.5 19q-23 18 -38 18t-25 -10t-23 -33l-69 32q17 48 47 78t67 30q21 0 35.5 -7t32.5 -19q12 -9 20.5 -13t17.5 -4q14 0 24.5 10t22.5 32l69 -33q-18 -50 -47.5 -78.5t-66.5 -28.5q-20 0 -34.5 7zM451 936h-273v97h273v-97z" />
    <glyph glyph-name="uni022D" unicode="&#x22d;" horiz-adv-x="533" 
d="M437.5 473.5q61.5 -72.5 61.5 -208.5q0 -131 -62 -206t-171 -75t-170.5 73t-61.5 208q0 133 61.5 207t171.5 74q109 0 170.5 -72.5zM200 400q-22 -42 -22 -135q0 -95 21.5 -136t66.5 -41t67 42t22 135q0 94 -21.5 135.5t-66.5 41.5t-67 -42zM285.5 603q-14.5 7 -32.5 19
q-23 18 -38 18t-25 -10t-23 -33l-69 32q17 48 47 78t67 30q21 0 35.5 -7t32.5 -19q12 -9 20.5 -13t17.5 -4q14 0 24.5 10t22.5 32l69 -33q-18 -50 -47.5 -78.5t-66.5 -28.5q-20 0 -34.5 7zM402 825h-273v97h273v-97z" />
    <glyph glyph-name="uni022E" unicode="&#x22e;" horiz-adv-x="629" 
d="M521 615.5q73 -92.5 73 -269.5q0 -175 -73 -268.5t-206 -93.5t-206.5 92.5t-73.5 269.5q0 175 73.5 268.5t206.5 93.5t206 -92.5zM217 541q-32 -59 -32 -195q0 -137 32.5 -195.5t97.5 -58.5q66 0 97.5 58.5t31.5 195.5q0 136 -31.5 195t-97.5 59t-98 -59zM374.5 904
q23.5 -23 23.5 -58t-23.5 -58.5t-59.5 -23.5t-59.5 23.5t-23.5 58.5t23.5 58t59.5 23t59.5 -23z" />
    <glyph glyph-name="uni022F" unicode="&#x22f;" horiz-adv-x="533" 
d="M437.5 473.5q61.5 -72.5 61.5 -208.5q0 -131 -62 -206t-171 -75t-170.5 73t-61.5 208q0 133 61.5 207t171.5 74q109 0 170.5 -72.5zM200 400q-22 -42 -22 -135q0 -95 21.5 -136t66.5 -41t67 42t22 135q0 94 -21.5 135.5t-66.5 41.5t-67 -42zM325.5 778q23.5 -23 23.5 -58
t-23.5 -58.5t-59.5 -23.5t-59.5 23.5t-23.5 58.5t23.5 58t59.5 23t59.5 -23z" />
    <glyph glyph-name="uni0230" unicode="&#x230;" horiz-adv-x="629" 
d="M521 615.5q73 -92.5 73 -269.5q0 -175 -73 -268.5t-206 -93.5t-206.5 92.5t-73.5 269.5q0 175 73.5 268.5t206.5 93.5t206 -92.5zM217 541q-32 -59 -32 -195q0 -137 32.5 -195.5t97.5 -58.5q66 0 97.5 58.5t31.5 195.5q0 136 -31.5 195t-97.5 59t-98 -59zM373.5 877
q23.5 -23 23.5 -58t-23.5 -58.5t-59.5 -23.5t-59.5 23.5t-23.5 58.5t23.5 58t59.5 23t59.5 -23zM452 933h-273v97h273v-97z" />
    <glyph glyph-name="uni0231" unicode="&#x231;" horiz-adv-x="533" 
d="M437.5 473.5q61.5 -72.5 61.5 -208.5q0 -131 -62 -206t-171 -75t-170.5 73t-61.5 208q0 133 61.5 207t171.5 74q109 0 170.5 -72.5zM200 400q-22 -42 -22 -135q0 -95 21.5 -136t66.5 -41t67 42t22 135q0 94 -21.5 135.5t-66.5 41.5t-67 -42zM325.5 737q23.5 -23 23.5 -58
t-23.5 -58.5t-59.5 -23.5t-59.5 23.5t-23.5 58.5t23.5 58t59.5 23t59.5 -23zM403 796h-273v97h273v-97z" />
    <glyph glyph-name="uni0232" unicode="&#x232;" horiz-adv-x="532" 
d="M538 692l-200 -431v-261h-144v260l-200 432h155l120 -316l120 316h149zM402 785h-273v97h273v-97z" />
    <glyph glyph-name="uni0233" unicode="&#x233;" horiz-adv-x="470" 
d="M319 -1q-29 -100 -93 -155t-173 -64l-15 99q69 11 102.5 37.5t53.5 83.5h-50l-146 530h144l91 -439l99 439h140zM371 659h-273v97h273v-97z" />
    <glyph glyph-name="uni0234" unicode="&#x234;" horiz-adv-x="416" 
d="M395 207.5q30 -29.5 30 -80.5q0 -70 -47.5 -106.5t-123.5 -36.5q-26 0 -46 4l-29 -70l-68 28l28 65q-85 47 -85 162v568l139 15v-588q0 -14 2 -34q24 54 52 78.5t71 24.5q47 0 77 -29.5zM327 130q0 29 -24 29q-16 0 -27 -15t-27 -56q7 -1 23 -1q55 0 55 43z" />
    <glyph glyph-name="uni0235" unicode="&#x235;" horiz-adv-x="692" 
d="M671 207.5q30 -29.5 30 -80.5q0 -70 -47.5 -106.5t-123.5 -36.5q-26 0 -47 4l-29 -70l-68 28l29 65q-39 22 -62 62t-23 100v199q0 37 -11.5 53t-33.5 16q-45 0 -87 -73v-368h-139v530h121l10 -67q30 41 64.5 62t80.5 21q63 0 98.5 -41.5t35.5 -113.5v-223q0 -14 2 -34
q24 55 52 79t71 24q47 0 77 -29.5zM603 130q0 29 -24 29q-16 0 -27 -15t-28 -56q7 -1 23 -1q56 0 56 43z" />
    <glyph glyph-name="uni0236" unicode="&#x236;" horiz-adv-x="433" 
d="M411.5 207.5q30.5 -29.5 30.5 -80.5q0 -70 -47.5 -106.5t-123.5 -36.5q-23 0 -47 3l-29 -69l-68 28l28 64q-84 46 -84 163v258h-68v99h68v116l139 16v-132h110l-14 -99h-96v-266q0 -12 2 -30q24 54 52 78t71 24q46 0 76.5 -29.5zM344 130q0 29 -24 29q-16 0 -28 -15
t-28 -57q7 -1 24 -1q56 0 56 44z" />
    <glyph glyph-name="uni0237" unicode="&#x237;" horiz-adv-x="257" 
d="M198 41q0 -74 -23.5 -123t-64 -80t-102.5 -57l-46 101q35 18 55 35.5t31 45.5t11 73v494h139v-489z" />
    <glyph glyph-name="uni0238" unicode="&#x238;" horiz-adv-x="790" 
d="M711.5 474.5q42.5 -71.5 42.5 -209.5q0 -86 -22.5 -149.5t-63.5 -97.5t-95 -34q-36 0 -65.5 20t-49.5 54l-8 -58h-108l-8 61q-22 -35 -53.5 -56t-71.5 -21q-82 0 -127.5 74.5t-45.5 206.5q0 85 23 148.5t63.5 98t93.5 34.5q33 0 61.5 -16.5t49.5 -46.5v258l139 15v-280
q48 70 125 70q78 0 120.5 -71.5zM327 145v245q-33 53 -71 53q-76 0 -76 -178q0 -98 18.5 -137.5t51.5 -39.5q41 0 77 57zM610 265q0 101 -18 139t-51 38q-41 0 -75 -55v-241q15 -29 31.5 -44t39.5 -15q73 0 73 178z" />
    <glyph glyph-name="uni0239" unicode="&#x239;" horiz-adv-x="790" 
d="M711.5 473.5q42.5 -72.5 42.5 -207.5q0 -85 -22.5 -149t-62.5 -98.5t-92 -34.5q-68 0 -111 63v-251l-139 -15v265q-47 -62 -119 -62q-81 0 -126.5 74.5t-45.5 206.5q0 84 23 147.5t65 98.5t97 35q70 0 117 -73l6 57h105l7 -61q28 41 59 59t71 18q83 0 125.5 -72.5z
M327 146v242q-30 55 -72 55q-75 0 -75 -178q0 -98 19 -137.5t52 -39.5q43 0 76 58zM610 265q0 100 -17 138.5t-51 38.5q-38 0 -76 -54v-246q15 -28 31.5 -40.5t36.5 -12.5q76 0 76 176z" />
    <glyph glyph-name="uni023A" unicode="&#x23a;" horiz-adv-x="539" 
d="M410 0l-37 156h-105l-55 -229l-51 11l52 218h-51l-37 -156h-133l190 692h158l15 62l51 -12l-30 -125l169 -617h-136zM186 256h52l56 236l-26 110zM291 256h59l-29 123z" />
    <glyph glyph-name="uni023B" unicode="&#x23b;" horiz-adv-x="520" 
d="M513 70q-35 -38 -85 -62t-111 -24q-38 0 -69 7l-15 -64l-52 11l17 71q-77 36 -120 121t-43 217q0 117 36 198t100 122t145 41q28 0 48 -4l12 50l52 -12l-12 -51q47 -18 90 -57l-69 -82q-27 22 -47 32l-114 -477q21 -10 49 -10q35 0 62 14t59 40zM230 144l109 454
q-5 1 -15 1q-139 0 -139 -252q0 -139 45 -203z" />
    <glyph glyph-name="uni023C" unicode="&#x23c;" horiz-adv-x="434" 
d="M321.5 103q20.5 8 46.5 26l61 -83q-70 -62 -159 -62q-27 0 -46 4l-15 -61l-48 11l15 62q-68 27 -105 93.5t-37 167.5q0 86 28.5 150.5t81.5 99.5t124 35q21 0 39 -3l14 56l48 -11l-14 -58q38 -14 74 -47l-60 -80q-20 15 -39 24l-80 -329q13 -3 27 -3q24 0 44.5 8z
M207 129l75 309h-4q-49 0 -73.5 -40.5t-24.5 -135.5q0 -92 27 -133z" />
    <glyph glyph-name="uni023D" unicode="&#x23d;" horiz-adv-x="474" 
d="M220 116h244l-15 -116h-373v308h-69v110h69v274h144v-274h72v-110h-72v-192z" />
    <glyph glyph-name="uni023E" unicode="&#x23e;" horiz-adv-x="486" 
d="M469 584h-77l-86 -206v-378h-128v71l-60 -144l-46 19l106 254v384h-170v108h376l27 65l45 -19l-19 -46h47zM306 506l33 78h-33v-78z" />
    <glyph glyph-name="uni023F" unicode="&#x23f;" horiz-adv-x="436" 
d="M381 -104l32 -85q-37 -30 -93 -30q-41 0 -71 16.5t-51.5 41.5t-51.5 69q-36 53 -64 86t-68 62q-4 2 -6 4l59 75q35 -24 67 -37t67 -13q34 0 53.5 15t19.5 43q0 21 -8 34t-29.5 24.5t-65.5 26.5q-74 25 -107.5 63t-33.5 96q0 45 23.5 81t67.5 57t103 21q51 0 96 -16.5
t79 -47.5l-52 -77q-61 40 -115 40q-31 0 -47.5 -13.5t-16.5 -36.5q0 -17 8 -28t29 -22t63 -25q75 -25 111.5 -63t36.5 -103q0 -52 -27.5 -90.5t-73.5 -59t-100 -20.5h-3q17 -12 29 -24.5t27 -31.5q19 -23 32.5 -33t34.5 -10q22 0 46 11z" />
    <glyph glyph-name="uni0240" unicode="&#x240;" horiz-adv-x="402" 
d="M278 -205.5q-27 13.5 -45 32.5t-43 54q-26 36 -46.5 58t-52.5 39.5t-78 21.5v100l225 323h-206v107h360v-99l-250 -357q48 -17 77 -46.5t58 -73.5q24 -36 41 -52.5t43 -16.5q15 0 24.5 2.5t24.5 8.5l28 -86q-39 -29 -94 -29q-39 0 -66 13.5z" />
    <glyph glyph-name="uni0241" unicode="&#x241;" horiz-adv-x="453" 
d="M132 327l50 16q56 18 81 50t25 92q0 54 -24 85t-68 31q-33 0 -62 -13.5t-62 -42.5l-70 73q90 90 211 90q68 0 119 -27t78 -76.5t27 -113.5q0 -87 -35 -131.5t-103 -70.5l-23 -9v-280h-145z" />
    <glyph glyph-name="uni0242" unicode="&#x242;" horiz-adv-x="415" 
d="M100 201l48 15q48 16 73 45.5t25 78.5q0 48 -21.5 74t-59.5 26q-30 0 -52.5 -11t-49.5 -35l-67 70q39 40 83.5 61t101.5 21q62 0 109.5 -25.5t73.5 -72t26 -106.5q0 -74 -33.5 -116t-92.5 -64l-25 -9v-153h-139v201z" />
    <glyph glyph-name="uni0243" unicode="&#x243;" horiz-adv-x="570" 
d="M504.5 314q40.5 -38 40.5 -114q0 -105 -72.5 -152.5t-200.5 -47.5h-197v174h-60v76h60v442h172q131 0 201.5 -43.5t70.5 -133.5q0 -59 -34.5 -96.5t-88.5 -52.5q68 -14 108.5 -52zM219 588v-178h52q101 0 101 92q0 46 -26.5 66t-84.5 20h-42zM365.5 129q31.5 22 31.5 78
q0 105 -116 105h-62v-62h104v-76h-104v-67h54q61 0 92.5 22z" />
    <glyph glyph-name="uni0244" unicode="&#x244;" horiz-adv-x="618" 
d="M602 502h-51v-291q0 -65 -27.5 -116.5t-82 -81t-132.5 -29.5q-118 0 -180 62t-62 165v291h-52v85h52v105h144v-105h196v105h144v-105h51v-85zM407 502h-196v-285q0 -62 24 -92.5t74 -30.5q51 0 74.5 30.5t23.5 92.5v285z" />
    <glyph glyph-name="uni0245" unicode="&#x245;" horiz-adv-x="539" 
d="M357 692l189 -692h-151l-127 585l-127 -585h-148l190 692h174z" />
    <glyph glyph-name="uni0246" unicode="&#x246;" horiz-adv-x="475" 
d="M307 300l-45 -194h180v-106h-204l-17 -73l-51 11l14 62h-122v692h283l14 62l51 -11l-12 -51h44l-15 -105h-53l-43 -183h68v-104h-92zM206 587v-183h72l42 183h-114zM206 106h3l45 194h-48v-194z" />
    <glyph glyph-name="uni0247" unicode="&#x247;" 
d="M266 225l-32 -131q20 -7 48 -7q31 0 58.5 11t59.5 34l57 -76q-81 -72 -185 -72q-33 0 -63 6l-15 -63l-48 11l16 68q-63 30 -95.5 95.5t-32.5 160.5q0 128 58.5 206t164.5 78q12 0 36 -2l13 55l48 -11l-14 -56q65 -25 100 -90t35 -165q0 -29 -3 -52h-206zM191.5 420
q-23.5 -33 -27.5 -113h71l36 146h-12q-44 0 -67.5 -33zM317 434l-31 -127h66v7q0 91 -35 120zM215 225h-51q4 -66 28 -99z" />
    <glyph glyph-name="uni0248" unicode="&#x248;" horiz-adv-x="303" 
d="M298 288h-71v-185q0 -114 -52.5 -171.5t-145.5 -91.5l-39 102q40 18 60 39t26.5 50t6.5 77v180h-70v110h70v294h144v-294h71v-110z" />
    <glyph glyph-name="uni0249" unicode="&#x249;" horiz-adv-x="300" 
d="M294 207h-73v-166q0 -74 -23.5 -123t-64 -80t-102.5 -57l-46 101q35 18 55 35.5t31 45.5t11 73v171h-73v99h73v224h139v-224h73v-99zM211.5 778q23.5 -23 23.5 -58t-23.5 -58.5t-59.5 -23.5t-59.5 23.5t-23.5 58.5t23.5 58t59.5 23t59.5 -23z" />
    <glyph glyph-name="uni024A" unicode="&#x24a;" horiz-adv-x="611" 
d="M709 -178q-54 -41 -127 -41q-81 0 -129 43.5t-48 127.5v82q-52 -50 -128 -50q-70 0 -125 39.5t-86 118t-31 191.5q0 120 31.5 204.5t87 127.5t126.5 43q79 0 134 -55l6 39h129v-748q0 -57 48 -57q19 0 32 4.5t30 14.5zM405 133v424q-40 43 -95 43q-61 0 -93 -61.5
t-32 -205.5q0 -134 31 -188.5t90 -54.5q58 0 99 43z" />
    <glyph glyph-name="uni024B" unicode="&#x24b;" horiz-adv-x="541" 
d="M560 -201q-16 -8 -38.5 -13t-46.5 -5q-61 0 -95.5 36t-34.5 100v136q-22 -32 -54 -50.5t-73 -18.5q-88 0 -135 74t-47 207q0 84 24 147.5t68.5 98.5t103.5 35q71 0 124 -64l7 48h121v-608q0 -31 25 -31q11 0 23 5zM307 102.5q20 15.5 38 47.5v243q-18 25 -36.5 37.5
t-41.5 12.5q-40 0 -63.5 -43t-23.5 -135q0 -99 21 -138.5t60 -39.5q26 0 46 15.5z" />
    <glyph glyph-name="uni024C" unicode="&#x24c;" horiz-adv-x="571" 
d="M411 0l-131 273h-62v-273h-144v273h-59v101h59v318h192q266 0 266 -206q0 -135 -121 -186l159 -300h-159zM356.5 401q26.5 27 26.5 85q0 53 -28.5 78t-89.5 25h-47v-215h55q57 0 83.5 27z" />
    <glyph glyph-name="uni024D" unicode="&#x24d;" horiz-adv-x="382" 
d="M384 537l-23 -134q-21 6 -42 6q-41 0 -64 -31t-37 -94h74v-99h-74v-185h-139v185h-72v99h72v246h121l11 -96q19 53 51 81.5t75 28.5q26 0 47 -7z" />
    <glyph glyph-name="uni024E" unicode="&#x24e;" horiz-adv-x="532" 
d="M501 612h37v-85h-77l-123 -266v-261h-144v260l-124 267h-74v85h35l-37 80h150l31 -80h188l31 80h144zM269 369l61 158h-122z" />
    <glyph glyph-name="uni024F" unicode="&#x24f;" horiz-adv-x="486" 
d="M440 392h38v-83h-62l-89 -310q-29 -100 -93 -155t-173 -64l-15 99q69 11 102.5 37.5t53.5 83.5h-50l-85 309h-60v83h37l-38 138h144l29 -138h130l31 138h140zM241 91l49 218h-94z" />
    <glyph glyph-name="uni0250" unicode="&#x250;" horiz-adv-x="496" 
d="M405 114l31 -91q-44 -19 -91.5 -29t-89.5 -10q-99 0 -146.5 46t-47.5 137v223q0 28 -7.5 41t-25.5 21l29 92q44 -5 71.5 -22t42.5 -53q50 77 143 77q71 0 113.5 -45.5t42.5 -118.5q0 -86 -58 -132t-167 -46h-47v-30q0 -49 18.5 -68.5t61.5 -19.5q52 0 127 28zM198 388
v-105h33q51 0 76 21.5t25 65.5q0 37 -15 56.5t-43 19.5q-49 0 -76 -58z" />
    <glyph glyph-name="uni0251" unicode="&#x251;" horiz-adv-x="543" 
d="M487.5 112.5q8.5 -15.5 30.5 -27.5l-40 -101q-48 10 -76 28t-44 49q-25 -36 -60.5 -56.5t-78.5 -20.5q-88 0 -136.5 73.5t-48.5 207.5q0 85 24.5 148.5t68.5 98t102 34.5q75 0 122 -63l7 47h121v-370q0 -32 8.5 -47.5zM340 146v249q-18 24 -35.5 36t-41.5 12
q-85 0 -85 -178q0 -99 20.5 -138.5t57.5 -39.5q47 0 84 59z" />
    <glyph glyph-name="uni0252" unicode="&#x252;" horiz-adv-x="543" 
d="M460.5 472.5q48.5 -73.5 48.5 -207.5q0 -85 -24.5 -148.5t-68.5 -98t-102 -34.5q-75 0 -122 63l-7 -47h-121v370q0 32 -8.5 47.5t-30.5 27.5l40 101q48 -10 76 -28t44 -49q25 36 60.5 56.5t78.5 20.5q88 0 136.5 -73.5zM365 265q0 99 -20.5 138.5t-57.5 39.5
q-47 0 -84 -59v-249q18 -24 36 -36t41 -12q85 0 85 178z" />
    <glyph glyph-name="uni0253" unicode="&#x253;" horiz-adv-x="541" 
d="M459 474q46 -72 46 -209q0 -85 -23 -148.5t-66 -98t-101 -34.5q-38 0 -70.5 18t-54.5 49l-7 -51h-124v590q0 73 47 119.5t134 46.5q71 0 130 -31l-39 -90q-37 17 -74 17q-31 0 -45 -15.5t-14 -50.5v-111q23 33 57 52t73 19q85 0 131 -72zM338.5 128q22.5 41 22.5 137
q0 101 -20 139t-58 38q-25 0 -46.5 -17.5t-38.5 -48.5v-234q14 -26 34 -40.5t44 -14.5q40 0 62.5 41z" />
    <glyph glyph-name="uni0254" unicode="&#x254;" horiz-adv-x="432" 
d="M77.5 -1q-38.5 15 -72.5 45l62 80q26 -19 45.5 -27.5t45.5 -8.5q49 0 72.5 41t23.5 136q0 96 -22.5 136.5t-69.5 40.5q-25 0 -47 -8t-46 -27l-59 78q66 61 164 61q106 0 165 -72t59 -209q0 -132 -61.5 -206.5t-170.5 -74.5q-50 0 -88.5 15z" />
    <glyph glyph-name="uni0255" unicode="&#x255;" horiz-adv-x="454" 
d="M415.5 216q32.5 -31 32.5 -84q0 -71 -48.5 -109.5t-122.5 -38.5q-37 0 -64 8l-30 -74l-69 28l32 74q-54 33 -83 95t-29 146q0 86 28.5 150.5t81.5 99.5t124 35q48 0 87 -15.5t74 -47.5l-60 -81q-45 36 -91 36q-49 0 -73.5 -40.5t-24.5 -135.5q0 -82 20 -125q22 58 54 84
t79 26q50 0 82.5 -31zM350 135q0 34 -29 34q-20 0 -34.5 -17t-31.5 -60q22 -5 39 -5q56 0 56 48z" />
    <glyph glyph-name="uni0256" unicode="&#x256;" horiz-adv-x="543" 
d="M645 -178q-52 -41 -128 -41q-78 0 -125.5 43.5t-47.5 125.5v51h1v49q-50 -66 -126 -66q-89 0 -136 74t-47 207q0 84 24 147.5t68.5 98.5t102.5 35q68 0 114 -53v263l139 -15v-741h-1v-59q0 -57 51 -57q18 0 31.5 4t30.5 14zM307 102.5q20 15.5 38 46.5v244
q-18 25 -36 37.5t-41 12.5q-88 0 -88 -178q0 -97 21 -137.5t60 -40.5q26 0 46 15.5z" />
    <glyph glyph-name="uni0257" unicode="&#x257;" horiz-adv-x="543" 
d="M632 719l-42 -85q-17 9 -30 13.5t-30 4.5q-24 0 -35.5 -14t-11.5 -45v-63h1v-530h-124l-6 63q-51 -79 -135 -79q-89 0 -136 74t-47 207q0 84 24 147.5t68.5 98.5t102.5 35q68 0 114 -53v36h-1v59q0 78 43.5 123t123.5 45q66 0 121 -37zM307 102.5q20 15.5 38 46.5v244
q-18 25 -36 37.5t-41 12.5q-88 0 -88 -178q0 -97 21 -137.5t60 -40.5q26 0 46 15.5z" />
    <glyph glyph-name="uni0258" unicode="&#x258;" 
d="M415 472q55 -74 55 -210q0 -131 -61.5 -204.5t-177.5 -73.5q-106 0 -185 71l58 78q31 -24 59 -34.5t61 -10.5q48 0 74 30t32 105h-298q-3 23 -3 54q0 129 59 199t162 70q110 0 165 -74zM165 310h165q-2 56 -11.5 86.5t-26.5 42.5t-44 12q-83 0 -83 -134v-7z" />
    <glyph glyph-name="uni0259" unicode="&#x259;" horiz-adv-x="507" 
d="M416.5 473q56.5 -73 56.5 -207q0 -131 -59 -206.5t-166 -75.5q-101 0 -160 69t-59 200q0 32 3 54h307q-4 74 -28 105.5t-71 31.5q-33 0 -62 -10t-60 -33l-57 78q78 67 184 67q115 0 171.5 -73zM313.5 114.5q21.5 29.5 25.5 105.5h-180v-7q1 -128 90 -128q43 0 64.5 29.5z
" />
    <glyph glyph-name="uni025A" unicode="&#x25a;" horiz-adv-x="750" 
d="M764 346q-49 -37 -113 -37q-62 0 -97.5 31t-40.5 86l-2 13l-57 -36q19 -57 19 -137q0 -131 -59 -206.5t-166 -75.5q-101 0 -160 69t-59 200q0 32 3 54h307q-4 74 -28 105.5t-71 31.5q-33 0 -62 -10t-60 -33l-57 78q78 67 184 67q111 0 170 -70l90 54h116v-70
q0 -27 12.5 -39.5t33.5 -12.5q16 0 28.5 4t27.5 12zM313.5 114.5q21.5 29.5 25.5 105.5h-180v-7q1 -128 90 -128q43 0 64.5 29.5z" />
    <glyph glyph-name="uni025B" unicode="&#x25b;" horiz-adv-x="436" 
d="M418 489l-55 -73q-27 16 -51 23.5t-52 7.5q-32 0 -50 -16t-18 -47q0 -30 18.5 -47t53.5 -17h57l-13 -93h-51q-42 0 -60.5 -17.5t-18.5 -53.5q0 -33 20.5 -51.5t60.5 -18.5q29 0 56 9.5t58 30.5l59 -78q-36 -30 -85.5 -47t-107.5 -17q-91 0 -148 42.5t-57 119.5
q0 114 132 136q-114 25 -114 119q0 66 52.5 105.5t137.5 39.5q102 0 176 -57z" />
    <glyph glyph-name="uni025C" unicode="&#x25c;" horiz-adv-x="451" 
d="M341 506q53 -40 53 -106q0 -45 -26.5 -73.5t-82.5 -43.5q67 -11 100 -41.5t33 -87.5q0 -83 -60.5 -126.5t-159.5 -43.5q-116 0 -195 65l66 77q33 -22 59.5 -31t61.5 -9q84 0 84 74q0 36 -23 51.5t-69 15.5h-67l8 93h48q82 0 82 67q0 31 -18.5 45.5t-48.5 14.5
q-29 0 -53 -8.5t-51 -26.5l-64 73q79 61 190 61q80 0 133 -40z" />
    <glyph glyph-name="uni025D" unicode="&#x25d;" horiz-adv-x="696" 
d="M710 346q-49 -37 -113 -37q-62 0 -97.5 31t-40.5 86l-2 13l-63 -39q0 -45 -26.5 -73.5t-82.5 -43.5q67 -11 100 -41.5t33 -87.5q0 -83 -60.5 -126.5t-159.5 -43.5q-116 0 -195 65l66 77q33 -22 59.5 -31t61.5 -9q84 0 84 74q0 36 -23 51.5t-69 15.5h-67l8 93h48
q82 0 82 67q0 31 -18.5 45.5t-48.5 14.5q-29 0 -53 -8.5t-51 -26.5l-64 73q79 61 190 61q51 0 93 -17.5t67 -48.5l83 50h116v-70q0 -27 12.5 -39.5t33.5 -12.5q16 0 28.5 4t27.5 12z" />
    <glyph glyph-name="uni025E" unicode="&#x25e;" horiz-adv-x="523" 
d="M94.5 56.5q-60.5 72.5 -60.5 208.5q0 133 62.5 207t175.5 74q86 0 140 -40.5t54 -107.5q0 -87 -107 -115q66 -11 98 -41.5t32 -87.5q0 -80 -59.5 -125t-158.5 -45q-116 0 -176.5 72.5zM349 161q0 36 -21.5 51t-61.5 15h-29l7 93h15q32 0 50.5 16.5t18.5 49.5
q0 30 -16 45.5t-45 15.5q-48 0 -71 -42.5t-23 -139.5q0 -67 9 -105.5t30 -56t58 -17.5q79 0 79 75z" />
    <glyph glyph-name="uni025F" unicode="&#x25f;" horiz-adv-x="300" 
d="M294 207h-73v-166q0 -74 -23.5 -123t-64 -80t-102.5 -57l-46 101q35 18 55 35.5t31 45.5t11 73v171h-73v99h73v224h139v-224h73v-99z" />
    <glyph glyph-name="uni0260" unicode="&#x260;" horiz-adv-x="543" 
d="M632 719l-42 -85q-17 9 -30 13.5t-30 4.5q-24 0 -35.5 -14t-11.5 -45v-63h1v-532q0 -106 -59.5 -161.5t-170.5 -55.5q-103 0 -172 48l45 85q54 -30 116 -30q54 0 78 25t24 76v84q-48 -65 -124 -65q-89 0 -137 72.5t-48 198.5q0 79 24.5 140.5t69 96t104.5 34.5
q63 0 111 -51v34h-1v59q0 78 43.5 123t123.5 45q66 0 121 -37zM307 123.5q20 15.5 38 47.5v224q-18 24 -36 36t-41 12q-42 0 -65 -40.5t-23 -127.5q0 -92 21 -129.5t60 -37.5q26 0 46 15.5z" />
    <glyph glyph-name="uni0261" unicode="&#x261;" horiz-adv-x="543" 
d="M484 530v-532q0 -106 -59.5 -161.5t-170.5 -55.5q-103 0 -172 48l45 85q54 -30 116 -30q54 0 78 25t24 76v84q-48 -65 -124 -65q-89 0 -137 72.5t-48 198.5q0 79 24.5 140.5t69 96t104.5 34.5q36 0 67.5 -16.5t54.5 -46.5l7 47h121zM307 123.5q20 15.5 38 47.5v224
q-18 24 -36 36t-41 12q-42 0 -65 -40.5t-23 -127.5q0 -92 21 -129.5t60 -37.5q26 0 46 15.5z" />
    <glyph glyph-name="uni0262" unicode="&#x262;" horiz-adv-x="513" 
d="M382.5 528q43.5 -18 81.5 -52l-66 -74q-29 21 -54.5 31.5t-56.5 10.5q-110 0 -110 -177q0 -103 23.5 -141.5t70.5 -38.5q36 0 69 15v111h-64l-14 94h207v-261q-94 -60 -200 -60q-118 0 -176.5 68.5t-58.5 213.5q0 88 32 150.5t88 95t126 32.5q59 0 102.5 -18z" />
    <glyph glyph-name="uni0263" unicode="&#x263;" horiz-adv-x="469" 
d="M305 77q33 -59 47.5 -99t14.5 -82q0 -54 -32 -84.5t-98 -30.5q-65 0 -97.5 30t-32.5 84q0 38 14 79t48 102l-171 454h145l94 -365l95 365h139zM257.5 -56.5q-6.5 20.5 -20.5 53.5q-13 -31 -19.5 -53t-6.5 -43q0 -31 26 -31q27 0 27 32q0 21 -6.5 41.5z" />
    <glyph glyph-name="uni0264" unicode="&#x264;" 
d="M468.5 538.5q20.5 -7.5 43.5 -22.5l-40 -79q-11 5 -18 7.5t-19 2.5q-13 0 -22 -9t-19 -31l-75 -169q29 -50 41 -80.5t12 -65.5q0 -49 -30 -78.5t-90 -29.5q-58 0 -89 29.5t-31 77.5q0 32 11.5 63t40.5 84l-73 169q-11 23 -20 31.5t-22 8.5q-12 0 -19 -2.5t-17 -7.5
l-40 79q21 15 42 22.5t48 7.5q50 0 79 -28t50 -91l40 -113l41 113q21 63 49.5 91t78.5 28q27 0 47.5 -7.5zM269.5 128q-5.5 15 -17.5 42q-3 -6 -9.5 -22t-10 -27.5t-3.5 -22.5q0 -27 23 -27t23 27q0 15 -5.5 30z" />
    <glyph glyph-name="uni0265" unicode="&#x265;" horiz-adv-x="524" 
d="M465 530v-749l-139 15v265q-28 -38 -61 -57t-76 -19q-62 0 -98 41.5t-36 113.5v390h139v-371q0 -38 12 -53.5t34 -15.5q45 0 86 73v367h139z" />
    <glyph glyph-name="uni0266" unicode="&#x266;" horiz-adv-x="524" 
d="M433 503.5q36 -42.5 36 -118.5v-385h-139v366q0 42 -11.5 58.5t-34.5 16.5q-44 0 -86 -73v-368h-139v590q0 73 47 119.5t134 46.5q71 0 130 -31l-39 -90q-37 17 -74 17q-31 0 -45 -15.5t-14 -50.5v-117q29 39 62 58t75 19q62 0 98 -42.5z" />
    <glyph glyph-name="uni0267" unicode="&#x267;" horiz-adv-x="524" 
d="M433 503.5q36 -42.5 36 -118.5v-435q0 -82 -47.5 -125.5t-125.5 -43.5q-76 0 -128 41l49 80q17 -10 30.5 -14t31.5 -4q51 0 51 57v425q0 42 -11.5 58.5t-34.5 16.5q-44 0 -86 -73v-368h-139v590q0 73 47 119.5t134 46.5q71 0 130 -31l-39 -90q-37 17 -74 17
q-31 0 -45 -15.5t-14 -50.5v-117q29 39 62 58t75 19q62 0 98 -42.5z" />
    <glyph glyph-name="uni0268" unicode="&#x268;" horiz-adv-x="298" 
d="M89.5 661.5q-23.5 23.5 -23.5 58.5t23.5 58t59.5 23t59.5 -23t23.5 -58t-23.5 -58.5t-59.5 -23.5t-59.5 23.5zM292 331v-99h-74v-232h-139v232h-72v99h72v199h139v-199h74z" />
    <glyph glyph-name="uni0269" unicode="&#x269;" horiz-adv-x="271" 
d="M89 20q-35 36 -35 100v410h139v-405q0 -30 26 -30q11 0 23 4l27 -96q-35 -19 -84 -19q-61 0 -96 36z" />
    <glyph glyph-name="uni026A" unicode="&#x26a;" horiz-adv-x="304" 
d="M289 430h-68v-329h68v-101h-274v101h67v329h-67v100h274v-100z" />
    <glyph glyph-name="uni026B" unicode="&#x26b;" horiz-adv-x="404" 
d="M273 284v-158q0 -31 26 -31q11 0 23 4l27 -96q-35 -19 -84 -19q-61 0 -96 36t-35 100v222q-3 1 -8 1q-21 0 -34 -12.5t-30 -38.5l-72 37q25 52 58.5 84.5t83.5 32.5h2v295l139 15v-368q4 -1 11 -1q20 0 33.5 11.5t29.5 35.5l73 -37q-54 -113 -140 -113h-7z" />
    <glyph glyph-name="uni026C" unicode="&#x26c;" horiz-adv-x="380" 
d="M329 99l27 -96q-35 -19 -84 -19q-61 0 -96 36t-35 100v125q-72 2 -108.5 34t-36.5 87q0 52 31.5 81t81.5 29q16 0 32 -4v269l139 15v-431q32 3 63 10l13 -73q-42 -11 -76 -14v-122q0 -31 26 -31q11 0 23 4zM141 324v77q-12 2 -21 2q-15 0 -23.5 -9.5t-8.5 -26.5
q0 -43 53 -43z" />
    <glyph glyph-name="uni026D" unicode="&#x26d;" horiz-adv-x="258" 
d="M360 -178q-52 -41 -128 -41q-78 0 -125.5 43.5t-47.5 125.5v791l139 15v-815q0 -57 51 -57q18 0 31.5 4t30.5 14z" />
    <glyph glyph-name="uni026E" unicode="&#x26e;" horiz-adv-x="635" 
d="M567.5 153.5q50.5 -50.5 50.5 -145.5q0 -66 -28.5 -117.5t-83 -80.5t-128.5 -29q-120 0 -192 77l69 78q28 -25 55 -36.5t60 -11.5q50 0 77.5 32t27.5 94q0 60 -28.5 85.5t-89.5 25.5h-77v85l159 215h-246v-299q0 -31 26 -31q11 0 23 4l27 -96q-35 -19 -84 -19
q-61 0 -96 36t-35 100v621l139 15v-226h397v-97l-169 -223q96 -6 146.5 -56.5z" />
    <glyph glyph-name="uni026F" unicode="&#x26f;" horiz-adv-x="765" 
d="M706 530v-530h-121l-10 66q-27 -40 -60.5 -61t-76.5 -21q-41 0 -70.5 22.5t-43.5 64.5q-59 -87 -142 -87q-57 0 -92 42t-35 113v391h138v-372q0 -69 41 -69q22 0 41 17.5t37 52.5v371h137v-372q0 -69 41 -69q23 0 42 17.5t36 52.5v371h138z" />
    <glyph glyph-name="uni0270" unicode="&#x270;" horiz-adv-x="765" 
d="M706 530v-749l-139 15v258q-54 -70 -129 -70q-41 0 -70.5 22.5t-43.5 64.5q-59 -87 -142 -87q-57 0 -92 42t-35 113v391h138v-372q0 -69 41 -69q22 0 41 17.5t37 52.5v371h137v-372q0 -69 41 -69q23 0 42 17.5t36 52.5v371h138z" />
    <glyph glyph-name="uni0271" unicode="&#x271;" horiz-adv-x="765" 
d="M675 504q35 -42 35 -113v-438q0 -84 -47 -128t-126 -44q-74 0 -126 41l49 81q17 -10 31 -14.5t31 -4.5q50 0 50 57v431q0 69 -41 69q-22 0 -41 -17.5t-37 -52.5v-371h-137v372q0 69 -41 69q-23 0 -42 -17.5t-36 -52.5v-371h-138v530h121l10 -66q27 40 60.5 61t76.5 21
q41 0 70.5 -22.5t43.5 -64.5q59 87 142 87q57 0 92 -42z" />
    <glyph glyph-name="uni0272" unicode="&#x272;" horiz-adv-x="524" 
d="M433.5 504.5q35.5 -41.5 35.5 -113.5v-391h-139v372q0 37 -11.5 53t-33.5 16q-45 0 -87 -73v-367h1v-51q0 -82 -47.5 -125.5t-125.5 -43.5q-76 0 -128 41l49 80q17 -10 30.5 -14t31.5 -4q51 0 51 57v59h-1v530h121l10 -67q30 41 64.5 62t80.5 21q63 0 98.5 -41.5z" />
    <glyph glyph-name="uni0273" unicode="&#x273;" horiz-adv-x="523" 
d="M631 -178q-52 -41 -128 -41q-78 0 -125.5 43.5t-47.5 125.5v422q0 37 -11.5 53t-33.5 16q-45 0 -87 -73v-368h-139v530h121l10 -67q30 41 64.5 62t80.5 21q63 0 98.5 -41.5t35.5 -113.5v-450q0 -57 51 -57q18 0 31.5 4t30.5 14z" />
    <glyph glyph-name="uni0274" unicode="&#x274;" horiz-adv-x="533" 
d="M474 0h-168l-144 406q9 -62 13.5 -114.5t4.5 -123.5v-168h-121v530h167l145 -406q-10 68 -14 107t-4 100v199h121v-530z" />
    <glyph glyph-name="uni0275" unicode="&#x275;" horiz-adv-x="533" 
d="M437.5 473.5q61.5 -72.5 61.5 -208.5q0 -131 -62 -206t-171 -75t-170.5 73t-61.5 208q0 133 61.5 207t171.5 74q109 0 170.5 -72.5zM202 412.5q-23 -31.5 -28 -101.5h184q-4 70 -26.5 101.5t-64.5 31.5t-65 -31.5zM332 119.5q23 33.5 27 108.5h-186q4 -76 26.5 -109
t66.5 -33q43 0 66 33.5z" />
    <glyph glyph-name="uni0276" unicode="&#x276;" horiz-adv-x="693" 
d="M443 98h228v-98h-320q-43 -16 -86 -16q-108 0 -169.5 73.5t-61.5 207.5q0 132 62 206.5t170 74.5q46 0 87 -16h320l-15 -97h-213q36 -51 46 -117h144v-95h-143q-8 -73 -49 -123zM333 129.5q22 41.5 22 135.5t-22.5 135.5t-65.5 41.5q-45 0 -67 -41.5t-22 -135.5
q0 -95 21.5 -136t67.5 -41q44 0 66 41.5z" />
    <glyph glyph-name="uni0277" unicode="&#x277;" horiz-adv-x="695" 
d="M580 467.5q82 -78.5 82 -226.5q0 -130 -48 -193.5t-130 -63.5q-116 0 -136 113q-13 -59 -46.5 -86t-90.5 -27q-83 0 -130 63t-47 194q0 148 83 226.5t232 78.5t231 -78.5zM509 122q16 34 16 125q0 99 -41 149.5t-135 50.5q-96 0 -137.5 -50.5t-41.5 -150.5q0 -86 15 -122
t47 -36q26 0 39 18.5t13 69.5v118l127 17v-135q0 -48 13 -68t38 -20q31 0 47 34z" />
    <glyph glyph-name="uni0278" unicode="&#x278;" horiz-adv-x="600" 
d="M517.5 80q-55.5 -65 -147.5 -75l-1 -209l-139 -15l1 224q-93 10 -148.5 74.5t-55.5 183.5q0 122 55.5 187t147.5 75v216l139 14v-230q93 -10 148.5 -74t55.5 -184q0 -122 -55.5 -187zM420 142q20 40 20 125t-20.5 123.5t-62.5 43.5v-338q43 6 63 46zM181 142.5
q20 -39.5 61 -46.5v338q-42 -6 -61.5 -45t-19.5 -126q0 -81 20 -120.5z" />
    <glyph glyph-name="uni0279" unicode="&#x279;" horiz-adv-x="362" 
d="M303 530v-530h-121l-11 96q-19 -53 -51 -81.5t-75 -28.5q-26 0 -47 7l23 134q21 -6 42 -6q42 0 65 31.5t36 95.5v282h139z" />
    <glyph glyph-name="uni027A" unicode="&#x27a;" horiz-adv-x="362" 
d="M303 530v-530h-121l-11 96q-19 -53 -51 -81.5t-75 -28.5q-26 0 -47 7l23 134q21 -6 42 -6q42 0 65 31.5t36 95.5v281h-1v227l139 -15v-211h1z" />
    <glyph glyph-name="uni027B" unicode="&#x27b;" horiz-adv-x="362" 
d="M465 -178q-52 -41 -128 -41q-78 0 -125.5 43.5t-47.5 125.5v129q-19 -45 -49 -69t-70 -24q-25 0 -46 7l23 134q28 -6 41 -6q42 0 65 32t36 96v281h139v-589q0 -57 51 -57q18 0 31.5 4t30.5 14z" />
    <glyph glyph-name="uni027C" unicode="&#x27c;" horiz-adv-x="362" 
d="M364 537l-23 -134q-21 6 -42 6q-42 0 -65 -31.5t-36 -95.5v-486l-139 -15v749h121l11 -96q19 53 51 81.5t75 28.5q26 0 47 -7z" />
    <glyph glyph-name="uni027D" unicode="&#x27d;" horiz-adv-x="362" 
d="M280.5 -112q13.5 4 30.5 14l49 -80q-52 -41 -128 -41q-78 0 -125.5 43.5t-47.5 125.5v580h121l11 -96q19 53 51 81.5t75 28.5q26 0 47 -7l-23 -134q-21 6 -42 6q-42 0 -65 -31.5t-36 -95.5v-341q0 -57 51 -57q18 0 31.5 4z" />
    <glyph glyph-name="uni027E" unicode="&#x27e;" horiz-adv-x="355" 
d="M356 505l-49 -80q-17 10 -30.5 14t-31.5 4q-51 0 -51 -57v-386h-139v377q0 82 47.5 125.5t125.5 43.5q76 0 128 -41z" />
    <glyph glyph-name="uni027F" unicode="&#x27f;" horiz-adv-x="355" 
d="M252.5 502.5q47.5 -43.5 47.5 -125.5v-377h-139v386q0 57 -51 57q-18 0 -31.5 -4t-30.5 -14l-49 80q52 41 128 41q78 0 125.5 -43.5z" />
    <glyph glyph-name="uni0280" unicode="&#x280;" horiz-adv-x="482" 
d="M236 189h-43v-189h-134v530h166q106 0 161 -43.5t55 -127.5q0 -106 -86 -148l119 -211h-143zM193 277h38q37 0 55 19t18 64q0 42 -19.5 60t-61.5 18h-30v-161z" />
    <glyph glyph-name="uni0281" unicode="&#x281;" horiz-adv-x="482" 
d="M420 261.5q21 -37.5 21 -88.5q0 -86 -55 -129.5t-161 -43.5h-166v530h134v-189h43l95 189h143l-118 -210q43 -21 64 -58.5zM284.5 110q19.5 18 19.5 62q0 45 -18 63.5t-55 18.5h-38v-162h30q42 0 61.5 18z" />
    <glyph glyph-name="uni0282" unicode="&#x282;" horiz-adv-x="435" 
d="M129 1v-55q0 -62 58 -62q23 0 39.5 5t33.5 16l48 -83q-52 -41 -131 -41q-80 0 -125 44.5t-45 130.5v105h1l57 64q66 -40 134 -40q35 0 55 15.5t20 42.5q0 21 -8 34t-29.5 24.5t-65.5 26.5q-74 25 -107.5 63t-33.5 96q0 45 23.5 81t67.5 57t103 21q51 0 96 -16.5t79 -47.5
l-52 -78q-60 41 -113 41q-32 0 -49 -13t-17 -37q0 -17 8 -28t29 -22t63 -25q75 -25 111.5 -63t36.5 -103q0 -52 -27 -90.5t-72.5 -59t-100.5 -20.5q-50 0 -87 17z" />
    <glyph glyph-name="uni0283" unicode="&#x283;" horiz-adv-x="257" 
d="M347 719l-42 -85q-17 9 -30 13.5t-30 4.5q-24 0 -35.5 -14t-11.5 -45v-592h1v-51q0 -82 -47.5 -125.5t-125.5 -43.5q-76 0 -128 41l49 80q17 -10 30.5 -14t31.5 -4q51 0 51 57v59h-1v588q0 78 43.5 123t123.5 45q66 0 121 -37z" />
    <glyph glyph-name="uni0284" unicode="&#x284;" horiz-adv-x="297" 
d="M291 99v-99h-73q-9 -87 -55.5 -134.5t-132.5 -84.5l-46 98q46 24 68.5 49.5t27.5 71.5h-73v99h74v489q0 78 43.5 123t123.5 45q66 0 121 -37l-42 -85q-17 9 -30 13.5t-30 4.5q-24 0 -35.5 -14t-11.5 -45v-494h71z" />
    <glyph glyph-name="uni0285" unicode="&#x285;" horiz-adv-x="433" 
d="M442 26q-52 -41 -128 -41q-78 0 -125.5 43.5t-47.5 125.5v228q0 31 -11.5 45t-35.5 14q-17 0 -30 -4.5t-30 -13.5l-42 85q55 37 121 37q80 0 123.5 -45t43.5 -123v-232q0 -57 51 -57q18 0 31.5 4t30.5 14z" />
    <glyph glyph-name="uni0286" unicode="&#x286;" horiz-adv-x="305" 
d="M246 -8q48 -14 91 -37l-27 -60q-34 16 -71 28q-29 -142 -178 -142q-64 0 -99 30.5t-35 83.5q0 60 37.5 92t102.5 32q18 0 40 -2v571q0 78 43.5 123t123.5 45q66 0 121 -37l-42 -85q-17 9 -30 13.5t-30 4.5q-24 0 -35.5 -14t-11.5 -45v-594v-7zM93.5 -121.5
q12.5 21.5 13.5 69.5q-17 3 -40 3q-57 0 -57 -51q0 -43 42 -43q29 0 41.5 21.5z" />
    <glyph glyph-name="uni0287" unicode="&#x287;" horiz-adv-x="347" 
d="M344 0h-68v-116l-139 -17v133h-110l14 99h96v279q0 57 -45 57q-24 0 -53 -16l-47 86q26 20 60 30.5t68 10.5q77 0 116.5 -44t39.5 -123v-280h68v-99z" />
    <glyph glyph-name="uni0288" unicode="&#x288;" horiz-adv-x="381" 
d="M372 -178q-52 -41 -128 -41q-78 0 -125.5 43.5t-47.5 125.5v481h-68v99h68v116l139 17v-133h110l-14 -99h-96v-490q0 -57 51 -57q18 0 31.5 4t30.5 14z" />
    <glyph glyph-name="uni0289" unicode="&#x289;" horiz-adv-x="555" 
d="M546 303h-67v-303h-122l-6 67q-27 -41 -62 -62t-81 -21q-64 0 -99.5 42.5t-35.5 114.5v162h-69v89h69v138h139v-138h128v138h139v-138h67v-89zM340 303h-128v-150q0 -34 11.5 -49.5t34.5 -15.5q46 0 82 66v149z" />
    <glyph glyph-name="uni028A" unicode="&#x28a;" horiz-adv-x="532" 
d="M141.5 14.5q-52.5 30.5 -80 85.5t-27.5 127q0 69 24.5 119t70.5 87h-82v97h181v-91q-25 -37 -38 -82.5t-13 -119.5q0 -79 22 -115.5t67 -36.5t67.5 36.5t22.5 116.5q0 72 -13.5 118.5t-39.5 82.5v91h181v-97h-81q46 -37 70.5 -87t24.5 -119q0 -71 -27.5 -126t-80 -86
t-124.5 -31t-124.5 30.5z" />
    <glyph glyph-name="uni028B" unicode="&#x28b;" horiz-adv-x="520" 
d="M108.5 30q-53.5 46 -53.5 130v370h139v-362q0 -42 14.5 -61t44.5 -19q83 0 83 146v172q0 18 -6 26t-19 8q-7 0 -21 -4l-21 94q34 16 77 16q62 0 95.5 -36t33.5 -106v-163q0 -130 -65 -193.5t-166 -63.5q-82 0 -135.5 46z" />
    <glyph glyph-name="uni028C" unicode="&#x28c;" horiz-adv-x="465" 
d="M-2 0l150 530h165l154 -530h-147l-90 422l-93 -422h-139z" />
    <glyph glyph-name="uni028D" unicode="&#x28d;" horiz-adv-x="680" 
d="M9 0l99 530h168l64 -405l64 405h165l102 -530h-136l-56 426l-74 -426h-137l-68 426l-60 -426h-131z" />
    <glyph glyph-name="uni028E" unicode="&#x28e;" horiz-adv-x="470" 
d="M151 531q29 102 93.5 157.5t172.5 64.5l14 -97q-70 -11 -103.5 -39t-52.5 -87h51l146 -530h-144l-91 440l-99 -440h-140z" />
    <glyph glyph-name="uni028F" unicode="&#x28f;" horiz-adv-x="446" 
d="M456 530l-163 -336v-194h-139v193l-165 337h145l91 -247l91 247h140z" />
    <glyph glyph-name="uni0290" unicode="&#x290;" horiz-adv-x="411" 
d="M557 -178q-54 -41 -129 -41q-77 0 -122.5 43t-45.5 123v53h-247v100l224 323h-205v107h360v-99l-224 -323h225v-167q0 -57 51 -57q19 0 32.5 4.5t31.5 14.5z" />
    <glyph glyph-name="uni0291" unicode="&#x291;" horiz-adv-x="487" 
d="M314 0q-5 -36 -5 -93v-33h-81q0 63 5 126h-220v100l224 323h-205v107h360v-95l-226 -327h83q18 76 53.5 109.5t88.5 33.5q49 0 80 -29.5t31 -81.5q0 -139 -188 -140zM329 108h2q41 0 58 8t17 30q0 29 -26 29q-38 0 -51 -67z" />
    <glyph glyph-name="uni0292" unicode="&#x292;" horiz-adv-x="456" 
d="M389 154.5q51 -50.5 51 -145.5q0 -67 -29 -118.5t-83 -80.5t-128 -29q-135 0 -212 99l75 70q33 -33 62.5 -47.5t66.5 -14.5q50 0 77 32t27 95q0 59 -28.5 84.5t-88.5 25.5h-80v85l161 215h-236v105h387v-97l-171 -222q98 -6 149 -56.5z" />
    <glyph glyph-name="uni0293" unicode="&#x293;" horiz-adv-x="456" 
d="M400.5 -124q-39.5 -56 -115.5 -79l24 -56l-70 -28l-28 70q-26 -2 -39 -2q-92 0 -143.5 38.5t-51.5 109.5q0 55 32 86.5t81 31.5q52 0 85 -32t64 -114q30 13 43.5 41.5t13.5 74.5q0 61 -28 87t-87 26h-82v84l162 211h-237v105h387v-97l-171 -218q98 -5 149 -56t51 -149
q0 -78 -39.5 -134zM94 -101.5q21 -10.5 74 -10.5q-19 48 -32.5 65t-32.5 17q-30 0 -30 -35q0 -26 21 -36.5z" />
    <glyph glyph-name="uni0294" unicode="&#x294;" horiz-adv-x="428" 
d="M117 352l39 14q58 21 85 55t27 100q0 65 -25 98t-72 33q-33 0 -60 -13.5t-57 -41.5l-69 69q43 46 92.5 68t110.5 22q102 0 162.5 -62t60.5 -171q0 -91 -36.5 -138t-102.5 -74l-16 -7v-304h-139v352z" />
    <glyph glyph-name="uni0295" unicode="&#x295;" horiz-adv-x="428" 
d="M173 0v304l-16 7q-67 27 -103.5 74.5t-36.5 137.5q0 72 28.5 124.5t80 80.5t118.5 28q60 0 108 -22.5t91 -67.5l-69 -69q-29 28 -55.5 41.5t-59.5 13.5q-47 0 -72.5 -33t-25.5 -99q0 -65 27 -99t84 -55l40 -14v-352h-139z" />
    <glyph glyph-name="uni0296" unicode="&#x296;" horiz-adv-x="464" 
d="M266 755v-318l26 -7q65 -22 102 -71.5t37 -139.5q0 -109 -61.5 -171.5t-163.5 -62.5q-60 0 -109 22t-92 68l69 69q30 -28 57 -41.5t60 -13.5q46 0 71 33t25 98q0 68 -26 104t-83 52l-51 13v352z" />
    <glyph glyph-name="uni0297" unicode="&#x297;" horiz-adv-x="448" 
d="M443 483l-58 -81q-46 35 -91 35q-52 0 -78 -63t-26 -213q0 -149 25.5 -208.5t75.5 -59.5q24 0 44 8t45 26l61 -84q-67 -61 -155 -61q-118 0 -180 94.5t-62 282.5t63.5 287.5t180.5 99.5q89 0 155 -63z" />
    <glyph glyph-name="uni0298" unicode="&#x298;" horiz-adv-x="725" 
d="M535 665.5q74 -42.5 115 -124t41 -194.5q0 -110 -41 -192.5t-115.5 -126.5t-171.5 -44q-98 0 -172 43t-115 124.5t-41 194.5q0 110 41 192t115.5 126t171.5 44q98 0 172 -42.5zM220.5 545q-50.5 -64 -50.5 -199q0 -136 51 -199.5t142 -63.5q192 0 192 264
q0 134 -51.5 198t-140.5 64q-92 0 -142.5 -64zM419 396q21 -21 21 -52q0 -32 -21 -53t-54 -21t-54 21t-21 53q0 31 21 52t54 21t54 -21z" />
    <glyph glyph-name="uni0299" unicode="&#x299;" horiz-adv-x="507" 
d="M473 160q0 -80 -58 -120t-158 -40h-198v525q112 21 188 21q95 0 149.5 -38t54.5 -106q0 -89 -104 -112q126 -15 126 -130zM198 451v-131h52q32 0 49 15.5t17 52.5q0 36 -17.5 51t-53.5 15q-21 0 -47 -3zM311.5 110q19.5 17 19.5 59q0 40 -18 56.5t-57 16.5h-58v-149h57
q37 0 56.5 17z" />
    <glyph glyph-name="uni029A" unicode="&#x29a;" horiz-adv-x="523" 
d="M93.5 29q-59.5 45 -59.5 125q0 57 32 87.5t98 41.5q-107 28 -107 115q0 67 54 107.5t140 40.5q113 0 175.5 -74t62.5 -207q0 -136 -60.5 -208.5t-176.5 -72.5q-99 0 -158.5 45zM311 103.5q21 17.5 30 56t9 105.5q0 97 -23 139.5t-71 42.5q-29 0 -45 -15.5t-16 -45.5
q0 -33 18.5 -49.5t50.5 -16.5h15l7 -93h-29q-40 0 -61.5 -15t-21.5 -51q0 -75 79 -75q37 0 58 17.5z" />
    <glyph glyph-name="uni029B" unicode="&#x29b;" horiz-adv-x="511" 
d="M613 719l-42 -85q-17 9 -30 13.5t-30 4.5q-24 0 -35.5 -14t-11.5 -45v-117l-60 -68q-32 18 -58 27t-57 9q-55 0 -83.5 -42t-28.5 -135q0 -103 23.5 -141.5t70.5 -38.5q38 0 69 15v111h-64l-14 94h207v-261q-89 -60 -200 -60q-118 0 -176.5 68.5t-58.5 213.5
q0 88 31.5 150.5t84.5 95t118 32.5q39 0 73 -13v67q0 75 39.5 115.5t110.5 40.5q67 0 122 -37z" />
    <glyph glyph-name="uni029C" unicode="&#x29c;" horiz-adv-x="532" 
d="M334 0v218h-136v-218h-139v530h139v-209h136v209h139v-530h-139z" />
    <glyph glyph-name="uni029D" unicode="&#x29d;" horiz-adv-x="306" 
d="M310 -105q-34 16 -71 28q-29 -142 -178 -142q-64 0 -99 30.5t-35 83.5q0 60 37.5 92t102.5 32q18 0 40 -2v513h139v-531v-6q44 -13 91 -38zM93.5 -121.5q12.5 21.5 13.5 69.5q-17 3 -40 3q-57 0 -57 -51q0 -43 42 -43q29 0 41.5 21.5zM236.5 778q23.5 -23 23.5 -58
t-23.5 -58.5t-59.5 -23.5t-59.5 23.5t-23.5 58.5t23.5 58t59.5 23t59.5 -23z" />
    <glyph glyph-name="uni029E" unicode="&#x29e;" horiz-adv-x="498" 
d="M6 0l149 234l-162 296h153l149 -290l-151 -240h-138zM300 -204v734h139v-749z" />
    <glyph glyph-name="uni029F" unicode="&#x29f;" horiz-adv-x="406" 
d="M198 530v-421h200l-14 -109h-325v530h139z" />
    <glyph glyph-name="uni02A0" unicode="&#x2a0;" horiz-adv-x="543" 
d="M632 719l-42 -85q-17 9 -30 13.5t-30 4.5q-24 0 -35.5 -14t-11.5 -45v-63h1v-749l-139 15v257q-22 -32 -54 -50.5t-73 -18.5q-88 0 -135 74t-47 207q0 84 24 147.5t68 98.5t102 35q70 0 115 -56v39h-1v59q0 78 43.5 123t123.5 45q66 0 121 -37zM307 102.5
q20 15.5 38 47.5v243q-18 25 -36.5 37.5t-41.5 12.5q-40 0 -63.5 -43t-23.5 -135q0 -99 21 -138.5t60 -39.5q26 0 46 15.5z" />
    <glyph glyph-name="uni02A1" unicode="&#x2a1;" horiz-adv-x="428" 
d="M256 304v-84h88v-86h-88v-134h-139v134h-60v86h60v132l39 14q58 21 85 55t27 100q0 65 -25 98t-72 33q-33 0 -60 -13.5t-57 -41.5l-69 69q43 46 92.5 68t110.5 22q102 0 162.5 -62t60.5 -171q0 -91 -36.5 -138t-102.5 -74z" />
    <glyph glyph-name="uni02A2" unicode="&#x2a2;" horiz-adv-x="428" 
d="M186.5 619q-25.5 -33 -25.5 -99q0 -65 27 -99t84 -55l40 -14v-132h60v-86h-60v-134h-139v134h-88v86h88v84l-16 7q-67 27 -103.5 74.5t-36.5 137.5q0 72 28.5 124.5t80 80.5t118.5 28q60 0 108 -22.5t91 -67.5l-69 -69q-29 28 -55.5 41.5t-59.5 13.5q-47 0 -72.5 -33z
" />
    <glyph glyph-name="uni02A3" unicode="&#x2a3;" horiz-adv-x="880" 
d="M864 108l-13 -108h-491l-6 63q-51 -79 -135 -79q-89 0 -136 74t-47 207q0 84 24.5 147.5t68.5 98.5t101 35q69 0 115 -53v263l139 -15v-211h375v-99l-227 -323h232zM306.5 102.5q20.5 15.5 38.5 46.5v244q-18 25 -36 37.5t-42 12.5q-41 0 -64 -42.5t-23 -135.5
q0 -97 21 -137.5t59 -40.5q26 0 46.5 15.5zM484 423v-319l224 319h-224z" />
    <glyph glyph-name="uni02A4" unicode="&#x2a4;" horiz-adv-x="915" 
d="M848 154.5q51 -50.5 51 -145.5q0 -67 -29 -118.5t-83 -80.5t-128 -29q-135 0 -212 99l75 70q33 -33 62.5 -47.5t66.5 -14.5q50 0 77 32t27 95q0 59 -28.5 84.5t-88.5 25.5h-80v85l161 215h-235v-425h-124l-6 63q-51 -79 -135 -79q-89 0 -136 74t-47 207q0 84 24.5 147.5
t68.5 98.5t101 35q69 0 115 -53v263l139 -15v-211h386v-97l-171 -222q98 -6 149 -56.5zM306.5 102.5q20.5 15.5 38.5 46.5v244q-18 25 -36 37.5t-42 12.5q-41 0 -64 -42.5t-23 -135.5q0 -97 21 -137.5t59 -40.5q26 0 46.5 15.5z" />
    <glyph glyph-name="uni02A5" unicode="&#x2a5;" horiz-adv-x="954" 
d="M780 0q-5 -38 -5 -126h-80q0 78 5 126h-340l-6 63q-51 -79 -135 -79q-89 0 -136 74t-47 207q0 84 24.5 147.5t68.5 98.5t101 35q69 0 115 -53v263l139 -15v-211h375v-95l-229 -327h86q17 75 52.5 109t88.5 34q49 0 80.5 -29.5t31.5 -81.5q0 -140 -189 -140zM306.5 102.5
q20.5 15.5 38.5 46.5v244q-18 25 -36 37.5t-42 12.5q-41 0 -64 -42.5t-23 -135.5q0 -97 21 -137.5t59 -40.5q26 0 46.5 15.5zM484 423v-316l222 316h-222zM856 116q17 8 17 30q0 14 -6.5 21.5t-19.5 7.5q-39 0 -52 -67h2q42 0 59 8z" />
    <glyph glyph-name="uni02A6" unicode="&#x2a6;" horiz-adv-x="671" 
d="M618.5 257.5q32.5 -37.5 32.5 -95.5q0 -87 -73.5 -132.5t-210.5 -45.5q-153 0 -224.5 56t-71.5 168v223h-68v99h68v116l139 16v-132h87l-15 -99h-72v-219q0 -64 37.5 -94.5t119.5 -30.5q76 0 110 16t34 50q0 26 -16.5 42t-68.5 35q-70 25 -99.5 61t-29.5 95q0 46 22 82
t62.5 57t94.5 21q94 0 163 -63l-50 -74q-55 36 -104 36q-27 0 -42.5 -14t-15.5 -37q0 -24 17.5 -40t72.5 -35q69 -24 101.5 -61.5z" />
    <glyph glyph-name="uni02A7" unicode="&#x2a7;" horiz-adv-x="536" 
d="M626 719l-42 -85q-17 9 -30 13.5t-30 4.5q-24 0 -35.5 -14t-11.5 -45v-592h1v-51q0 -82 -47.5 -125.5t-125.5 -43.5q-76 0 -128 41l49 80q17 -10 30.5 -14t31.5 -4q51 0 51 57v59q-50 -16 -95 -16q-88 0 -130.5 46t-42.5 133v268h-68v99h68v116l139 17v-133h128v58
q0 78 43.5 123t123.5 45q66 0 121 -37zM224.5 110.5q14.5 -15.5 48.5 -15.5q36 0 65 7v329h-128v-268q0 -37 14.5 -52.5z" />
    <glyph glyph-name="uni02A8" unicode="&#x2a8;" horiz-adv-x="735" 
d="M697 216.5q32 -30.5 32 -83.5q0 -71 -48.5 -110t-122.5 -39q-98 0 -162 59q-51 -32 -90 -45.5t-79 -13.5q-78 1 -117 44.5t-39 123.5v279h-68v99h68v116l139 16v-132h110l-14 -99h-96v-274q0 -33 12.5 -47.5t40.5 -14.5q39 0 82 19q-30 61 -30 147t28.5 150.5t81.5 99.5
t124 35q48 0 87 -15.5t74 -47.5l-60 -81q-45 36 -91 36q-49 0 -73.5 -40.5t-24.5 -135.5q0 -49 7 -83q38 36 72.5 52t74.5 16q50 0 82 -30.5zM631 135q0 34 -29 34q-19 0 -41.5 -13t-58.5 -44q27 -25 70 -25q59 0 59 48z" />
    <glyph glyph-name="uni02A9" unicode="&#x2a9;" horiz-adv-x="800" 
d="M708.5 504.5q35.5 -41.5 35.5 -113.5v-441q0 -82 -47.5 -125.5t-125.5 -43.5q-76 0 -128 41l49 80q17 -10 30.5 -14t31.5 -4q51 0 51 57v431q0 37 -11.5 53t-33.5 16q-45 0 -87 -73v-368h-139v431h-118v-431h-139v431h-72v99h72v57q0 76 47 122.5t134 46.5q66 0 130 -31
l-38 -91q-37 18 -75 18q-31 0 -45 -15t-14 -49v-58h239l10 -67q30 41 64.5 62t80.5 21q63 0 98.5 -41.5z" />
    <glyph glyph-name="uni02AA" unicode="&#x2aa;" horiz-adv-x="623" 
d="M116 40q-62 56 -62 157v544l139 15v-562q0 -56 32 -81.5t103 -25.5q74 0 108.5 16t34.5 49q0 18 -6.5 30t-25.5 23.5t-58 25.5q-71 25 -100.5 60.5t-29.5 95.5q0 45 22 81.5t62.5 57t93.5 20.5q46 0 87 -16t75 -46l-49 -77q-54 37 -104 37q-27 0 -42 -13.5t-15 -36.5
q0 -24 17.5 -39t71.5 -34q69 -25 101 -62.5t32 -95.5q0 -87 -72 -133t-206 -46q-147 0 -209 56z" />
    <glyph glyph-name="uni02AB" unicode="&#x2ab;" horiz-adv-x="641" 
d="M612 0h-348q-37 -16 -79 -16q-61 0 -96 36t-35 100v621l139 15v-630q0 -31 26 -31q12 0 22 4l224 324h-205v107h360v-99l-225 -323h229z" />
    <glyph glyph-name="uni02AC" unicode="&#x2ac;" horiz-adv-x="421" 
d="M394 667l-55 -267h-92l-34 195l-35 -195h-92l-59 267h72l36 -206l38 206h84l35 -207l35 207h67zM394 267l-55 -267h-92l-34 195l-35 -195h-92l-59 267h72l36 -206l38 206h84l35 -207l35 207h67z" />
    <glyph glyph-name="uni02AD" unicode="&#x2ad;" horiz-adv-x="333" 
d="M30 400v160h273v-160h-83v85h-107v-85h-83zM30 0v160h273v-160h-83v85h-107v-85h-83z" />
    <glyph glyph-name="uni02AE" unicode="&#x2ae;" horiz-adv-x="629" 
d="M570 530v-749l-139 15v265q-28 -38 -61 -57t-75 -19q-63 0 -99 41.5t-36 113.5v188h1v59q0 57 -51 57q-18 0 -31.5 -4t-30.5 -14l-49 80q52 41 128 41q78 0 125.5 -43.5t47.5 -125.5v-51h-1v-168q0 -38 12 -53.5t34 -15.5q45 0 86 73v367h139z" />
    <glyph glyph-name="uni02AF" unicode="&#x2af;" horiz-adv-x="629" 
d="M732 -178q-52 -41 -128 -41q-78 0 -125.5 43.5t-47.5 125.5v111q-28 -38 -61 -57t-75 -19q-63 0 -99 41.5t-36 113.5v188h1v59q0 57 -51 57q-18 0 -31.5 -4t-30.5 -14l-49 80q52 41 128 41q78 0 125.5 -43.5t47.5 -125.5v-51h-1v-168q0 -38 12 -53.5t34 -15.5q45 0 86 73
v367h139v-589q0 -57 51 -57q18 0 31.5 4t30.5 14z" />
    <glyph glyph-name="uni02B0" unicode="&#x2b0;" horiz-adv-x="280" 
d="M233 652.5q20 -20.5 20 -59.5v-193h-73v177q0 35 -27 35q-14 0 -26.5 -7.5t-25.5 -20.5v-184h-74v372l74 9v-143q31 35 76 35q36 0 56 -20.5z" />
    <glyph glyph-name="uni02B1" unicode="&#x2b1;" horiz-adv-x="280" 
d="M233 652.5q20 -20.5 20 -59.5v-193h-73v177q0 35 -27 35q-26 0 -52 -28v-184h-74v293q0 38 25.5 62t71.5 24q17 0 37.5 -4.5t34.5 -11.5l-20 -53q-24 8 -45 8q-16 0 -23 -6.5t-7 -23.5v-50q31 35 76 35q36 0 56 -20.5z" />
    <glyph glyph-name="uni02B2" unicode="&#x2b2;" horiz-adv-x="191" 
d="M151 793q13 -13 13 -33t-13 -33t-35 -13q-21 0 -34.5 13t-13.5 33t13.5 33t34.5 13q22 0 35 -13zM153 423q0 -58 -25 -85.5t-79 -46.5l-22 53q29 16 40.5 31t11.5 47v243h74v-242z" />
    <glyph glyph-name="uni02B4" unicode="&#x2b4;" horiz-adv-x="223" 
d="M196 666v-266h-56l-13 51q-20 -58 -70 -58q-18 0 -30 5l12 73q11 -3 24 -3q24 0 37 19.5t22 57.5v121h74z" />
    <glyph glyph-name="uni02B7" unicode="&#x2b7;" horiz-adv-x="421" 
d="M394 667l-55 -267h-92l-34 195l-35 -195h-92l-59 267h72l36 -206l38 206h84l35 -207l35 207h67z" />
    <glyph glyph-name="uni02B8" unicode="&#x2b8;" horiz-adv-x="320" 
d="M200 397q-19 -53 -50.5 -79t-90.5 -33l-9 53q38 9 55 21.5t29 40.5h-21l-86 267h75l56 -217l63 217h72z" />
    <glyph glyph-name="uni02B9" unicode="&#x2b9;" horiz-adv-x="293" 
d="M47 418l72 275h127l-107 -275h-92z" />
    <glyph glyph-name="uni02BA" unicode="&#x2ba;" horiz-adv-x="477" 
d="M47 418l72 275h127l-107 -275h-92zM230 418l72 275h127l-107 -275h-92z" />
    <glyph glyph-name="uni02BB" unicode="&#x2bb;" horiz-adv-x="215" 
d="M50.5 608.5q-20.5 21.5 -20.5 53.5q0 17 5.5 35.5t19.5 49.5l57 133h72l-38 -155q33 -24 33 -63q0 -32 -21 -53.5t-54 -21.5t-53.5 21.5z" />
    <glyph glyph-name="uni02BC" unicode="&#x2bc;" horiz-adv-x="225" 
d="M166.5 740.5q20.5 -21.5 20.5 -53.5q0 -17 -5.5 -35.5t-19.5 -49.5l-57 -133h-72l38 155q-33 24 -33 63q0 32 21 53.5t54 21.5t53.5 -21.5z" />
    <glyph glyph-name="uni02BF" unicode="&#x2bf;" horiz-adv-x="184" 
d="M154 683q-19 0 -30 13.5t-11 37.5q0 25 10.5 38.5t30.5 13.5v72q-57 0 -90.5 -35t-33.5 -89q0 -53 34 -88.5t90 -35.5v73z" />
    <glyph glyph-name="uni02C0" unicode="&#x2c0;" horiz-adv-x="268" 
d="M79 704q35 3 49.5 11.5t14.5 28.5q0 16 -9.5 24.5t-26.5 8.5q-25 0 -54 -13l-23 60q41 26 97 26q53 0 82 -26.5t29 -71.5q0 -38 -19.5 -61t-55.5 -30v-54h-84v97z" />
    <glyph glyph-name="circumflex" unicode="&#x2c6;" horiz-adv-x="399" 
d="M83 626l-50 55l127 132h85l127 -132l-51 -55l-119 90z" />
    <glyph glyph-name="caron" unicode="&#x2c7;" horiz-adv-x="399" 
d="M322 804l50 -56l-127 -132h-85l-127 132l50 56l119 -91z" />
    <glyph glyph-name="uni02C8" unicode="&#x2c8;" horiz-adv-x="182" 
d="M30 621v255h122v-255h-122z" />
    <glyph glyph-name="uni02CA" unicode="&#x2ca;" horiz-adv-x="310" 
d="M224 822l56 -103l-212 -92l-38 69z" />
    <glyph glyph-name="uni02CB" unicode="&#x2cb;" horiz-adv-x="310" 
d="M86 822l194 -126l-39 -69l-211 92z" />
    <glyph glyph-name="uni02CC" unicode="&#x2cc;" horiz-adv-x="182" 
d="M30 -322v255h122v-255h-122z" />
    <glyph glyph-name="uni02CE" unicode="&#x2ce;" horiz-adv-x="309" 
d="M83 -47l196 -118l-35 -70l-214 84z" />
    <glyph glyph-name="uni02CF" unicode="&#x2cf;" horiz-adv-x="309" 
d="M226 -46l53 -105l-213 -84l-36 70z" />
    <glyph glyph-name="uni02D0" unicode="&#x2d0;" horiz-adv-x="213" 
d="M96 328l-65 167h151l-66 -167h-20zM96 168h20l66 -168h-151z" />
    <glyph glyph-name="uni02D1" unicode="&#x2d1;" horiz-adv-x="213" 
d="M96 327l-65 167h151l-66 -167h-20z" />
    <glyph glyph-name="uni02D4" unicode="&#x2d4;" horiz-adv-x="379" 
d="M335 261v-79h-291v79h101v150h88v-150h102z" />
    <glyph glyph-name="uni02D6" unicode="&#x2d6;" horiz-adv-x="437" 
d="M270 484v-137h123v-98h-123v-137h-103v137h-123v98h123v137h103z" />
    <glyph glyph-name="uni02D7" unicode="&#x2d7;" horiz-adv-x="428" 
d="M44 251v96h340v-96h-340z" />
    <glyph glyph-name="breve" unicode="&#x2d8;" horiz-adv-x="368" 
d="M78 679.5q-40 43.5 -45 117.5l77 14q17 -78 76 -78q61 0 78 78l77 -14q-6 -74 -46 -117.5t-109 -43.5q-68 0 -108 43.5z" />
    <glyph glyph-name="dotaccent" unicode="&#x2d9;" horiz-adv-x="226" 
d="M175.5 778q23.5 -23 23.5 -58t-23.5 -58.5t-59.5 -23.5t-59.5 23.5t-23.5 58.5t23.5 58t59.5 23t59.5 -23z" />
    <glyph glyph-name="ring" unicode="&#x2da;" horiz-adv-x="307" 
d="M246.5 823q33.5 -35 33.5 -89t-33.5 -89t-89.5 -35q-57 0 -90.5 35t-33.5 89t33.5 89t90.5 35q56 0 89.5 -35zM115 734q0 -53 42 -53q41 0 41 53t-41 53q-42 0 -42 -53z" />
    <glyph glyph-name="ogonek" unicode="&#x2db;" horiz-adv-x="267" 
d="M269 0q-61 -26 -83.5 -52t-22.5 -54q0 -47 49 -47q20 0 54 8l-10 -89q-33 -7 -62 -7q-59 0 -95.5 30t-36.5 81q0 63 48 104.5t138 70.5z" />
    <glyph glyph-name="tilde" unicode="&#x2dc;" horiz-adv-x="396" 
d="M217.5 650q-14.5 7 -32.5 19q-23 18 -38 18t-25 -10t-23 -33l-69 32q17 48 47 78t67 30q21 0 35.5 -7t32.5 -19q12 -9 20.5 -13t17.5 -4q14 0 24.5 10t22.5 32l69 -33q-18 -50 -47.5 -78.5t-66.5 -28.5q-20 0 -34.5 7z" />
    <glyph glyph-name="hungarumlaut" unicode="&#x2dd;" horiz-adv-x="388" 
d="M109 851l94 -47l-101 -172l-71 30zM265 851l94 -49l-109 -174l-70 33z" />
    <glyph glyph-name="uni02DE" unicode="&#x2de;" horiz-adv-x="372" 
d="M175.5 340q-35.5 31 -40.5 86l-2 13l-104 -65v97l98 59h116v-70q0 -27 12.5 -39.5t33.5 -12.5q16 0 28.5 4t27.5 12l41 -78q-49 -37 -113 -37q-62 0 -97.5 31z" />
    <glyph glyph-name="uni02E0" unicode="&#x2e0;" horiz-adv-x="322" 
d="M198 437q32 -51 32 -86q0 -28 -17.5 -44.5t-49.5 -16.5q-33 0 -51 16t-18 45q0 38 34 87l-95 227h76l54 -181l53 181h75zM163 398q-13 -27 -13 -43q0 -14 12 -14q13 0 13 14q0 16 -12 43z" />
    <glyph glyph-name="uni02E1" unicode="&#x2e1;" horiz-adv-x="167" 
d="M46 408.5q-19 17.5 -19 52.5v311l74 8v-312q0 -14 12 -14q3 0 7 1.5t6 1.5l14 -57q-22 -9 -43 -9q-32 0 -51 17.5z" />
    </font>
</defs>
</svg>
