<?xml version="1.0" standalone="no"?>
<!DOCTYPE svg PUBLIC "-//W3C//DTD SVG 1.1//EN" "http://www.w3.org/Graphics/SVG/1.1/DTD/svg11.dtd" >
<svg xmlns="http://www.w3.org/2000/svg" xmlns:xlink="http://www.w3.org/1999/xlink" version="1.1">
<metadata>
Created by FontForge 20190801 at Fri Dec  2 09:32:37 2016
 By Unknown
Digitized data copyright 2012-2016, The Mozilla Foundation and Telefonica S.A.
</metadata>
<defs>
<font id="FiraSansCondensed-Regular" horiz-adv-x="504" >
  <font-face 
    font-family="Fira Sans Condensed"
    font-weight="400"
    font-stretch="condensed"
    units-per-em="1000"
    panose-1="2 11 5 3 5 0 0 2 0 4"
    ascent="800"
    descent="-200"
    x-height="526"
    cap-height="688"
    bbox="-683 -350 1360 1101"
    underline-thickness="50"
    underline-position="-100"
    unicode-range="U+000D-FEFF"
  />
<missing-glyph horiz-adv-x="666" 
d="M543 1050v-1400h-420v1400h420zM489 998h-311v-1296h311v1296zM409.5 419q25.5 -32 25.5 -83q0 -53 -22.5 -82t-72.5 -36v-45q0 -11 -7.5 -17.5t-17.5 -6.5t-17.5 6.5t-7.5 17.5v84q53 3 72 19.5t19 57.5q0 33 -13 51t-48 18q-29 0 -52 -11q-8 -3 -13 -3q-11 0 -17.5 6.5
t-6.5 16.5q0 19 29.5 29t63.5 10q60 0 85.5 -32zM340 110q10 -10 10 -25q0 -16 -10 -26.5t-25 -10.5t-25 10.5t-10 26.5q0 15 10 25t25 10t25 -10z" />
    <glyph glyph-name="fi" unicode="fi" horiz-adv-x="523" 
d="M395 712l-28 -61q-54 26 -108 26q-43 0 -61.5 -17.5t-18.5 -58.5v-75h263v-526h-90v458h-173v-458h-90v458h-76v68h76v77q0 66 41 106t122 40q76 0 143 -37z" />
    <glyph glyph-name="fl" unicode="fl" horiz-adv-x="546" 
d="M528 4q-34 -17 -68 -17q-48 0 -75.5 29t-27.5 82v565q-48 15 -98 15q-43 0 -61.5 -17.5t-18.5 -56.5v-78h110l-10 -68h-100v-458h-90v458h-76v68h76v79q0 65 41 104.5t118 39.5q55 0 113 -21l86 10v-638q0 -39 33 -39q14 0 28 6z" />
    <glyph glyph-name=".notdef" horiz-adv-x="666" 
d="M543 1050v-1400h-420v1400h420zM489 998h-311v-1296h311v1296zM409.5 419q25.5 -32 25.5 -83q0 -53 -22.5 -82t-72.5 -36v-45q0 -11 -7.5 -17.5t-17.5 -6.5t-17.5 6.5t-7.5 17.5v84q53 3 72 19.5t19 57.5q0 33 -13 51t-48 18q-29 0 -52 -11q-8 -3 -13 -3q-11 0 -17.5 6.5
t-6.5 16.5q0 19 29.5 29t63.5 10q60 0 85.5 -32zM340 110q10 -10 10 -25q0 -16 -10 -26.5t-25 -10.5t-25 10.5t-10 26.5q0 15 10 25t25 10t25 -10z" />
    <glyph glyph-name="nonmarkingreturn" unicode="&#xd;" horiz-adv-x="235" 
 />
    <glyph glyph-name="space" unicode=" " horiz-adv-x="235" 
 />
    <glyph glyph-name="A" unicode="A" horiz-adv-x="526" 
d="M423 0l-46 175h-231l-46 -175h-93l199 688h114l199 -688h-96zM165 248h193l-96 366z" />
    <glyph glyph-name="Aacute" unicode="&#xc1;" horiz-adv-x="526" 
d="M423 0l-46 175h-231l-46 -175h-93l199 688h114l199 -688h-96zM165 248h193l-96 366zM334 908l38 -73l-194 -79l-24 47z" />
    <glyph glyph-name="Abreve" unicode="&#x102;" horiz-adv-x="526" 
d="M423 0l-46 175h-231l-46 -175h-93l199 688h114l199 -688h-96zM165 248h193l-96 366zM170.5 792.5q-35.5 32.5 -41.5 87.5l54 12q8 -31 28 -48t51 -17t52 17t29 48l54 -12q-6 -55 -42.5 -87.5t-92.5 -32.5t-91.5 32.5z" />
    <glyph glyph-name="uni1EAE" unicode="&#x1eae;" horiz-adv-x="526" 
d="M423 0l-46 175h-231l-46 -175h-93l199 688h114l199 -688h-96zM165 248h193l-96 366zM169.5 771.5q-35.5 32.5 -41.5 87.5l54 12q8 -31 28 -48t51 -17t52 17t29 48l54 -12q-6 -55 -42.5 -87.5t-92.5 -32.5t-91.5 32.5zM336 1052l57 -49l-127 -129l-37 32z" />
    <glyph glyph-name="uni1EB6" unicode="&#x1eb6;" horiz-adv-x="526" 
d="M423 0l-46 175h-231l-46 -175h-93l199 688h114l199 -688h-96zM165 248h193l-96 366zM170.5 792.5q-35.5 32.5 -41.5 87.5l54 12q8 -31 28 -48t51 -17t52 17t29 48l54 -12q-6 -55 -42.5 -87.5t-92.5 -32.5t-91.5 32.5zM220.5 -177q-16.5 17 -16.5 42t16 41.5t43 16.5
q26 0 42.5 -16.5t16.5 -41.5t-16.5 -42t-42.5 -17t-42.5 17z" />
    <glyph glyph-name="uni1EB0" unicode="&#x1eb0;" horiz-adv-x="526" 
d="M423 0l-46 175h-231l-46 -175h-93l199 688h114l199 -688h-96zM165 248h193l-96 366zM170.5 771.5q-35.5 32.5 -41.5 87.5l54 12q8 -31 28 -48t51 -17t52 17t29 48l54 -12q-6 -55 -42.5 -87.5t-92.5 -32.5t-91.5 32.5zM195 1052l108 -146l-38 -32l-127 129z" />
    <glyph glyph-name="uni1EB2" unicode="&#x1eb2;" horiz-adv-x="526" 
d="M423 0l-46 175h-231l-46 -175h-93l199 688h114l199 -688h-96zM165 248h193l-96 366zM170.5 771.5q-35.5 32.5 -41.5 87.5l54 12q8 -31 28 -48t51 -17t52 17t29 48l54 -12q-6 -55 -42.5 -87.5t-92.5 -32.5t-91.5 32.5zM230 938q34 4 49 13t15 31q0 18 -10.5 27.5
t-29.5 9.5q-15 0 -26.5 -3t-26.5 -10l-18 47q39 23 84 23t70.5 -24.5t25.5 -64.5q0 -35 -18.5 -56t-52.5 -27v-46h-62v80z" />
    <glyph glyph-name="uni1EB4" unicode="&#x1eb4;" horiz-adv-x="526" 
d="M423 0l-46 175h-231l-46 -175h-93l199 688h114l199 -688h-96zM165 248h193l-96 366zM170.5 771.5q-35.5 32.5 -41.5 87.5l54 12q8 -31 28 -48t51 -17t52 17t29 48l54 -12q-6 -55 -42.5 -87.5t-92.5 -32.5t-91.5 32.5zM285.5 915.5q-14.5 6.5 -32.5 18.5q-10 7 -21 12.5
t-20 5.5q-15 0 -26 -9.5t-24 -31.5l-48 23q17 38 41.5 60t54.5 22q17 0 30.5 -6t31.5 -18q14 -10 24 -14.5t21 -4.5q14 0 25 10t23 32l49 -22q-16 -42 -40.5 -63t-55.5 -21q-18 0 -32.5 6.5z" />
    <glyph glyph-name="uni01CD" unicode="&#x1cd;" horiz-adv-x="526" 
d="M423 0l-46 175h-231l-46 -175h-93l199 688h114l199 -688h-96zM165 248h193l-96 366zM377 905l35 -39l-121 -112h-56l-121 112l36 39l113 -81z" />
    <glyph glyph-name="Acircumflex" unicode="&#xc2;" horiz-adv-x="526" 
d="M423 0l-46 175h-231l-46 -175h-93l199 688h114l199 -688h-96zM165 248h193l-96 366zM148 761l-35 39l122 112h55l121 -112l-35 -39l-114 81z" />
    <glyph glyph-name="uni1EA4" unicode="&#x1ea4;" horiz-adv-x="526" 
d="M423 0l-46 175h-231l-46 -175h-93l199 688h114l199 -688h-96zM165 248h193l-96 366zM148 724l-35 39l122 112h55l121 -112l-35 -39l-114 81zM454 1021l57 -49l-127 -129l-37 32z" />
    <glyph glyph-name="uni1EAC" unicode="&#x1eac;" horiz-adv-x="526" 
d="M423 0l-46 175h-231l-46 -175h-93l199 688h114l199 -688h-96zM165 248h193l-96 366zM148 761l-35 39l122 112h55l121 -112l-35 -39l-114 81zM220.5 -177q-16.5 17 -16.5 42t16 41.5t43 16.5q26 0 42.5 -16.5t16.5 -41.5t-16.5 -42t-42.5 -17t-42.5 17z" />
    <glyph glyph-name="uni1EA6" unicode="&#x1ea6;" horiz-adv-x="526" 
d="M423 0l-46 175h-231l-46 -175h-93l199 688h114l199 -688h-96zM165 248h193l-96 366zM148 724l-35 39l122 112h55l121 -112l-35 -39l-114 81zM73 1021l108 -146l-38 -32l-127 129z" />
    <glyph glyph-name="uni1EA8" unicode="&#x1ea8;" horiz-adv-x="526" 
d="M423 0l-46 175h-231l-46 -175h-93l199 688h114l199 -688h-96zM165 248h193l-96 366zM148 724l-35 39l122 112h55l121 -112l-35 -39l-114 81zM364 903q34 4 49 13t15 31q0 18 -10.5 27.5t-29.5 9.5q-15 0 -26.5 -3t-26.5 -10l-18 47q39 23 84 23t70.5 -24.5t25.5 -64.5
q0 -35 -18.5 -56t-52.5 -27v-46h-62v80z" />
    <glyph glyph-name="uni1EAA" unicode="&#x1eaa;" horiz-adv-x="526" 
d="M423 0l-46 175h-231l-46 -175h-93l199 688h114l199 -688h-96zM165 248h193l-96 366zM147 724l-35 39l122 112h55l121 -112l-35 -39l-114 81zM283.5 916.5q-14.5 6.5 -32.5 18.5q-10 7 -21 12.5t-20 5.5q-15 0 -26 -9.5t-24 -31.5l-48 23q17 38 41.5 60t54.5 22
q17 0 30.5 -6t31.5 -18q14 -10 24 -14.5t21 -4.5q14 0 25 10t23 32l49 -22q-16 -42 -40.5 -63t-55.5 -21q-18 0 -32.5 6.5z" />
    <glyph glyph-name="uni0200" unicode="&#x200;" horiz-adv-x="526" 
d="M423 0l-46 175h-231l-46 -175h-93l199 688h114l199 -688h-96zM165 248h193l-96 366zM151 953l77 -168l-50 -23l-95 155zM286 953l69 -164l-51 -22l-87 150z" />
    <glyph glyph-name="Adieresis" unicode="&#xc4;" horiz-adv-x="526" 
d="M423 0l-46 175h-231l-46 -175h-93l199 688h114l199 -688h-96zM165 248h193l-96 366zM209 873q15 -15 15 -38t-15 -38.5t-37 -15.5q-23 0 -38 15.5t-15 38.5t15 38t38 15q22 0 37 -15zM396 873q15 -15 15 -38t-15 -38.5t-37 -15.5t-37.5 15.5t-15.5 38.5t15 38t38 15
q22 0 37 -15z" />
    <glyph glyph-name="uni01DE" unicode="&#x1de;" horiz-adv-x="526" 
d="M423 0l-46 175h-231l-46 -175h-93l199 688h114l199 -688h-96zM165 248h193l-96 366zM207 837q15 -15 15 -38t-15 -38.5t-37 -15.5q-23 0 -38 15.5t-15 38.5t15 38t38 15q22 0 37 -15zM394 837q15 -15 15 -38t-15 -38.5t-37 -15.5t-37.5 15.5t-15.5 38.5t15 38t38 15
q22 0 37 -15zM385 902h-242v66h242v-66z" />
    <glyph glyph-name="uni0226" unicode="&#x226;" horiz-adv-x="526" 
d="M423 0l-46 175h-231l-46 -175h-93l199 688h114l199 -688h-96zM165 248h193l-96 366zM305.5 883q16.5 -17 16.5 -42t-16 -41.5t-43 -16.5q-26 0 -42.5 16.5t-16.5 41.5t16.5 42t42.5 17t42.5 -17z" />
    <glyph glyph-name="uni1EA0" unicode="&#x1ea0;" horiz-adv-x="526" 
d="M423 0l-46 175h-231l-46 -175h-93l199 688h114l199 -688h-96zM165 248h193l-96 366zM220.5 -177q-16.5 17 -16.5 42t16 41.5t43 16.5q26 0 42.5 -16.5t16.5 -41.5t-16.5 -42t-42.5 -17t-42.5 17z" />
    <glyph glyph-name="uni01E0" unicode="&#x1e0;" horiz-adv-x="526" 
d="M423 0l-46 175h-231l-46 -175h-93l199 688h114l199 -688h-96zM165 248h193l-96 366zM306.5 841q16.5 -17 16.5 -42t-16 -41.5t-43 -16.5q-26 0 -42.5 16.5t-16.5 41.5t16.5 42t42.5 17t42.5 -17zM385 902h-242v66h242v-66z" />
    <glyph glyph-name="Agrave" unicode="&#xc0;" horiz-adv-x="526" 
d="M423 0l-46 175h-231l-46 -175h-93l199 688h114l199 -688h-96zM165 248h193l-96 366zM187 908l181 -105l-24 -48l-194 80z" />
    <glyph glyph-name="uni1EA2" unicode="&#x1ea2;" horiz-adv-x="526" 
d="M423 0l-46 175h-231l-46 -175h-93l199 688h114l199 -688h-96zM165 248h193l-96 366zM232 848q34 4 49 13t15 31q0 18 -10.5 27.5t-29.5 9.5q-15 0 -26.5 -3t-26.5 -10l-18 47q39 23 84 23t70.5 -24.5t25.5 -64.5q0 -35 -18.5 -56t-52.5 -27v-46h-62v80z" />
    <glyph glyph-name="uni0202" unicode="&#x202;" horiz-adv-x="526" 
d="M423 0l-46 175h-231l-46 -175h-93l199 688h114l199 -688h-96zM165 248h193l-96 366zM355 885q36 -35 42 -96l-54 -12q-18 76 -81 76q-61 0 -79 -76l-54 12q6 61 41.5 96t91.5 35q57 0 93 -35z" />
    <glyph glyph-name="uni2C6D" unicode="&#x2c6d;" horiz-adv-x="617" 
d="M539 83q9 -15 32 -25l-29 -69q-41 11 -64 28.5t-33 46.5q-60 -77 -156 -77q-69 0 -123 37.5t-85 114.5t-31 191q0 119 31.5 202.5t86.5 126t124 42.5q89 0 149 -70l8 57h81v-559q0 -31 9 -46zM377.5 79.5q32.5 18.5 59.5 54.5v423q-52 70 -129 70q-74 0 -117 -71
t-43 -226q0 -269 154 -269q43 0 75.5 18.5z" />
    <glyph glyph-name="Amacron" unicode="&#x100;" horiz-adv-x="526" 
d="M423 0l-46 175h-231l-46 -175h-93l199 688h114l199 -688h-96zM165 248h193l-96 366zM384 795h-242v66h242v-66z" />
    <glyph glyph-name="Aogonek" unicode="&#x104;" horiz-adv-x="526" 
d="M393 -55.5q-24 -26.5 -24 -58.5q0 -49 53 -49q23 0 53 6l-7 -64q-33 -7 -57 -7q-53 0 -83.5 27t-30.5 73q0 47 30.5 81.5t91.5 61.5l-42 160h-231l-46 -175h-93l199 688h114l199 -688h-41q-61 -29 -85 -55.5zM165 248h193l-96 366z" />
    <glyph glyph-name="Aring" unicode="&#xc5;" horiz-adv-x="526" 
d="M423 0l-46 175h-231l-46 -175h-93l199 688h114l199 -688h-96zM165 248h193l-96 366zM338.5 932q28.5 -29 28.5 -76t-28.5 -76.5t-75.5 -29.5t-75.5 29.5t-28.5 76.5t28.5 76t75.5 29t75.5 -29zM217 856q0 -57 46 -57q47 0 47 57t-47 57q-46 0 -46 -57z" />
    <glyph glyph-name="Aringacute" unicode="&#x1fa;" horiz-adv-x="526" 
d="M423 0l-46 175h-231l-46 -175h-93l199 688h114l199 -688h-96zM165 248h193l-96 366zM337.5 909q28.5 -29 28.5 -76t-28.5 -76.5t-75.5 -29.5t-75.5 29.5t-28.5 76.5t28.5 76t75.5 29t75.5 -29zM216 833q0 -57 46 -57q47 0 47 57t-47 57q-46 0 -46 -57zM334 1101l38 -73
l-194 -79l-24 47z" />
    <glyph glyph-name="uni023A" unicode="&#x23a;" horiz-adv-x="526" 
d="M428 0l-46 175h-123l-59 -246l-40 9l56 237h-74l-47 -175h-88l199 688h114l10 -35l23 95l40 -9l-40 -166l166 -573h-91zM160 245h73l62 258l-33 122zM275 245h88l-46 174z" />
    <glyph glyph-name="Atilde" unicode="&#xc3;" horiz-adv-x="526" 
d="M423 0l-46 175h-231l-46 -175h-93l199 688h114l199 -688h-96zM165 248h193l-96 366zM285 791.5q-14 6.5 -33 19.5q-10 7 -21 12.5t-20 5.5q-15 0 -26 -10t-24 -32l-48 23q17 39 41.5 61.5t54.5 22.5q17 0 31 -6.5t31 -18.5q14 -10 24 -14.5t21 -4.5q14 0 25 10t23 33
l49 -23q-32 -85 -96 -85q-18 0 -32 6.5z" />
    <glyph glyph-name="AE" unicode="&#xc6;" horiz-adv-x="730" 
d="M486 73h207v-73h-283l-34 173h-232l-57 -173h-96l244 688h419l-11 -72h-271l48 -228h226v-72h-211zM168 246h194l-73 370z" />
    <glyph glyph-name="AEacute" unicode="&#x1fc;" horiz-adv-x="730" 
d="M486 73h207v-73h-283l-34 173h-232l-57 -173h-96l244 688h419l-11 -72h-271l48 -228h226v-72h-211zM168 246h194l-73 370zM493 908l38 -73l-194 -79l-24 47z" />
    <glyph glyph-name="uni01E2" unicode="&#x1e2;" horiz-adv-x="730" 
d="M486 73h207v-73h-283l-34 173h-232l-57 -173h-96l244 688h419l-11 -72h-271l48 -228h226v-72h-211zM168 246h194l-73 370zM543 795h-242v66h242v-66z" />
    <glyph glyph-name="B" unicode="B" horiz-adv-x="547" 
d="M509 194q0 -98 -66 -146t-182 -48h-176v688h149q119 0 183 -44t64 -129q0 -61 -33.5 -99.5t-88.5 -51.5q150 -26 150 -170zM178 617v-222h86q58 0 90.5 29.5t32.5 82.5q0 58 -35.5 84t-108.5 26h-65zM374 101.5q39 28.5 39 94.5q0 130 -141 130h-94v-253h84
q73 0 112 28.5z" />
    <glyph glyph-name="uni1E02" unicode="&#x1e02;" horiz-adv-x="547" 
d="M509 194q0 -98 -66 -146t-182 -48h-176v688h149q119 0 183 -44t64 -129q0 -61 -33.5 -99.5t-88.5 -51.5q150 -26 150 -170zM178 617v-222h86q58 0 90.5 29.5t32.5 82.5q0 58 -35.5 84t-108.5 26h-65zM374 101.5q39 28.5 39 94.5q0 130 -141 130h-94v-253h84
q73 0 112 28.5zM310.5 883q16.5 -17 16.5 -42t-16 -41.5t-43 -16.5q-26 0 -42.5 16.5t-16.5 41.5t16.5 42t42.5 17t42.5 -17z" />
    <glyph glyph-name="uni1E04" unicode="&#x1e04;" horiz-adv-x="547" 
d="M509 194q0 -98 -66 -146t-182 -48h-176v688h149q119 0 183 -44t64 -129q0 -61 -33.5 -99.5t-88.5 -51.5q150 -26 150 -170zM178 617v-222h86q58 0 90.5 29.5t32.5 82.5q0 58 -35.5 84t-108.5 26h-65zM374 101.5q39 28.5 39 94.5q0 130 -141 130h-94v-253h84
q73 0 112 28.5zM238.5 -177q-16.5 17 -16.5 42t16 41.5t43 16.5q26 0 42.5 -16.5t16.5 -41.5t-16.5 -42t-42.5 -17t-42.5 17z" />
    <glyph glyph-name="uniA7B4" unicode="&#xa7b4;" horiz-adv-x="547" 
d="M509 199q0 -98 -61.5 -148.5t-158.5 -50.5q-57 0 -111 16v-218h-93v890h150q118 0 182 -44t64 -129q0 -61 -33.5 -99.5t-88.5 -51.5q150 -26 150 -165zM377 104q36 31 36 98q0 124 -139 124h-38l8 69h28q53 0 84 29.5t31 82.5q0 59 -35.5 84.5t-107.5 25.5h-66v-532
q48 -12 103 -12q60 0 96 31z" />
    <glyph glyph-name="uni0181" unicode="&#x181;" horiz-adv-x="630" 
d="M592 194q0 -98 -66 -146t-182 -48h-176v616h-25q-55 0 -55 -54q0 -18 5 -34.5t14 -38.5l-60 -29q-18 26 -27.5 51t-9.5 58q0 54 35 86.5t102 32.5h170q119 0 183 -44t64 -129q0 -61 -33.5 -99.5t-88.5 -51.5q150 -26 150 -170zM261 617v-222h86q58 0 90.5 29.5t32.5 82.5
q0 58 -35.5 84t-108.5 26h-65zM457 101.5q39 28.5 39 94.5q0 130 -141 130h-94v-253h84q73 0 112 28.5z" />
    <glyph glyph-name="uni0181.ss02" horiz-adv-x="525" 
d="M433.5 375.5q61.5 -52.5 61.5 -155.5q0 -113 -63.5 -166.5t-177.5 -53.5h-169v688h344l-11 -75h-240v-185h82q112 0 173.5 -52.5zM362.5 106q34.5 33 34.5 113q0 72 -35 105t-106 33h-78v-284h80q70 0 104.5 33z" />
    <glyph glyph-name="uni0243" unicode="&#x243;" horiz-adv-x="556" 
d="M518 194q0 -98 -66 -146t-182 -48h-176v173h-74v61h74v454h149q119 0 183 -44t64 -129q0 -61 -33.5 -99.5t-88.5 -51.5q150 -26 150 -170zM187 617v-222h86q58 0 90.5 29.5t32.5 82.5q0 58 -35.5 84t-108.5 26h-65zM383 101.5q39 28.5 39 94.5q0 130 -141 130h-94v-92
h134v-61h-134v-100h84q73 0 112 28.5z" />
    <glyph glyph-name="uni0182" unicode="&#x182;" horiz-adv-x="525" 
d="M433.5 375.5q61.5 -52.5 61.5 -155.5q0 -113 -63.5 -166.5t-177.5 -53.5h-169v688h344l-11 -75h-240v-185h82q112 0 173.5 -52.5zM362.5 106q34.5 33 34.5 113q0 72 -35 105t-106 33h-78v-284h80q70 0 104.5 33z" />
    <glyph glyph-name="C" unicode="C" horiz-adv-x="508" 
d="M407 684.5q40 -16.5 79 -51.5l-48 -56q-29 25 -57.5 37t-62.5 12q-78 0 -124 -66.5t-46 -214.5q0 -144 46 -212.5t124 -68.5q39 0 67 14t61 41l47 -55q-75 -77 -180 -77q-77 0 -136.5 40t-93 120.5t-33.5 197.5q0 116 34.5 196t94 120t134.5 40q54 0 94 -16.5z" />
    <glyph glyph-name="Cacute" unicode="&#x106;" horiz-adv-x="508" 
d="M407 684.5q40 -16.5 79 -51.5l-48 -56q-29 25 -57.5 37t-62.5 12q-78 0 -124 -66.5t-46 -214.5q0 -144 46 -212.5t124 -68.5q39 0 67 14t61 41l47 -55q-75 -77 -180 -77q-77 0 -136.5 40t-93 120.5t-33.5 197.5q0 116 34.5 196t94 120t134.5 40q54 0 94 -16.5zM387 908
l38 -73l-194 -79l-24 47z" />
    <glyph glyph-name="Cacute.loclPLK" horiz-adv-x="508" 
d="M407 684.5q40 -16.5 79 -51.5l-48 -56q-29 25 -57.5 37t-62.5 12q-78 0 -124 -66.5t-46 -214.5q0 -144 46 -212.5t124 -68.5q39 0 67 14t61 41l47 -55q-75 -77 -180 -77q-77 0 -136.5 40t-93 120.5t-33.5 197.5q0 116 34.5 196t94 120t134.5 40q54 0 94 -16.5zM357 926
l70 -44l-117 -147l-43 26z" />
    <glyph glyph-name="Ccaron" unicode="&#x10c;" horiz-adv-x="508" 
d="M407 684.5q40 -16.5 79 -51.5l-48 -56q-29 25 -57.5 37t-62.5 12q-78 0 -124 -66.5t-46 -214.5q0 -144 46 -212.5t124 -68.5q39 0 67 14t61 41l47 -55q-75 -77 -180 -77q-77 0 -136.5 40t-93 120.5t-33.5 197.5q0 116 34.5 196t94 120t134.5 40q54 0 94 -16.5zM430 905
l35 -39l-121 -112h-56l-121 112l36 39l113 -81z" />
    <glyph glyph-name="Ccedilla" unicode="&#xc7;" horiz-adv-x="508" 
d="M337 -12v-48q44 -5 65.5 -26.5t21.5 -56.5q0 -45 -31.5 -70.5t-80.5 -25.5q-50 0 -84 24l24 46q26 -13 55 -13q21 0 33.5 10t12.5 29q0 22 -19.5 32.5t-61.5 10.5l9 89q-105 12 -168 103t-63 253q0 116 34.5 196t94 120t134.5 40q54 0 94 -16.5t79 -51.5l-48 -56
q-29 25 -57.5 37t-62.5 12q-78 0 -124 -66.5t-46 -214.5q0 -144 46 -212.5t124 -68.5q39 0 67 14t61 41l47 -55q-66 -68 -156 -76z" />
    <glyph glyph-name="Ccircumflex" unicode="&#x108;" horiz-adv-x="508" 
d="M407 684.5q40 -16.5 79 -51.5l-48 -56q-29 25 -57.5 37t-62.5 12q-78 0 -124 -66.5t-46 -214.5q0 -144 46 -212.5t124 -68.5q39 0 67 14t61 41l47 -55q-75 -77 -180 -77q-77 0 -136.5 40t-93 120.5t-33.5 197.5q0 116 34.5 196t94 120t134.5 40q54 0 94 -16.5zM201 761
l-35 39l122 112h55l121 -112l-35 -39l-114 81z" />
    <glyph glyph-name="Cdotaccent" unicode="&#x10a;" horiz-adv-x="508" 
d="M407 684.5q40 -16.5 79 -51.5l-48 -56q-29 25 -57.5 37t-62.5 12q-78 0 -124 -66.5t-46 -214.5q0 -144 46 -212.5t124 -68.5q39 0 67 14t61 41l47 -55q-75 -77 -180 -77q-77 0 -136.5 40t-93 120.5t-33.5 197.5q0 116 34.5 196t94 120t134.5 40q54 0 94 -16.5zM358.5 883
q16.5 -17 16.5 -42t-16 -41.5t-43 -16.5q-26 0 -42.5 16.5t-16.5 41.5t16.5 42t42.5 17t42.5 -17z" />
    <glyph glyph-name="uniA7B3" unicode="&#xa7b3;" horiz-adv-x="481" 
d="M294 311l184 -440h-103l-137 376l-136 -376h-98l178 436l-162 381h102l117 -321l119 321h98z" />
    <glyph glyph-name="uni0187" unicode="&#x187;" horiz-adv-x="508" 
d="M637 797l-32 -55q-18 10 -31.5 15t-32.5 5q-27 0 -41 -16t-14 -53v-60l-43 -51q-33 23 -62 33.5t-63 10.5q-78 0 -124 -66.5t-46 -214.5q0 -144 46 -212.5t124 -68.5q39 0 67 14t61 41l47 -55q-33 -34 -78 -55.5t-102 -21.5q-77 0 -136.5 40t-93 120.5t-33.5 197.5
q0 116 34.5 196t93 120t130.5 40q53 0 94 -23v15q0 67 34.5 103.5t94.5 36.5t106 -36z" />
    <glyph glyph-name="uni023B" unicode="&#x23b;" horiz-adv-x="508" 
d="M493 64q-75 -77 -180 -77q-37 0 -75 11l-16 -69l-40 9l18 75q-71 36 -110.5 120t-39.5 212q0 116 34.5 196t94 120t134.5 40q30 0 50 -4l12 51l40 -9l-13 -53q40 -15 84 -53l-48 -56q-26 23 -53 35l-128 -536q29 -12 61 -12q39 0 67 14t61 41zM221 100l124 524
q-16 2 -27 2q-78 0 -124 -66.5t-46 -214.5q0 -177 73 -245z" />
    <glyph glyph-name="D" unicode="D" horiz-adv-x="581" 
d="M382 661q66 -27 107.5 -102t41.5 -211q0 -194 -82.5 -271t-208.5 -77h-155v688h142q89 0 155 -27zM178 615v-543h68q86 0 137 59.5t51 216.5q0 110 -26.5 169t-68 78.5t-98.5 19.5h-63z" />
    <glyph glyph-name="uni01F1" unicode="&#x1f1;" horiz-adv-x="1028" 
d="M382 661q66 -27 107.5 -102t41.5 -211q0 -194 -82.5 -271t-208.5 -77h-155v688h142q89 0 155 -27zM178 615v-543h68q86 0 137 59.5t51 216.5q0 110 -26.5 169t-68 78.5t-98.5 19.5h-63zM993 688v-74l-310 -535h309l-10 -79h-401v74l312 537h-281v77h381z" />
    <glyph glyph-name="uni01C4" unicode="&#x1c4;" horiz-adv-x="1028" 
d="M382 661q66 -27 107.5 -102t41.5 -211q0 -194 -82.5 -271t-208.5 -77h-155v688h142q89 0 155 -27zM178 615v-543h68q86 0 137 59.5t51 216.5q0 110 -26.5 169t-68 78.5t-98.5 19.5h-63zM993 688v-74l-310 -535h309l-10 -79h-401v74l312 537h-281v77h381zM912 905l35 -39
l-121 -112h-56l-121 112l36 39l113 -81z" />
    <glyph glyph-name="uni0189" unicode="&#x189;" horiz-adv-x="593" 
d="M393 661q66 -27 107.5 -102t41.5 -211q0 -194 -82.5 -271t-208.5 -77h-155v320h-76v66h76v302h142q89 0 155 -27zM394 131.5q51 59.5 51 216.5q0 110 -26.5 169t-68 78.5t-98.5 19.5h-63v-229h134v-66h-134v-248h68q86 0 137 59.5z" />
    <glyph glyph-name="Eth" unicode="&#xd0;" horiz-adv-x="593" 
d="M393 661q66 -27 107.5 -102t41.5 -211q0 -194 -82.5 -271t-208.5 -77h-155v320h-76v66h76v302h142q89 0 155 -27zM394 131.5q51 59.5 51 216.5q0 110 -26.5 169t-68 78.5t-98.5 19.5h-63v-229h134v-66h-134v-248h68q86 0 137 59.5z" />
    <glyph glyph-name="Dcaron" unicode="&#x10e;" horiz-adv-x="581" 
d="M382 661q66 -27 107.5 -102t41.5 -211q0 -194 -82.5 -271t-208.5 -77h-155v688h142q89 0 155 -27zM178 615v-543h68q86 0 137 59.5t51 216.5q0 110 -26.5 169t-68 78.5t-98.5 19.5h-63zM384 905l35 -39l-121 -112h-56l-121 112l36 39l113 -81z" />
    <glyph glyph-name="uni1E12" unicode="&#x1e12;" horiz-adv-x="581" 
d="M382 661q66 -27 107.5 -102t41.5 -211q0 -194 -82.5 -271t-208.5 -77h-155v688h142q89 0 155 -27zM178 615v-543h68q86 0 137 59.5t51 216.5q0 110 -26.5 169t-68 78.5t-98.5 19.5h-63zM160 -223l-35 38l121 117h56l121 -117l-35 -38l-114 85z" />
    <glyph glyph-name="Dcroat" unicode="&#x110;" horiz-adv-x="593" 
d="M393 661q66 -27 107.5 -102t41.5 -211q0 -194 -82.5 -271t-208.5 -77h-155v320h-76v66h76v302h142q89 0 155 -27zM394 131.5q51 59.5 51 216.5q0 110 -26.5 169t-68 78.5t-98.5 19.5h-63v-229h134v-66h-134v-248h68q86 0 137 59.5z" />
    <glyph glyph-name="uni1E0A" unicode="&#x1e0a;" horiz-adv-x="581" 
d="M382 661q66 -27 107.5 -102t41.5 -211q0 -194 -82.5 -271t-208.5 -77h-155v688h142q89 0 155 -27zM178 615v-543h68q86 0 137 59.5t51 216.5q0 110 -26.5 169t-68 78.5t-98.5 19.5h-63zM312.5 883q16.5 -17 16.5 -42t-16 -41.5t-43 -16.5q-26 0 -42.5 16.5t-16.5 41.5
t16.5 42t42.5 17t42.5 -17z" />
    <glyph glyph-name="uni1E0C" unicode="&#x1e0c;" horiz-adv-x="581" 
d="M382 661q66 -27 107.5 -102t41.5 -211q0 -194 -82.5 -271t-208.5 -77h-155v688h142q89 0 155 -27zM178 615v-543h68q86 0 137 59.5t51 216.5q0 110 -26.5 169t-68 78.5t-98.5 19.5h-63zM231.5 -177q-16.5 17 -16.5 42t16 41.5t43 16.5q26 0 42.5 -16.5t16.5 -41.5
t-16.5 -42t-42.5 -17t-42.5 17z" />
    <glyph glyph-name="uni018A" unicode="&#x18a;" horiz-adv-x="664" 
d="M465 661q66 -27 107.5 -102t41.5 -211q0 -194 -82.5 -271t-208.5 -77h-155v616h-25q-55 0 -55 -54q0 -18 5 -34.5t14 -38.5l-60 -29q-18 26 -27.5 51t-9.5 58q0 54 35 86.5t102 32.5h163q89 0 155 -27zM466 131.5q51 59.5 51 216.5q0 110 -26.5 169t-68 78.5t-98.5 19.5
h-63v-543h68q86 0 137 59.5z" />
    <glyph glyph-name="uni1E0E" unicode="&#x1e0e;" horiz-adv-x="581" 
d="M382 661q66 -27 107.5 -102t41.5 -211q0 -194 -82.5 -271t-208.5 -77h-155v688h142q89 0 155 -27zM178 615v-543h68q86 0 137 59.5t51 216.5q0 110 -26.5 169t-68 78.5t-98.5 19.5h-63zM395 -170h-242v66h242v-66z" />
    <glyph glyph-name="uni018B" unicode="&#x18b;" horiz-adv-x="525" 
d="M440 687v-687h-172q-112 0 -175 52t-63 160q0 105 62.5 160.5t177.5 55.5h77v185h-246v75h340zM347 73v284h-73q-74 0 -110.5 -35t-36.5 -110q0 -77 36.5 -108t108.5 -31h75z" />
    <glyph glyph-name="uni01F2" unicode="&#x1f2;" horiz-adv-x="966" 
d="M382 661q66 -27 107.5 -102t41.5 -211q0 -194 -82.5 -271t-208.5 -77h-155v688h142q89 0 155 -27zM178 615v-543h68q86 0 137 59.5t51 216.5q0 110 -26.5 169t-68 78.5t-98.5 19.5h-63zM939 526v-67l-249 -385h250l-9 -74h-340v67l249 385h-228v74h327z" />
    <glyph glyph-name="uni01C5" unicode="&#x1c5;" horiz-adv-x="966" 
d="M382 661q66 -27 107.5 -102t41.5 -211q0 -194 -82.5 -271t-208.5 -77h-155v688h142q89 0 155 -27zM178 615v-543h68q86 0 137 59.5t51 216.5q0 110 -26.5 169t-68 78.5t-98.5 19.5h-63zM939 526v-67l-249 -385h250l-9 -74h-340v67l249 385h-228v74h327zM886 783l35 -40
l-121 -116h-56l-121 116l35 40l114 -88z" />
    <glyph glyph-name="E" unicode="E" horiz-adv-x="469" 
d="M427 688l-11 -72h-238v-227h207v-72h-207v-244h252v-73h-345v688h342z" />
    <glyph glyph-name="Eacute" unicode="&#xc9;" horiz-adv-x="469" 
d="M427 688l-11 -72h-238v-227h207v-72h-207v-244h252v-73h-345v688h342zM329 908l38 -73l-194 -79l-24 47z" />
    <glyph glyph-name="Ebreve" unicode="&#x114;" horiz-adv-x="469" 
d="M427 688l-11 -72h-238v-227h207v-72h-207v-244h252v-73h-345v688h342zM165.5 792.5q-35.5 32.5 -41.5 87.5l54 12q8 -31 28 -48t51 -17t52 17t29 48l54 -12q-6 -55 -42.5 -87.5t-92.5 -32.5t-91.5 32.5z" />
    <glyph glyph-name="Ecaron" unicode="&#x11a;" horiz-adv-x="469" 
d="M427 688l-11 -72h-238v-227h207v-72h-207v-244h252v-73h-345v688h342zM372 905l35 -39l-121 -112h-56l-121 112l36 39l113 -81z" />
    <glyph glyph-name="uni0228" unicode="&#x228;" horiz-adv-x="469" 
d="M281 0v-60q44 -5 65.5 -26.5t21.5 -56.5q0 -45 -31.5 -70.5t-80.5 -25.5q-50 0 -84 24l24 46q26 -13 55 -13q21 0 33.5 10t12.5 29q0 22 -19.5 32.5t-61.5 10.5l10 100h-141v688h342l-11 -72h-238v-227h207v-72h-207v-244h252v-73h-149z" />
    <glyph glyph-name="Ecircumflex" unicode="&#xca;" horiz-adv-x="469" 
d="M427 688l-11 -72h-238v-227h207v-72h-207v-244h252v-73h-345v688h342zM143 761l-35 39l122 112h55l121 -112l-35 -39l-114 81z" />
    <glyph glyph-name="uni1EBE" unicode="&#x1ebe;" horiz-adv-x="469" 
d="M427 688l-11 -72h-238v-227h207v-72h-207v-244h252v-73h-345v688h342zM143 724l-35 39l122 112h55l121 -112l-35 -39l-114 81zM449 1021l57 -49l-127 -129l-37 32z" />
    <glyph glyph-name="uni1EC6" unicode="&#x1ec6;" horiz-adv-x="469" 
d="M427 688l-11 -72h-238v-227h207v-72h-207v-244h252v-73h-345v688h342zM143 761l-35 39l122 112h55l121 -112l-35 -39l-114 81zM214.5 -177q-16.5 17 -16.5 42t16 41.5t43 16.5q26 0 42.5 -16.5t16.5 -41.5t-16.5 -42t-42.5 -17t-42.5 17z" />
    <glyph glyph-name="uni1EC0" unicode="&#x1ec0;" horiz-adv-x="469" 
d="M427 688l-11 -72h-238v-227h207v-72h-207v-244h252v-73h-345v688h342zM143 724l-35 39l122 112h55l121 -112l-35 -39l-114 81zM68 1021l108 -146l-38 -32l-127 129z" />
    <glyph glyph-name="uni1EC2" unicode="&#x1ec2;" horiz-adv-x="469" 
d="M427 688l-11 -72h-238v-227h207v-72h-207v-244h252v-73h-345v688h342zM143 724l-35 39l122 112h55l121 -112l-35 -39l-114 81zM359 903q34 4 49 13t15 31q0 18 -10.5 27.5t-29.5 9.5q-15 0 -26.5 -3t-26.5 -10l-18 47q39 23 84 23t70.5 -24.5t25.5 -64.5q0 -35 -18.5 -56
t-52.5 -27v-46h-62v80z" />
    <glyph glyph-name="uni1EC4" unicode="&#x1ec4;" horiz-adv-x="469" 
d="M427 688l-11 -72h-238v-227h207v-72h-207v-244h252v-73h-345v688h342zM142 724l-35 39l122 112h55l121 -112l-35 -39l-114 81zM278.5 916.5q-14.5 6.5 -32.5 18.5q-10 7 -21 12.5t-20 5.5q-15 0 -26 -9.5t-24 -31.5l-48 23q17 38 41.5 60t54.5 22q17 0 30.5 -6t31.5 -18
q14 -10 24 -14.5t21 -4.5q14 0 25 10t23 32l49 -22q-16 -42 -40.5 -63t-55.5 -21q-18 0 -32.5 6.5z" />
    <glyph glyph-name="uni0204" unicode="&#x204;" horiz-adv-x="469" 
d="M427 688l-11 -72h-238v-227h207v-72h-207v-244h252v-73h-345v688h342zM146 953l77 -168l-50 -23l-95 155zM281 953l69 -164l-51 -22l-87 150z" />
    <glyph glyph-name="Edieresis" unicode="&#xcb;" horiz-adv-x="469" 
d="M427 688l-11 -72h-238v-227h207v-72h-207v-244h252v-73h-345v688h342zM204 873q15 -15 15 -38t-15 -38.5t-37 -15.5q-23 0 -38 15.5t-15 38.5t15 38t38 15q22 0 37 -15zM391 873q15 -15 15 -38t-15 -38.5t-37 -15.5t-37.5 15.5t-15.5 38.5t15 38t38 15q22 0 37 -15z" />
    <glyph glyph-name="Edotaccent" unicode="&#x116;" horiz-adv-x="469" 
d="M427 688l-11 -72h-238v-227h207v-72h-207v-244h252v-73h-345v688h342zM300.5 883q16.5 -17 16.5 -42t-16 -41.5t-43 -16.5q-26 0 -42.5 16.5t-16.5 41.5t16.5 42t42.5 17t42.5 -17z" />
    <glyph glyph-name="uni1EB8" unicode="&#x1eb8;" horiz-adv-x="469" 
d="M427 688l-11 -72h-238v-227h207v-72h-207v-244h252v-73h-345v688h342zM214.5 -177q-16.5 17 -16.5 42t16 41.5t43 16.5q26 0 42.5 -16.5t16.5 -41.5t-16.5 -42t-42.5 -17t-42.5 17z" />
    <glyph glyph-name="Egrave" unicode="&#xc8;" horiz-adv-x="469" 
d="M427 688l-11 -72h-238v-227h207v-72h-207v-244h252v-73h-345v688h342zM182 908l181 -105l-24 -48l-194 80z" />
    <glyph glyph-name="uni1EBA" unicode="&#x1eba;" horiz-adv-x="469" 
d="M427 688l-11 -72h-238v-227h207v-72h-207v-244h252v-73h-345v688h342zM227 848q34 4 49 13t15 31q0 18 -10.5 27.5t-29.5 9.5q-15 0 -26.5 -3t-26.5 -10l-18 47q39 23 84 23t70.5 -24.5t25.5 -64.5q0 -35 -18.5 -56t-52.5 -27v-46h-62v80z" />
    <glyph glyph-name="uni0206" unicode="&#x206;" horiz-adv-x="469" 
d="M427 688l-11 -72h-238v-227h207v-72h-207v-244h252v-73h-345v688h342zM350 885q36 -35 42 -96l-54 -12q-18 76 -81 76q-61 0 -79 -76l-54 12q6 61 41.5 96t91.5 35q57 0 93 -35z" />
    <glyph glyph-name="Emacron" unicode="&#x112;" horiz-adv-x="469" 
d="M427 688l-11 -72h-238v-227h207v-72h-207v-244h252v-73h-345v688h342zM379 795h-242v66h242v-66z" />
    <glyph glyph-name="Eogonek" unicode="&#x118;" horiz-adv-x="469" 
d="M430 73v-73h-31q-61 -29 -85 -55.5t-24 -58.5q0 -49 53 -49q23 0 53 6l-7 -64q-33 -7 -57 -7q-53 0 -83.5 27t-30.5 73q0 40 23 71.5t68 56.5h-224v688h342l-11 -72h-238v-227h207v-72h-207v-244h252z" />
    <glyph glyph-name="uni0190" unicode="&#x190;" horiz-adv-x="475" 
d="M358 679.5q48 -21.5 90 -64.5l-48 -51q-68 63 -138 63q-53 0 -81 -30t-28 -79q0 -54 32.5 -85t87.5 -31h58l-11 -74l-48 1q-67 0 -101.5 -33.5t-34.5 -96.5q0 -65 35 -100.5t97 -35.5q44 0 78.5 17t66.5 50l53 -49q-80 -94 -203 -94q-65 0 -116 25.5t-80 73t-29 111.5
q0 76 40.5 119.5t105.5 52.5q-60 14 -93.5 53.5t-33.5 102.5q0 50 24 90t68 63t104 23q57 0 105 -21.5z" />
    <glyph glyph-name="uni018E" unicode="&#x18e;" horiz-adv-x="469" 
d="M45 688h340v-688h-346v73h253v244h-208v72h208v227h-247v72z" />
    <glyph glyph-name="uni01A9" unicode="&#x1a9;" horiz-adv-x="450" 
d="M417 688v-74h-283l180 -248v-51l-181 -240h284v-75h-384v71l200 269l-200 277v71h384z" />
    <glyph glyph-name="uni0246" unicode="&#x246;" horiz-adv-x="469" 
d="M430 73v-73h-212l-17 -71l-40 9l15 62h-91v688h252l14 60l39 -8l-12 -52h49l-11 -72h-55l-53 -227h77v-72h-94l-56 -244h195zM178 616v-227h89l53 227h-142zM178 73h15l57 244h-72v-244z" />
    <glyph glyph-name="uni1EBC" unicode="&#x1ebc;" horiz-adv-x="469" 
d="M427 688l-11 -72h-238v-227h207v-72h-207v-244h252v-73h-345v688h342zM280 791.5q-14 6.5 -33 19.5q-10 7 -21 12.5t-20 5.5q-15 0 -26 -10t-24 -32l-48 23q17 39 41.5 61.5t54.5 22.5q17 0 31 -6.5t31 -18.5q14 -10 24 -14.5t21 -4.5q14 0 25 10t23 33l49 -23
q-32 -85 -96 -85q-18 0 -32 6.5z" />
    <glyph glyph-name="uni01B7" unicode="&#x1b7;" horiz-adv-x="461" 
d="M374 343.5q54 -49.5 54 -147.5q0 -61 -26.5 -108.5t-76.5 -74t-118 -26.5q-67 0 -115 22.5t-84 68.5l54 47q31 -33 63 -48t76 -15q64 0 97.5 36t33.5 100q0 70 -34.5 100.5t-104.5 30.5h-79v63l189 222h-267v74h367v-72l-192 -223h2q107 0 161 -49.5z" />
    <glyph glyph-name="uni01EE" unicode="&#x1ee;" horiz-adv-x="461" 
d="M374 343.5q54 -49.5 54 -147.5q0 -61 -26.5 -108.5t-76.5 -74t-118 -26.5q-67 0 -115 22.5t-84 68.5l54 47q31 -33 63 -48t76 -15q64 0 97.5 36t33.5 100q0 70 -34.5 100.5t-104.5 30.5h-79v63l189 222h-267v74h367v-72l-192 -223h2q107 0 161 -49.5zM333 905l35 -39
l-121 -112h-56l-121 112l36 39l113 -81z" />
    <glyph glyph-name="uni01B8" unicode="&#x1b8;" horiz-adv-x="461" 
d="M453 78q-38 -46 -86.5 -68.5t-116.5 -22.5q-100 0 -158.5 56t-58.5 148q0 98 55.5 150t161.5 52h1l-192 223v72h366v-74h-266l189 -222v-63h-80q-70 0 -104.5 -32.5t-34.5 -103.5q0 -63 32.5 -97t92.5 -34q46 0 79.5 14.5t66.5 48.5z" />
    <glyph glyph-name="F" unicode="F" horiz-adv-x="438" 
d="M85 0v688h334l-10 -72h-231v-240h200v-72h-200v-304h-93z" />
    <glyph glyph-name="uni1E1E" unicode="&#x1e1e;" horiz-adv-x="438" 
d="M85 0v688h334l-10 -72h-231v-240h200v-72h-200v-304h-93zM303.5 883q16.5 -17 16.5 -42t-16 -41.5t-43 -16.5q-26 0 -42.5 16.5t-16.5 41.5t16.5 42t42.5 17t42.5 -17z" />
    <glyph glyph-name="uni0191" unicode="&#x191;" horiz-adv-x="438" 
d="M178 616v-240h200v-72h-200v-372q0 -70 -38.5 -106.5t-101.5 -36.5q-61 0 -108 37l36 55q16 -10 30.5 -14.5t34.5 -4.5q54 0 54 67v759h334l-10 -72h-231z" />
    <glyph glyph-name="G" unicode="G" horiz-adv-x="573" 
d="M425.5 682.5q43.5 -18.5 85.5 -56.5l-50 -52q-34 28 -65 40.5t-70 12.5q-78 0 -128 -66.5t-50 -215.5q0 -152 42 -217.5t126 -65.5q62 0 112 30v215h-105l-10 73h205v-331q-95 -62 -202 -62q-128 0 -197 89.5t-69 269.5q0 116 37 196t99.5 119.5t137.5 39.5
q58 0 101.5 -18.5z" />
    <glyph glyph-name="uni01F4" unicode="&#x1f4;" horiz-adv-x="573" 
d="M425.5 682.5q43.5 -18.5 85.5 -56.5l-50 -52q-34 28 -65 40.5t-70 12.5q-78 0 -128 -66.5t-50 -215.5q0 -152 42 -217.5t126 -65.5q62 0 112 30v215h-105l-10 73h205v-331q-95 -62 -202 -62q-128 0 -197 89.5t-69 269.5q0 116 37 196t99.5 119.5t137.5 39.5
q58 0 101.5 -18.5zM391 908l38 -73l-194 -79l-24 47z" />
    <glyph glyph-name="uni0194" unicode="&#x194;" horiz-adv-x="508" 
d="M307 69q31 -66 43.5 -103.5t12.5 -76.5q0 -47 -27.5 -73.5t-80.5 -26.5t-80 26t-27 73q0 35 12.5 73.5t43.5 107.5l-197 619h96l153 -555l153 555h92zM278.5 -56q-7.5 27 -23.5 68q-16 -41 -23.5 -68t-7.5 -50q0 -37 31 -37t31 37q0 23 -7.5 50z" />
    <glyph glyph-name="Gbreve" unicode="&#x11e;" horiz-adv-x="573" 
d="M425.5 682.5q43.5 -18.5 85.5 -56.5l-50 -52q-34 28 -65 40.5t-70 12.5q-78 0 -128 -66.5t-50 -215.5q0 -152 42 -217.5t126 -65.5q62 0 112 30v215h-105l-10 73h205v-331q-95 -62 -202 -62q-128 0 -197 89.5t-69 269.5q0 116 37 196t99.5 119.5t137.5 39.5
q58 0 101.5 -18.5zM227.5 792.5q-35.5 32.5 -41.5 87.5l54 12q8 -31 28 -48t51 -17t52 17t29 48l54 -12q-6 -55 -42.5 -87.5t-92.5 -32.5t-91.5 32.5z" />
    <glyph glyph-name="Gcaron" unicode="&#x1e6;" horiz-adv-x="573" 
d="M425.5 682.5q43.5 -18.5 85.5 -56.5l-50 -52q-34 28 -65 40.5t-70 12.5q-78 0 -128 -66.5t-50 -215.5q0 -152 42 -217.5t126 -65.5q62 0 112 30v215h-105l-10 73h205v-331q-95 -62 -202 -62q-128 0 -197 89.5t-69 269.5q0 116 37 196t99.5 119.5t137.5 39.5
q58 0 101.5 -18.5zM434 905l35 -39l-121 -112h-56l-121 112l36 39l113 -81z" />
    <glyph glyph-name="Gcircumflex" unicode="&#x11c;" horiz-adv-x="573" 
d="M425.5 682.5q43.5 -18.5 85.5 -56.5l-50 -52q-34 28 -65 40.5t-70 12.5q-78 0 -128 -66.5t-50 -215.5q0 -152 42 -217.5t126 -65.5q62 0 112 30v215h-105l-10 73h205v-331q-95 -62 -202 -62q-128 0 -197 89.5t-69 269.5q0 116 37 196t99.5 119.5t137.5 39.5
q58 0 101.5 -18.5zM205 761l-35 39l122 112h55l121 -112l-35 -39l-114 81z" />
    <glyph glyph-name="Gcommaaccent" unicode="&#x122;" horiz-adv-x="573" 
d="M425.5 682.5q43.5 -18.5 85.5 -56.5l-50 -52q-34 28 -65 40.5t-70 12.5q-78 0 -128 -66.5t-50 -215.5q0 -152 42 -217.5t126 -65.5q62 0 112 30v215h-105l-10 73h205v-331q-95 -62 -202 -62q-128 0 -197 89.5t-69 269.5q0 116 37 196t99.5 119.5t137.5 39.5
q58 0 101.5 -18.5zM350.5 -94q14.5 -15 14.5 -39q0 -13 -4.5 -28t-17.5 -45l-38 -88h-49l29 115q-26 17 -26 46q0 23 15 38.5t38 15.5q24 0 38.5 -15z" />
    <glyph glyph-name="Gdotaccent" unicode="&#x120;" horiz-adv-x="573" 
d="M425.5 682.5q43.5 -18.5 85.5 -56.5l-50 -52q-34 28 -65 40.5t-70 12.5q-78 0 -128 -66.5t-50 -215.5q0 -152 42 -217.5t126 -65.5q62 0 112 30v215h-105l-10 73h205v-331q-95 -62 -202 -62q-128 0 -197 89.5t-69 269.5q0 116 37 196t99.5 119.5t137.5 39.5
q58 0 101.5 -18.5zM362.5 883q16.5 -17 16.5 -42t-16 -41.5t-43 -16.5q-26 0 -42.5 16.5t-16.5 41.5t16.5 42t42.5 17t42.5 -17z" />
    <glyph glyph-name="uni0193" unicode="&#x193;" horiz-adv-x="533" 
d="M662 797l-32 -55q-18 10 -31.5 15t-32.5 5q-27 0 -41 -16t-14 -53v-67l-45 -47q-36 25 -68.5 36.5t-71.5 11.5q-78 0 -128 -66.5t-50 -215.5q0 -152 42 -217.5t126 -65.5q62 0 112 30v215h-105l-10 73h205v-331q-95 -62 -203 -62q-127 0 -196 89.5t-69 269.5
q0 115 37 195.5t98 120t133 39.5q62 0 109 -26v18q0 67 34.5 103.5t94.5 36.5t106 -36z" />
    <glyph glyph-name="uni0241" unicode="&#x241;" horiz-adv-x="428" 
d="M136 315l59 18q59 18 87.5 52.5t28.5 102.5q0 63 -30.5 101t-84.5 38q-38 0 -71.5 -15.5t-68.5 -46.5l-48 50q44 43 91 64.5t104 21.5q62 0 108.5 -26.5t71.5 -74.5t25 -109q0 -93 -40 -138t-112 -68l-27 -9v-276h-93v315z" />
    <glyph glyph-name="uni01E4" unicode="&#x1e4;" horiz-adv-x="584" 
d="M582 181h-64v-132q-95 -62 -204 -62q-126 0 -195 91t-69 268q0 113 37.5 193.5t99.5 121t136 40.5q59 0 103 -18.5t85 -56.5l-51 -54q-33 29 -63.5 42t-69.5 13q-77 0 -128 -69t-51 -213q0 -148 42.5 -215.5t125.5 -67.5q63 0 115 31v88h-108v67h108v65h-109l-9 70h205
v-135h64v-67z" />
    <glyph glyph-name="uni021C" unicode="&#x21c;" horiz-adv-x="457" 
d="M348.5 650.5q51.5 -50.5 51.5 -130.5q0 -131 -131 -161q70 -8 110.5 -47.5t40.5 -113.5q0 -222 -359 -297l-8 75q102 26 161 58t83.5 72t24.5 93q0 120 -138 120l-58 -1l11 74h48q55 0 87 31.5t32 88.5q0 53 -26.5 84t-79.5 31q-37 0 -71.5 -16t-70.5 -47l-46 51
q86 86 197 86q90 0 141.5 -50.5z" />
    <glyph glyph-name="H" unicode="H" horiz-adv-x="606" 
d="M428 0v323h-250v-323h-93v688h93v-289h250v289h93v-688h-93z" />
    <glyph glyph-name="Hbar" unicode="&#x126;" horiz-adv-x="612" 
d="M581 571v-62h-56v-509h-93v323h-250v-323h-93v509h-58v62h58v117h93v-117h250v117h93v-117h56zM432 399v110h-250v-110h250z" />
    <glyph glyph-name="uni021E" unicode="&#x21e;" horiz-adv-x="606" 
d="M428 0v323h-250v-323h-93v688h93v-289h250v289h93v-688h-93zM417 905l35 -39l-121 -112h-56l-121 112l36 39l113 -81z" />
    <glyph glyph-name="Hcircumflex" unicode="&#x124;" horiz-adv-x="606" 
d="M428 0v323h-250v-323h-93v688h93v-289h250v289h93v-688h-93zM188 761l-35 39l122 112h55l121 -112l-35 -39l-114 81z" />
    <glyph glyph-name="uni1E24" unicode="&#x1e24;" horiz-adv-x="606" 
d="M428 0v323h-250v-323h-93v688h93v-289h250v289h93v-688h-93zM260.5 -177q-16.5 17 -16.5 42t16 41.5t43 16.5q26 0 42.5 -16.5t16.5 -41.5t-16.5 -42t-42.5 -17t-42.5 17z" />
    <glyph glyph-name="uniA7AA" unicode="&#xa7aa;" horiz-adv-x="689" 
d="M604 688v-688h-93v323h-250v-323h-93v616h-25q-55 0 -55 -54q0 -18 5 -34.5t14 -38.5l-60 -29q-18 26 -27.5 51t-9.5 58q0 54 35 86.5t102 32.5h114v-289h250v289h93z" />
    <glyph glyph-name="uniA78D" unicode="&#xa78d;" horiz-adv-x="548" 
d="M463 688v-688h-93v281q-35 -33 -71 -48.5t-84 -15.5q-81 0 -131.5 51.5t-50.5 142.5v277h93v-271q0 -124 111 -124q81 0 133 61v334h93z" />
    <glyph glyph-name="uniA78D.ss02" horiz-adv-x="536" 
d="M358 0v263h-318v425h93v-349h225v349h93v-688h-93z" />
    <glyph glyph-name="uni01F6" unicode="&#x1f6;" horiz-adv-x="868" 
d="M807 260q0 -95 -29 -156t-76 -89t-104 -28q-74 0 -122 44t-48 123v169h-250v-323h-93v688h93v-289h250v289h93v-531q0 -49 21.5 -73.5t59.5 -24.5q49 0 82 46t33 158q0 117 -24 263h89q25 -148 25 -266z" />
    <glyph glyph-name="I" unicode="I" horiz-adv-x="262" 
d="M178 688v-688h-93v688h93z" />
    <glyph glyph-name="IJ" unicode="&#x132;" horiz-adv-x="535" 
d="M178 688v-688h-93v688h93zM455 96q0 -68 -19.5 -112t-55 -71t-91.5 -48l-25 66q41 20 61.5 40.5t28.5 50t8 78.5v588h93v-592z" />
    <glyph glyph-name="Iacute" unicode="&#xcd;" horiz-adv-x="262" 
d="M178 688v-688h-93v688h93zM202 908l38 -73l-194 -79l-24 47z" />
    <glyph glyph-name="Ibreve" unicode="&#x12c;" horiz-adv-x="262" 
d="M178 688v-688h-93v688h93zM38.5 792.5q-35.5 32.5 -41.5 87.5l54 12q8 -31 28 -48t51 -17t52 17t29 48l54 -12q-6 -55 -42.5 -87.5t-92.5 -32.5t-91.5 32.5z" />
    <glyph glyph-name="uni01CF" unicode="&#x1cf;" horiz-adv-x="262" 
d="M178 688v-688h-93v688h93zM245 905l35 -39l-121 -112h-56l-121 112l36 39l113 -81z" />
    <glyph glyph-name="Icircumflex" unicode="&#xce;" horiz-adv-x="262" 
d="M178 688v-688h-93v688h93zM16 761l-35 39l122 112h55l121 -112l-35 -39l-114 81z" />
    <glyph glyph-name="uni0208" unicode="&#x208;" horiz-adv-x="262" 
d="M178 688v-688h-93v688h93zM19 953l77 -168l-50 -23l-95 155zM154 953l69 -164l-51 -22l-87 150z" />
    <glyph glyph-name="Idieresis" unicode="&#xcf;" horiz-adv-x="262" 
d="M178 688v-688h-93v688h93zM77 873q15 -15 15 -38t-15 -38.5t-37 -15.5q-23 0 -38 15.5t-15 38.5t15 38t38 15q22 0 37 -15zM264 873q15 -15 15 -38t-15 -38.5t-37 -15.5t-37.5 15.5t-15.5 38.5t15 38t38 15q22 0 37 -15z" />
    <glyph glyph-name="uni1E2E" unicode="&#x1e2e;" horiz-adv-x="262" 
d="M178 688v-688h-93v688h93zM204 1011l57 -49l-127 -129l-37 32zM73 837.5q15 -15.5 15 -38.5t-15 -38t-37 -15q-23 0 -38 15t-15 38t15 38.5t38 15.5q22 0 37 -15.5zM263 837.5q15 -15.5 15 -38.5t-15 -38t-37 -15t-37.5 15.5t-15.5 37.5q0 23 15.5 38.5t37.5 15.5
t37 -15.5z" />
    <glyph glyph-name="Idotaccent" unicode="&#x130;" horiz-adv-x="262" 
d="M178 688v-688h-93v688h93zM173.5 883q16.5 -17 16.5 -42t-16 -41.5t-43 -16.5q-26 0 -42.5 16.5t-16.5 41.5t16.5 42t42.5 17t42.5 -17z" />
    <glyph glyph-name="uni1ECA" unicode="&#x1eca;" horiz-adv-x="262" 
d="M178 688v-688h-93v688h93zM88.5 -177q-16.5 17 -16.5 42t16 41.5t43 16.5q26 0 42.5 -16.5t16.5 -41.5t-16.5 -42t-42.5 -17t-42.5 17z" />
    <glyph glyph-name="Igrave" unicode="&#xcc;" horiz-adv-x="262" 
d="M178 688v-688h-93v688h93zM55 908l181 -105l-24 -48l-194 80z" />
    <glyph glyph-name="uni1EC8" unicode="&#x1ec8;" horiz-adv-x="262" 
d="M178 688v-688h-93v688h93zM100 848q34 4 49 13t15 31q0 18 -10.5 27.5t-29.5 9.5q-15 0 -26.5 -3t-26.5 -10l-18 47q39 23 84 23t70.5 -24.5t25.5 -64.5q0 -35 -18.5 -56t-52.5 -27v-46h-62v80z" />
    <glyph glyph-name="uni020A" unicode="&#x20a;" horiz-adv-x="262" 
d="M178 688v-688h-93v688h93zM223 885q36 -35 42 -96l-54 -12q-18 76 -81 76q-61 0 -79 -76l-54 12q6 61 41.5 96t91.5 35q57 0 93 -35z" />
    <glyph glyph-name="Imacron" unicode="&#x12a;" horiz-adv-x="262" 
d="M178 688v-688h-93v688h93zM252 795h-242v66h242v-66z" />
    <glyph glyph-name="Iogonek" unicode="&#x12e;" horiz-adv-x="262" 
d="M178 688v-688h-14q-61 -29 -85 -55.5t-24 -58.5q0 -49 53 -49q23 0 53 6l-7 -64q-33 -7 -57 -7q-53 0 -83.5 27t-30.5 73q0 43 25.5 75.5t76.5 58.5v682h93z" />
    <glyph glyph-name="uni0196" unicode="&#x196;" horiz-adv-x="329" 
d="M322 25q-47 -37 -108 -37q-63 0 -101.5 36.5t-38.5 106.5v69h1v488h93v-489h-1v-71q0 -67 54 -67q20 0 34.5 4.5t30.5 14.5z" />
    <glyph glyph-name="uni0197" unicode="&#x197;" horiz-adv-x="289" 
d="M274 396v-72h-83v-324h-93v324h-83v72h83v292h93v-292h83z" />
    <glyph glyph-name="Itilde" unicode="&#x128;" horiz-adv-x="262" 
d="M178 688v-688h-93v688h93zM153 791.5q-14 6.5 -33 19.5q-10 7 -21 12.5t-20 5.5q-15 0 -26 -10t-24 -32l-48 23q17 39 41.5 61.5t54.5 22.5q17 0 31 -6.5t31 -18.5q14 -10 24 -14.5t21 -4.5q14 0 25 10t23 33l49 -23q-32 -85 -96 -85q-18 0 -32 6.5z" />
    <glyph glyph-name="J" unicode="J" horiz-adv-x="273" 
d="M193 96q0 -68 -19.5 -112t-55 -71t-91.5 -48l-25 66q41 20 61.5 40.5t28.5 50t8 78.5v588h93v-592z" />
    <glyph glyph-name="Jcircumflex" unicode="&#x134;" horiz-adv-x="273" 
d="M193 96q0 -68 -19.5 -112t-55 -71t-91.5 -48l-25 66q41 20 61.5 40.5t28.5 50t8 78.5v588h93v-592zM31 761l-35 39l122 112h55l121 -112l-35 -39l-114 81z" />
    <glyph glyph-name="uniA7B2" unicode="&#xa7b2;" horiz-adv-x="298" 
d="M288 -96q-40 19 -78 31q-9 -72 -49.5 -109t-112.5 -37q-58 0 -90 28.5t-32 77.5q0 53 37.5 82.5t105.5 29.5q30 0 51 -3v684h93v-699q49 -14 97 -39zM102.5 -128.5q16.5 25.5 17.5 79.5q-19 4 -51 4q-41 0 -59.5 -14.5t-18.5 -43.5q0 -51 55 -51q40 0 56.5 25.5z" />
    <glyph glyph-name="uni0248" unicode="&#x248;" horiz-adv-x="286" 
d="M275 306h-82v-210q0 -68 -19.5 -112t-55 -71t-91.5 -48l-25 66q41 20 61.5 40.5t28.5 50t8 78.5v206h-84v74h84v308h93v-308h82v-74z" />
    <glyph glyph-name="K" unicode="K" horiz-adv-x="529" 
d="M178 688v-688h-93v688h93zM516 688l-233 -314l249 -374h-107l-243 368l235 320h99z" />
    <glyph glyph-name="uni01E8" unicode="&#x1e8;" horiz-adv-x="529" 
d="M178 688v-688h-93v688h93zM516 688l-233 -314l249 -374h-107l-243 368l235 320h99zM402 905l35 -39l-121 -112h-56l-121 112l36 39l113 -81z" />
    <glyph glyph-name="Kcommaaccent" unicode="&#x136;" horiz-adv-x="529" 
d="M178 688v-688h-93v688h93zM516 688l-233 -314l249 -374h-107l-243 368l235 320h99zM323.5 -94q14.5 -15 14.5 -39q0 -13 -4.5 -28t-17.5 -45l-38 -88h-49l29 115q-26 17 -26 46q0 23 15 38.5t38 15.5q24 0 38.5 -15z" />
    <glyph glyph-name="uni0198" unicode="&#x198;" horiz-adv-x="552" 
d="M182 368l141 233q31 54 61 77t76 23q52 0 95 -38l-31 -53q-13 9 -25.5 14.5t-27.5 5.5q-21 0 -36.5 -11.5t-35.5 -45.5l-119 -199l252 -374h-107zM178 688v-688h-93v688h93z" />
    <glyph glyph-name="L" unicode="L" horiz-adv-x="443" 
d="M178 688v-609h251l-10 -79h-334v688h93z" />
    <glyph glyph-name="uni01C7" unicode="&#x1c7;" horiz-adv-x="697" 
d="M178 688v-609h251l-10 -79h-334v688h93zM617 96q0 -68 -19.5 -112t-55 -71t-91.5 -48l-25 66q41 20 61.5 40.5t28.5 50t8 78.5v588h93v-592z" />
    <glyph glyph-name="Lacute" unicode="&#x139;" horiz-adv-x="443" 
d="M178 688v-609h251l-10 -79h-334v688h93zM203 908l38 -73l-194 -79l-24 47z" />
    <glyph glyph-name="uni023D" unicode="&#x23d;" horiz-adv-x="456" 
d="M191 79h251l-10 -79h-334v326h-83v74h83v288h93v-288h83v-74h-83v-247z" />
    <glyph glyph-name="uniA7AD" unicode="&#xa7ad;" horiz-adv-x="500" 
d="M486 79l-10 -79h-334v262h-1q-65 1 -98 30.5t-33 81.5q0 47 29.5 74t72.5 27q6 0 30 -3v216h93v-364q55 3 106 15l10 -57q-63 -16 -116 -17v-186h251zM142 324v93q-7 1 -24 1q-19 0 -30 -11t-11 -33q0 -50 64 -50h1z" />
    <glyph glyph-name="Lcaron" unicode="&#x13d;" horiz-adv-x="443" 
d="M178 688v-609h251l-10 -79h-334v688h93zM278 507l42 181l-75 10l-19 -183z" />
    <glyph glyph-name="uni1E3C" unicode="&#x1e3c;" horiz-adv-x="443" 
d="M178 688v-609h251l-10 -79h-334v688h93zM139 -223l-35 38l121 117h56l121 -117l-35 -38l-114 85z" />
    <glyph glyph-name="Lcommaaccent" unicode="&#x13b;" horiz-adv-x="443" 
d="M178 688v-609h251l-10 -79h-334v688h93zM291.5 -94q14.5 -15 14.5 -39q0 -13 -4.5 -28t-17.5 -45l-38 -88h-49l29 115q-26 17 -26 46q0 23 15 38.5t38 15.5q24 0 38.5 -15z" />
    <glyph glyph-name="Ldot" unicode="&#x13f;" horiz-adv-x="443" 
d="M178 688v-609h251l-10 -79h-334v688h93zM388.5 424q16.5 -17 16.5 -42t-16 -41.5t-43 -16.5q-26 0 -42.5 16.5t-16.5 41.5t16.5 42t42.5 17t42.5 -17z" />
    <glyph glyph-name="uni1E36" unicode="&#x1e36;" horiz-adv-x="443" 
d="M178 688v-609h251l-10 -79h-334v688h93zM210.5 -177q-16.5 17 -16.5 42t16 41.5t43 16.5q26 0 42.5 -16.5t16.5 -41.5t-16.5 -42t-42.5 -17t-42.5 17z" />
    <glyph glyph-name="uni01C8" unicode="&#x1c8;" horiz-adv-x="680" 
d="M178 688v-609h251l-10 -79h-334v688h93zM599 21q0 -67 -17.5 -109.5t-50 -69t-87.5 -52.5l-28 65q35 18 54 36t29 48t10 80v507h90v-505zM596.5 757q16.5 -17 16.5 -42t-16 -41.5t-43 -16.5q-26 0 -42.5 16.5t-16.5 41.5t16.5 42t42.5 17t42.5 -17z" />
    <glyph glyph-name="Lslash" unicode="&#x141;" horiz-adv-x="463" 
d="M198 79h251l-10 -79h-334v261l-52 -35l-33 56l83 56l2 1v349h93v-286l141 96l33 -56l-174 -118v-245z" />
    <glyph glyph-name="M" unicode="M" horiz-adv-x="711" 
d="M656 0h-89l-21 311q-14 209 -15 288l-132 -521h-87l-138 521q1 -87 -11 -290l-20 -309h-88l53 688h121l128 -509l123 509h123z" />
    <glyph glyph-name="uni1E3E" unicode="&#x1e3e;" horiz-adv-x="711" 
d="M656 0h-89l-21 311q-14 209 -15 288l-132 -521h-87l-138 521q1 -87 -11 -290l-20 -309h-88l53 688h121l128 -509l123 509h123zM426 908l38 -73l-194 -79l-24 47z" />
    <glyph glyph-name="uni1E40" unicode="&#x1e40;" horiz-adv-x="711" 
d="M656 0h-89l-21 311q-14 209 -15 288l-132 -521h-87l-138 521q1 -87 -11 -290l-20 -309h-88l53 688h121l128 -509l123 509h123zM397.5 883q16.5 -17 16.5 -42t-16 -41.5t-43 -16.5q-26 0 -42.5 16.5t-16.5 41.5t16.5 42t42.5 17t42.5 -17z" />
    <glyph glyph-name="uni019C" unicode="&#x19c;" horiz-adv-x="834" 
d="M749 688v-688h-81l-7 77q-58 -90 -147 -90q-48 0 -82.5 26.5t-51.5 72.5q-34 -50 -72 -74.5t-84 -24.5q-70 0 -109.5 51t-39.5 135v515h93v-513q0 -55 20 -84t58 -29q36 0 64 22t56 69q-1 7 -1 20v515h93v-513q0 -53 20.5 -83t58.5 -30q37 0 65 23t54 70v533h93z" />
    <glyph glyph-name="N" unicode="N" horiz-adv-x="607" 
d="M522 0h-120l-245 591q12 -132 12 -257v-334h-84v688h119l246 -592q-4 35 -8.5 96t-4.5 121v375h85v-688z" />
    <glyph glyph-name="uni01CA" unicode="&#x1ca;" horiz-adv-x="880" 
d="M522 0h-120l-245 591q12 -132 12 -257v-334h-84v688h119l246 -592q-4 35 -8.5 96t-4.5 121v375h85v-688zM800 96q0 -68 -19.5 -112t-55 -71t-91.5 -48l-25 66q41 20 61.5 40.5t28.5 50t8 78.5v588h93v-592z" />
    <glyph glyph-name="Nacute" unicode="&#x143;" horiz-adv-x="607" 
d="M522 0h-120l-245 591q12 -132 12 -257v-334h-84v688h119l246 -592q-4 35 -8.5 96t-4.5 121v375h85v-688zM381 908l38 -73l-194 -79l-24 47z" />
    <glyph glyph-name="Nacute.loclPLK" horiz-adv-x="607" 
d="M522 0h-120l-245 591q12 -132 12 -257v-334h-84v688h119l246 -592q-4 35 -8.5 96t-4.5 121v375h85v-688zM351 926l70 -44l-117 -147l-43 26z" />
    <glyph glyph-name="Ncaron" unicode="&#x147;" horiz-adv-x="607" 
d="M522 0h-120l-245 591q12 -132 12 -257v-334h-84v688h119l246 -592q-4 35 -8.5 96t-4.5 121v375h85v-688zM424 905l35 -39l-121 -112h-56l-121 112l36 39l113 -81z" />
    <glyph glyph-name="uni1E4A" unicode="&#x1e4a;" horiz-adv-x="607" 
d="M522 0h-120l-245 591q12 -132 12 -257v-334h-84v688h119l246 -592q-4 35 -8.5 96t-4.5 121v375h85v-688zM190 -223l-35 38l121 117h56l121 -117l-35 -38l-114 85z" />
    <glyph glyph-name="Ncommaaccent" unicode="&#x145;" horiz-adv-x="607" 
d="M522 0h-120l-245 591q12 -132 12 -257v-334h-84v688h119l246 -592q-4 35 -8.5 96t-4.5 121v375h85v-688zM342.5 -94q14.5 -15 14.5 -39q0 -13 -4.5 -28t-17.5 -45l-38 -88h-49l29 115q-26 17 -26 46q0 23 15 38.5t38 15.5q24 0 38.5 -15z" />
    <glyph glyph-name="uni1E44" unicode="&#x1e44;" horiz-adv-x="607" 
d="M522 0h-120l-245 591q12 -132 12 -257v-334h-84v688h119l246 -592q-4 35 -8.5 96t-4.5 121v375h85v-688zM352.5 883q16.5 -17 16.5 -42t-16 -41.5t-43 -16.5q-26 0 -42.5 16.5t-16.5 41.5t16.5 42t42.5 17t42.5 -17z" />
    <glyph glyph-name="uni1E46" unicode="&#x1e46;" horiz-adv-x="607" 
d="M522 0h-120l-245 591q12 -132 12 -257v-334h-84v688h119l246 -592q-4 35 -8.5 96t-4.5 121v375h85v-688zM261.5 -177q-16.5 17 -16.5 42t16 41.5t43 16.5q26 0 42.5 -16.5t16.5 -41.5t-16.5 -42t-42.5 -17t-42.5 17z" />
    <glyph glyph-name="uni01F8" unicode="&#x1f8;" horiz-adv-x="607" 
d="M522 0h-120l-245 591q12 -132 12 -257v-334h-84v688h119l246 -592q-4 35 -8.5 96t-4.5 121v375h85v-688zM234 908l181 -105l-24 -48l-194 80z" />
    <glyph glyph-name="Eng" unicode="&#x14a;" horiz-adv-x="607" 
d="M522 688v-756q0 -70 -38.5 -106.5t-101.5 -36.5q-61 0 -108 37l36 55q16 -10 30.5 -14.5t34.5 -4.5q54 0 54 67v71h-27l-245 591q12 -132 12 -257v-334h-84v688h119l246 -592q-4 35 -8.5 96t-4.5 121v375h85z" />
    <glyph glyph-name="Eng.ss01" horiz-adv-x="597" 
d="M477.5 651q41.5 -50 41.5 -136v-583q0 -70 -38.5 -106.5t-101.5 -36.5q-61 0 -108 37l36 55q16 -10 30.5 -14.5t34.5 -4.5q54 0 54 67v569q0 66 -23 97t-71 31q-47 0 -82.5 -23.5t-71.5 -68.5v-534h-93v688h81l7 -80q79 93 183 93q80 0 121.5 -50z" />
    <glyph glyph-name="uni019D" unicode="&#x19d;" horiz-adv-x="607" 
d="M522 688v-688h-120l-245 591q12 -132 12 -257v-402q0 -70 -37 -106.5t-98 -36.5q-59 0 -106 37l36 53q17 -11 31 -16t34 -5q56 0 56 69v761h119l246 -592q-4 35 -8.5 96t-4.5 121v375h85z" />
    <glyph glyph-name="uni019D.ss01" horiz-adv-x="597" 
d="M477.5 651q41.5 -50 41.5 -136v-515h-93v498q0 66 -23 97t-71 31q-47 0 -82.5 -23.5t-71.5 -68.5v-602q0 -70 -38.5 -106.5t-101.5 -36.5q-61 0 -108 37l36 55q16 -10 30.5 -14.5t34.5 -4.5q54 0 54 67v759h81l7 -80q79 93 183 93q80 0 121.5 -50z" />
    <glyph glyph-name="uni01CB" unicode="&#x1cb;" horiz-adv-x="859" 
d="M522 0h-120l-245 591q12 -132 12 -257v-334h-84v688h119l246 -592q-4 35 -8.5 96t-4.5 121v375h85v-688zM778 21q0 -67 -17.5 -109.5t-50 -69t-87.5 -52.5l-28 65q35 18 54 36t29 48t10 80v507h90v-505zM775.5 757q16.5 -17 16.5 -42t-16 -41.5t-43 -16.5
q-26 0 -42.5 16.5t-16.5 41.5t16.5 42t42.5 17t42.5 -17z" />
    <glyph glyph-name="uni0220" unicode="&#x220;" horiz-adv-x="597" 
d="M477.5 651q41.5 -50 41.5 -136v-717h-93v700q0 66 -23 97t-71 31q-47 0 -82.5 -23.5t-71.5 -68.5v-534h-93v688h81l7 -80q79 93 183 93q80 0 121.5 -50z" />
    <glyph glyph-name="Ntilde" unicode="&#xd1;" horiz-adv-x="607" 
d="M522 0h-120l-245 591q12 -132 12 -257v-334h-84v688h119l246 -592q-4 35 -8.5 96t-4.5 121v375h85v-688zM332 791.5q-14 6.5 -33 19.5q-10 7 -21 12.5t-20 5.5q-15 0 -26 -10t-24 -32l-48 23q17 39 41.5 61.5t54.5 22.5q17 0 31 -6.5t31 -18.5q14 -10 24 -14.5t21 -4.5
q14 0 25 10t23 33l49 -23q-32 -85 -96 -85q-18 0 -32 6.5z" />
    <glyph glyph-name="O" unicode="O" horiz-adv-x="628" 
d="M507.5 610.5q70.5 -90.5 70.5 -266.5q0 -173 -70 -265t-194 -92q-123 0 -193.5 90.5t-70.5 265.5q0 115 32.5 195.5t92 121.5t139.5 41q123 0 193.5 -90.5zM148 343q0 -281 166 -281q82 0 124 67t42 215q0 147 -42.5 215t-123.5 68q-166 0 -166 -284z" />
    <glyph glyph-name="uni0222" unicode="&#x222;" horiz-adv-x="587" 
d="M505 320.5q32 -46.5 32 -113.5q0 -60 -28.5 -110t-83.5 -80t-131 -30t-131 29t-84 79t-29 111q0 65 32.5 112.5t93.5 69.5q-43 21 -64.5 58t-21.5 85v157h93v-157q0 -52 25.5 -81.5t85.5 -29.5t86 31.5t26 79.5v157h93v-157q0 -47 -22.5 -83.5t-65.5 -58.5
q62 -22 94 -68.5zM403.5 98q35.5 36 35.5 109q0 140 -145 140q-73 0 -109.5 -36.5t-36.5 -104.5q0 -144 146 -144q74 0 109.5 36z" />
    <glyph glyph-name="Oacute" unicode="&#xd3;" horiz-adv-x="628" 
d="M507.5 610.5q70.5 -90.5 70.5 -266.5q0 -173 -70 -265t-194 -92q-123 0 -193.5 90.5t-70.5 265.5q0 115 32.5 195.5t92 121.5t139.5 41q123 0 193.5 -90.5zM148 343q0 -281 166 -281q82 0 124 67t42 215q0 147 -42.5 215t-123.5 68q-166 0 -166 -284zM385 908l38 -73
l-194 -79l-24 47z" />
    <glyph glyph-name="Oacute.loclPLK" horiz-adv-x="628" 
d="M507.5 610.5q70.5 -90.5 70.5 -266.5q0 -173 -70 -265t-194 -92q-123 0 -193.5 90.5t-70.5 265.5q0 115 32.5 195.5t92 121.5t139.5 41q123 0 193.5 -90.5zM148 343q0 -281 166 -281q82 0 124 67t42 215q0 147 -42.5 215t-123.5 68q-166 0 -166 -284zM355 926l70 -44
l-117 -147l-43 26z" />
    <glyph glyph-name="Obreve" unicode="&#x14e;" horiz-adv-x="628" 
d="M507.5 610.5q70.5 -90.5 70.5 -266.5q0 -173 -70 -265t-194 -92q-123 0 -193.5 90.5t-70.5 265.5q0 115 32.5 195.5t92 121.5t139.5 41q123 0 193.5 -90.5zM148 343q0 -281 166 -281q82 0 124 67t42 215q0 147 -42.5 215t-123.5 68q-166 0 -166 -284zM221.5 792.5
q-35.5 32.5 -41.5 87.5l54 12q8 -31 28 -48t51 -17t52 17t29 48l54 -12q-6 -55 -42.5 -87.5t-92.5 -32.5t-91.5 32.5z" />
    <glyph glyph-name="uni01D1" unicode="&#x1d1;" horiz-adv-x="628" 
d="M507.5 610.5q70.5 -90.5 70.5 -266.5q0 -173 -70 -265t-194 -92q-123 0 -193.5 90.5t-70.5 265.5q0 115 32.5 195.5t92 121.5t139.5 41q123 0 193.5 -90.5zM148 343q0 -281 166 -281q82 0 124 67t42 215q0 147 -42.5 215t-123.5 68q-166 0 -166 -284zM428 905l35 -39
l-121 -112h-56l-121 112l36 39l113 -81z" />
    <glyph glyph-name="uni019F" unicode="&#x19f;" horiz-adv-x="628" 
d="M507.5 610q70.5 -91 70.5 -267q0 -173 -70 -264.5t-194 -91.5q-123 0 -193.5 90.5t-70.5 264.5q0 116 32.5 196.5t92 121.5t139.5 41q123 0 193.5 -91zM145 383h338q-6 127 -49 185.5t-120 58.5q-158 0 -169 -244zM436.5 123q43.5 61 47.5 195h-340q8 -256 170 -256
q79 0 122.5 61z" />
    <glyph glyph-name="Ocircumflex" unicode="&#xd4;" horiz-adv-x="628" 
d="M507.5 610.5q70.5 -90.5 70.5 -266.5q0 -173 -70 -265t-194 -92q-123 0 -193.5 90.5t-70.5 265.5q0 115 32.5 195.5t92 121.5t139.5 41q123 0 193.5 -90.5zM148 343q0 -281 166 -281q82 0 124 67t42 215q0 147 -42.5 215t-123.5 68q-166 0 -166 -284zM199 761l-35 39
l122 112h55l121 -112l-35 -39l-114 81z" />
    <glyph glyph-name="uni1ED0" unicode="&#x1ed0;" horiz-adv-x="628" 
d="M507.5 610.5q70.5 -90.5 70.5 -266.5q0 -173 -70 -265t-194 -92q-123 0 -193.5 90.5t-70.5 265.5q0 115 32.5 195.5t92 121.5t139.5 41q123 0 193.5 -90.5zM148 343q0 -281 166 -281q82 0 124 67t42 215q0 147 -42.5 215t-123.5 68q-166 0 -166 -284zM199 724l-35 39
l122 112h55l121 -112l-35 -39l-114 81zM505 1021l57 -49l-127 -129l-37 32z" />
    <glyph glyph-name="uni1ED8" unicode="&#x1ed8;" horiz-adv-x="628" 
d="M507.5 610.5q70.5 -90.5 70.5 -266.5q0 -173 -70 -265t-194 -92q-123 0 -193.5 90.5t-70.5 265.5q0 115 32.5 195.5t92 121.5t139.5 41q123 0 193.5 -90.5zM148 343q0 -281 166 -281q82 0 124 67t42 215q0 147 -42.5 215t-123.5 68q-166 0 -166 -284zM199 761l-35 39
l122 112h55l121 -112l-35 -39l-114 81zM271.5 -177q-16.5 17 -16.5 42t16 41.5t43 16.5q26 0 42.5 -16.5t16.5 -41.5t-16.5 -42t-42.5 -17t-42.5 17z" />
    <glyph glyph-name="uni1ED2" unicode="&#x1ed2;" horiz-adv-x="628" 
d="M507.5 610.5q70.5 -90.5 70.5 -266.5q0 -173 -70 -265t-194 -92q-123 0 -193.5 90.5t-70.5 265.5q0 115 32.5 195.5t92 121.5t139.5 41q123 0 193.5 -90.5zM148 343q0 -281 166 -281q82 0 124 67t42 215q0 147 -42.5 215t-123.5 68q-166 0 -166 -284zM199 724l-35 39
l122 112h55l121 -112l-35 -39l-114 81zM124 1021l108 -146l-38 -32l-127 129z" />
    <glyph glyph-name="uni1ED4" unicode="&#x1ed4;" horiz-adv-x="628" 
d="M507.5 610.5q70.5 -90.5 70.5 -266.5q0 -173 -70 -265t-194 -92q-123 0 -193.5 90.5t-70.5 265.5q0 115 32.5 195.5t92 121.5t139.5 41q123 0 193.5 -90.5zM148 343q0 -281 166 -281q82 0 124 67t42 215q0 147 -42.5 215t-123.5 68q-166 0 -166 -284zM199 724l-35 39
l122 112h55l121 -112l-35 -39l-114 81zM415 903q34 4 49 13t15 31q0 18 -10.5 27.5t-29.5 9.5q-15 0 -26.5 -3t-26.5 -10l-18 47q39 23 84 23t70.5 -24.5t25.5 -64.5q0 -35 -18.5 -56t-52.5 -27v-46h-62v80z" />
    <glyph glyph-name="uni1ED6" unicode="&#x1ed6;" horiz-adv-x="628" 
d="M507.5 610.5q70.5 -90.5 70.5 -266.5q0 -173 -70 -265t-194 -92q-123 0 -193.5 90.5t-70.5 265.5q0 115 32.5 195.5t92 121.5t139.5 41q123 0 193.5 -90.5zM148 343q0 -281 166 -281q82 0 124 67t42 215q0 147 -42.5 215t-123.5 68q-166 0 -166 -284zM198 724l-35 39
l122 112h55l121 -112l-35 -39l-114 81zM334.5 916.5q-14.5 6.5 -32.5 18.5q-10 7 -21 12.5t-20 5.5q-15 0 -26 -9.5t-24 -31.5l-48 23q17 38 41.5 60t54.5 22q17 0 30.5 -6t31.5 -18q14 -10 24 -14.5t21 -4.5q14 0 25 10t23 32l49 -22q-16 -42 -40.5 -63t-55.5 -21
q-18 0 -32.5 6.5z" />
    <glyph glyph-name="uni020C" unicode="&#x20c;" horiz-adv-x="628" 
d="M507.5 610.5q70.5 -90.5 70.5 -266.5q0 -173 -70 -265t-194 -92q-123 0 -193.5 90.5t-70.5 265.5q0 115 32.5 195.5t92 121.5t139.5 41q123 0 193.5 -90.5zM148 343q0 -281 166 -281q82 0 124 67t42 215q0 147 -42.5 215t-123.5 68q-166 0 -166 -284zM202 953l77 -168
l-50 -23l-95 155zM337 953l69 -164l-51 -22l-87 150z" />
    <glyph glyph-name="Odieresis" unicode="&#xd6;" horiz-adv-x="628" 
d="M507.5 610.5q70.5 -90.5 70.5 -266.5q0 -173 -70 -265t-194 -92q-123 0 -193.5 90.5t-70.5 265.5q0 115 32.5 195.5t92 121.5t139.5 41q123 0 193.5 -90.5zM148 343q0 -281 166 -281q82 0 124 67t42 215q0 147 -42.5 215t-123.5 68q-166 0 -166 -284zM260 873
q15 -15 15 -38t-15 -38.5t-37 -15.5q-23 0 -38 15.5t-15 38.5t15 38t38 15q22 0 37 -15zM447 873q15 -15 15 -38t-15 -38.5t-37 -15.5t-37.5 15.5t-15.5 38.5t15 38t38 15q22 0 37 -15z" />
    <glyph glyph-name="uni022A" unicode="&#x22a;" horiz-adv-x="628" 
d="M507.5 610.5q70.5 -90.5 70.5 -266.5q0 -173 -70 -265t-194 -92q-123 0 -193.5 90.5t-70.5 265.5q0 115 32.5 195.5t92 121.5t139.5 41q123 0 193.5 -90.5zM148 343q0 -281 166 -281q82 0 124 67t42 215q0 147 -42.5 215t-123.5 68q-166 0 -166 -284zM258 837
q15 -15 15 -38t-15 -38.5t-37 -15.5q-23 0 -38 15.5t-15 38.5t15 38t38 15q22 0 37 -15zM445 837q15 -15 15 -38t-15 -38.5t-37 -15.5t-37.5 15.5t-15.5 38.5t15 38t38 15q22 0 37 -15zM436 902h-242v66h242v-66z" />
    <glyph glyph-name="uni022E" unicode="&#x22e;" horiz-adv-x="628" 
d="M507.5 610.5q70.5 -90.5 70.5 -266.5q0 -173 -70 -265t-194 -92q-123 0 -193.5 90.5t-70.5 265.5q0 115 32.5 195.5t92 121.5t139.5 41q123 0 193.5 -90.5zM148 343q0 -281 166 -281q82 0 124 67t42 215q0 147 -42.5 215t-123.5 68q-166 0 -166 -284zM356.5 883
q16.5 -17 16.5 -42t-16 -41.5t-43 -16.5q-26 0 -42.5 16.5t-16.5 41.5t16.5 42t42.5 17t42.5 -17z" />
    <glyph glyph-name="uni0230" unicode="&#x230;" horiz-adv-x="628" 
d="M507.5 610.5q70.5 -90.5 70.5 -266.5q0 -173 -70 -265t-194 -92q-123 0 -193.5 90.5t-70.5 265.5q0 115 32.5 195.5t92 121.5t139.5 41q123 0 193.5 -90.5zM148 343q0 -281 166 -281q82 0 124 67t42 215q0 147 -42.5 215t-123.5 68q-166 0 -166 -284zM357.5 841
q16.5 -17 16.5 -42t-16 -41.5t-43 -16.5q-26 0 -42.5 16.5t-16.5 41.5t16.5 42t42.5 17t42.5 -17zM436 902h-242v66h242v-66z" />
    <glyph glyph-name="uni1ECC" unicode="&#x1ecc;" horiz-adv-x="628" 
d="M507.5 610.5q70.5 -90.5 70.5 -266.5q0 -173 -70 -265t-194 -92q-123 0 -193.5 90.5t-70.5 265.5q0 115 32.5 195.5t92 121.5t139.5 41q123 0 193.5 -90.5zM148 343q0 -281 166 -281q82 0 124 67t42 215q0 147 -42.5 215t-123.5 68q-166 0 -166 -284zM271.5 -177
q-16.5 17 -16.5 42t16 41.5t43 16.5q26 0 42.5 -16.5t16.5 -41.5t-16.5 -42t-42.5 -17t-42.5 17z" />
    <glyph glyph-name="Ograve" unicode="&#xd2;" horiz-adv-x="628" 
d="M507.5 610.5q70.5 -90.5 70.5 -266.5q0 -173 -70 -265t-194 -92q-123 0 -193.5 90.5t-70.5 265.5q0 115 32.5 195.5t92 121.5t139.5 41q123 0 193.5 -90.5zM148 343q0 -281 166 -281q82 0 124 67t42 215q0 147 -42.5 215t-123.5 68q-166 0 -166 -284zM238 908l181 -105
l-24 -48l-194 80z" />
    <glyph glyph-name="uni1ECE" unicode="&#x1ece;" horiz-adv-x="628" 
d="M507.5 610.5q70.5 -90.5 70.5 -266.5q0 -173 -70 -265t-194 -92q-123 0 -193.5 90.5t-70.5 265.5q0 115 32.5 195.5t92 121.5t139.5 41q123 0 193.5 -90.5zM148 343q0 -281 166 -281q82 0 124 67t42 215q0 147 -42.5 215t-123.5 68q-166 0 -166 -284zM283 848q34 4 49 13
t15 31q0 18 -10.5 27.5t-29.5 9.5q-15 0 -26.5 -3t-26.5 -10l-18 47q39 23 84 23t70.5 -24.5t25.5 -64.5q0 -35 -18.5 -56t-52.5 -27v-46h-62v80z" />
    <glyph glyph-name="Ohorn" unicode="&#x1a0;" horiz-adv-x="646" 
d="M524 586q54 -89 54 -242q0 -173 -70 -265t-194 -92q-123 0 -193.5 90.5t-70.5 265.5q0 115 32.5 195.5t92 121.5t139.5 41q107 0 175 -69q25 4 36.5 16.5t11.5 36.5q0 36 -13 73l63 14q17 -38 17 -85q0 -84 -80 -101zM438 129q42 67 42 215q0 147 -42.5 215t-123.5 68
q-166 0 -166 -284q0 -281 166 -281q82 0 124 67z" />
    <glyph glyph-name="uni1EDA" unicode="&#x1eda;" horiz-adv-x="646" 
d="M423 835l-194 -79l-24 47l180 105zM524 586q54 -89 54 -242q0 -173 -70 -265t-194 -92q-123 0 -193.5 90.5t-70.5 265.5q0 115 32.5 195.5t92 121.5t139.5 41q107 0 175 -69q25 4 36.5 16.5t11.5 36.5q0 36 -13 73l63 14q17 -38 17 -85q0 -84 -80 -101zM438 129
q42 67 42 215q0 147 -42.5 215t-123.5 68q-166 0 -166 -284q0 -281 166 -281q82 0 124 67z" />
    <glyph glyph-name="uni1EE2" unicode="&#x1ee2;" horiz-adv-x="646" 
d="M524 586q54 -89 54 -242q0 -173 -70 -265t-194 -92q-123 0 -193.5 90.5t-70.5 265.5q0 115 32.5 195.5t92 121.5t139.5 41q107 0 175 -69q25 4 36.5 16.5t11.5 36.5q0 36 -13 73l63 14q17 -38 17 -85q0 -84 -80 -101zM438 129q42 67 42 215q0 147 -42.5 215t-123.5 68
q-166 0 -166 -284q0 -281 166 -281q82 0 124 67zM356.5 -93.5q16.5 -16.5 16.5 -41.5t-16.5 -42t-42.5 -17t-42.5 17t-16.5 42t16 41.5t43 16.5q26 0 42.5 -16.5z" />
    <glyph glyph-name="uni1EDC" unicode="&#x1edc;" horiz-adv-x="646" 
d="M419 803l-24 -48l-194 80l37 73zM524 586q54 -89 54 -242q0 -173 -70 -265t-194 -92q-123 0 -193.5 90.5t-70.5 265.5q0 115 32.5 195.5t92 121.5t139.5 41q107 0 175 -69q25 4 36.5 16.5t11.5 36.5q0 36 -13 73l63 14q17 -38 17 -85q0 -84 -80 -101zM438 129
q42 67 42 215q0 147 -42.5 215t-123.5 68q-166 0 -166 -284q0 -281 166 -281q82 0 124 67z" />
    <glyph glyph-name="uni1EDE" unicode="&#x1ede;" horiz-adv-x="646" 
d="M280.5 926q-11.5 -3 -26.5 -10l-18 47q39 23 84 23t70.5 -24.5t25.5 -64.5q0 -35 -18.5 -56t-52.5 -27v-46h-62v80q34 4 49 13t15 31q0 18 -10.5 27.5t-29.5 9.5q-15 0 -26.5 -3zM524 586q54 -89 54 -242q0 -173 -70 -265t-194 -92q-123 0 -193.5 90.5t-70.5 265.5
q0 115 32.5 195.5t92 121.5t139.5 41q107 0 175 -69q25 4 36.5 16.5t11.5 36.5q0 36 -13 73l63 14q17 -38 17 -85q0 -84 -80 -101zM438 129q42 67 42 215q0 147 -42.5 215t-123.5 68q-166 0 -166 -284q0 -281 166 -281q82 0 124 67z" />
    <glyph glyph-name="uni1EE0" unicode="&#x1ee0;" horiz-adv-x="646" 
d="M236 819q-11 -10 -24 -32l-48 23q17 39 41.5 61.5t54.5 22.5q17 0 31 -6.5t31 -18.5q14 -10 24 -14.5t21 -4.5q14 0 25 10t23 33l49 -23q-32 -85 -96 -85q-18 0 -32 6.5t-33 19.5q-10 7 -21 12.5t-20 5.5q-15 0 -26 -10zM524 586q54 -89 54 -242q0 -173 -70 -265
t-194 -92q-123 0 -193.5 90.5t-70.5 265.5q0 115 32.5 195.5t92 121.5t139.5 41q107 0 175 -69q25 4 36.5 16.5t11.5 36.5q0 36 -13 73l63 14q17 -38 17 -85q0 -84 -80 -101zM438 129q42 67 42 215q0 147 -42.5 215t-123.5 68q-166 0 -166 -284q0 -281 166 -281q82 0 124 67
z" />
    <glyph glyph-name="Ohungarumlaut" unicode="&#x150;" horiz-adv-x="628" 
d="M507.5 610.5q70.5 -90.5 70.5 -266.5q0 -173 -70 -265t-194 -92q-123 0 -193.5 90.5t-70.5 265.5q0 115 32.5 195.5t92 121.5t139.5 41q123 0 193.5 -90.5zM148 343q0 -281 166 -281q82 0 124 67t42 215q0 147 -42.5 215t-123.5 68q-166 0 -166 -284zM286 953l68 -36
l-87 -150l-50 22zM421 953l68 -36l-95 -155l-50 23z" />
    <glyph glyph-name="uni01A2" unicode="&#x1a2;" horiz-adv-x="836" 
d="M712.5 662q39.5 -40 39.5 -114v-749h-93v753q0 79 -67 79q-42 0 -82 -24q68 -93 68 -263q0 -173 -70 -265t-194 -92q-123 0 -193.5 90.5t-70.5 265.5q0 115 32.5 195.5t92 121.5t139.5 41q88 0 150 -47q32 23 65.5 35.5t72.5 12.5q71 0 110.5 -40zM438 129q42 67 42 215
q0 147 -42.5 215t-123.5 68q-166 0 -166 -284q0 -281 166 -281q82 0 124 67z" />
    <glyph glyph-name="uni020E" unicode="&#x20e;" horiz-adv-x="628" 
d="M507.5 610.5q70.5 -90.5 70.5 -266.5q0 -173 -70 -265t-194 -92q-123 0 -193.5 90.5t-70.5 265.5q0 115 32.5 195.5t92 121.5t139.5 41q123 0 193.5 -90.5zM148 343q0 -281 166 -281q82 0 124 67t42 215q0 147 -42.5 215t-123.5 68q-166 0 -166 -284zM406 885
q36 -35 42 -96l-54 -12q-18 76 -81 76q-61 0 -79 -76l-54 12q6 61 41.5 96t91.5 35q57 0 93 -35z" />
    <glyph glyph-name="Omacron" unicode="&#x14c;" horiz-adv-x="628" 
d="M507.5 610.5q70.5 -90.5 70.5 -266.5q0 -173 -70 -265t-194 -92q-123 0 -193.5 90.5t-70.5 265.5q0 115 32.5 195.5t92 121.5t139.5 41q123 0 193.5 -90.5zM148 343q0 -281 166 -281q82 0 124 67t42 215q0 147 -42.5 215t-123.5 68q-166 0 -166 -284zM435 795h-242v66
h242v-66z" />
    <glyph glyph-name="uni1E52" unicode="&#x1e52;" horiz-adv-x="628" 
d="M507.5 610.5q70.5 -90.5 70.5 -266.5q0 -173 -70 -265t-194 -92q-123 0 -193.5 90.5t-70.5 265.5q0 115 32.5 195.5t92 121.5t139.5 41q123 0 193.5 -90.5zM148 343q0 -281 166 -281q82 0 124 67t42 215q0 147 -42.5 215t-123.5 68q-166 0 -166 -284zM435 761h-242v66
h242v-66zM383 1026l38 -73l-194 -79l-24 47z" />
    <glyph glyph-name="uni1E50" unicode="&#x1e50;" horiz-adv-x="628" 
d="M244 1025l181 -105l-24 -48l-194 80zM435 761h-242v66h242v-66zM507.5 610.5q70.5 -90.5 70.5 -266.5q0 -173 -70 -265t-194 -92q-123 0 -193.5 90.5t-70.5 265.5q0 115 32.5 195.5t92 121.5t139.5 41q123 0 193.5 -90.5zM148 343q0 -281 166 -281q82 0 124 67t42 215
q0 147 -42.5 215t-123.5 68q-166 0 -166 -284z" />
    <glyph glyph-name="uniA7B6" unicode="&#xa7b6;" horiz-adv-x="774" 
d="M699.5 511.5q18.5 -90.5 18.5 -215.5q0 -164 -49.5 -236.5t-139.5 -72.5q-59 0 -94.5 28.5t-49.5 85.5q-27 -114 -140 -114q-93 0 -141 72.5t-48 237.5q0 123 18.5 212.5t50.5 178.5h89q-33 -96 -48.5 -184.5t-15.5 -203.5q0 -90 11 -142t34 -74t59 -22q41 0 63 26t22 88
v222h93v-222q0 -61 22.5 -88t64.5 -27q34 0 57 19.5t36 71.5t13 146q0 114 -16.5 202.5t-49.5 187.5h90q32 -86 50.5 -176.5z" />
    <glyph glyph-name="uni01EA" unicode="&#x1ea;" horiz-adv-x="628" 
d="M312.5 -56q-23.5 -26 -23.5 -58q0 -49 53 -49q23 0 53 6l-7 -64q-33 -7 -57 -7q-53 0 -83.5 27t-30.5 73q0 70 71 116q-112 9 -175 99.5t-63 255.5q0 115 32.5 195.5t92 121.5t139.5 41q123 0 193.5 -90.5t70.5 -266.5q0 -142 -47.5 -230t-134.5 -115q-60 -29 -83.5 -55z
M314 62q82 0 124 67t42 215q0 147 -42.5 215t-123.5 68q-166 0 -166 -284q0 -281 166 -281z" />
    <glyph glyph-name="uni01EC" unicode="&#x1ec;" horiz-adv-x="628" 
d="M435 861v-66h-242v66h242zM312.5 -56q-23.5 -26 -23.5 -58q0 -49 53 -49q23 0 53 6l-7 -64q-33 -7 -57 -7q-53 0 -83.5 27t-30.5 73q0 70 71 116q-112 9 -175 99.5t-63 255.5q0 115 32.5 195.5t92 121.5t139.5 41q123 0 193.5 -90.5t70.5 -266.5q0 -142 -47.5 -230
t-134.5 -115q-60 -29 -83.5 -55zM314 62q82 0 124 67t42 215q0 147 -42.5 215t-123.5 68q-166 0 -166 -284q0 -281 166 -281z" />
    <glyph glyph-name="uni0186" unicode="&#x186;" horiz-adv-x="508" 
d="M392 611q66 -90 66 -266q0 -116 -33.5 -196.5t-92.5 -121t-136 -40.5q-104 0 -181 77l47 54q35 -27 63 -40t68 -13q76 0 121.5 67.5t45.5 212.5q0 281 -155 281q-39 0 -71.5 -12t-64.5 -37l-46 56q40 34 85 51t101 17q117 0 183 -90z" />
    <glyph glyph-name="Oslash" unicode="&#xd8;" horiz-adv-x="628" 
d="M542.5 549.5q35.5 -81.5 35.5 -205.5q0 -173 -70 -265t-194 -92q-30 0 -59 6l-30 -118l-74 20l35 124q-65 38 -100.5 120t-35.5 204q0 115 32.5 195.5t92 121.5t139.5 41q27 0 57 -5l32 121l74 -20l-36 -128q66 -38 101.5 -119.5zM188.5 559q-43.5 -68 -43.5 -216
q0 -194 75 -253l139 532q-23 5 -45 5q-82 0 -125.5 -68zM407 599l-139 -533q23 -5 46 -5q84 0 126 68.5t42 221.5q0 190 -75 248z" />
    <glyph glyph-name="Oslashacute" unicode="&#x1fe;" horiz-adv-x="628" 
d="M542.5 549.5q35.5 -81.5 35.5 -205.5q0 -173 -70 -265t-194 -92q-30 0 -59 6l-30 -118l-74 20l35 124q-65 38 -100.5 120t-35.5 204q0 115 32.5 195.5t92 121.5t139.5 41q27 0 57 -5l32 121l74 -20l-36 -128q66 -38 101.5 -119.5zM188.5 559q-43.5 -68 -43.5 -216
q0 -194 75 -253l139 532q-23 5 -45 5q-82 0 -125.5 -68zM407 599l-139 -533q23 -5 46 -5q84 0 126 68.5t42 221.5q0 190 -75 248zM381 926l38 -73l-194 -79l-24 47z" />
    <glyph glyph-name="Otilde" unicode="&#xd5;" horiz-adv-x="628" 
d="M507.5 610.5q70.5 -90.5 70.5 -266.5q0 -173 -70 -265t-194 -92q-123 0 -193.5 90.5t-70.5 265.5q0 115 32.5 195.5t92 121.5t139.5 41q123 0 193.5 -90.5zM148 343q0 -281 166 -281q82 0 124 67t42 215q0 147 -42.5 215t-123.5 68q-166 0 -166 -284zM336 791.5
q-14 6.5 -33 19.5q-10 7 -21 12.5t-20 5.5q-15 0 -26 -10t-24 -32l-48 23q17 39 41.5 61.5t54.5 22.5q17 0 31 -6.5t31 -18.5q14 -10 24 -14.5t21 -4.5q14 0 25 10t23 33l49 -23q-32 -85 -96 -85q-18 0 -32 6.5z" />
    <glyph glyph-name="uni1E4C" unicode="&#x1e4c;" horiz-adv-x="628" 
d="M507.5 610.5q70.5 -90.5 70.5 -266.5q0 -173 -70 -265t-194 -92q-123 0 -193.5 90.5t-70.5 265.5q0 115 32.5 195.5t92 121.5t139.5 41q123 0 193.5 -90.5zM148 343q0 -281 166 -281q82 0 124 67t42 215q0 147 -42.5 215t-123.5 68q-166 0 -166 -284zM336 766.5
q-14 6.5 -33 19.5q-10 7 -21 12.5t-20 5.5q-15 0 -26 -10t-24 -32l-48 23q17 39 41.5 61.5t54.5 22.5q17 0 31 -6.5t31 -18.5q14 -10 24 -14.5t21 -4.5q14 0 25 10t23 33l49 -23q-32 -85 -96 -85q-18 0 -32 6.5zM385 1048l38 -73l-194 -79l-24 47z" />
    <glyph glyph-name="uni022C" unicode="&#x22c;" horiz-adv-x="628" 
d="M507.5 610.5q70.5 -90.5 70.5 -266.5q0 -173 -70 -265t-194 -92q-123 0 -193.5 90.5t-70.5 265.5q0 115 32.5 195.5t92 121.5t139.5 41q123 0 193.5 -90.5zM148 343q0 -281 166 -281q82 0 124 67t42 215q0 147 -42.5 215t-123.5 68q-166 0 -166 -284zM336 766.5
q-14 6.5 -33 19.5q-10 7 -21 12.5t-20 5.5q-15 0 -26 -10t-24 -32l-48 23q17 39 41.5 61.5t54.5 22.5q17 0 31 -6.5t31 -18.5q14 -10 24 -14.5t21 -4.5q14 0 25 10t23 33l49 -23q-32 -85 -96 -85q-18 0 -32 6.5zM432 912h-242v66h242v-66z" />
    <glyph glyph-name="OE" unicode="&#x152;" horiz-adv-x="801" 
d="M762 0h-389q-32 -13 -71 -13q-75 0 -132 41t-88.5 121t-31.5 194q0 113 32 193.5t89 122.5t131 42q41 0 74 -13h382l-10 -72h-275q76 -79 86 -227h157v-73h-157q-6 -156 -88 -243h291v-73zM190 130.5q42 -68.5 115 -68.5q157 0 157 284q0 144 -41.5 212.5t-115.5 68.5
q-73 0 -115 -69t-42 -215q0 -144 42 -212.5z" />
    <glyph glyph-name="P" unicode="P" horiz-adv-x="523" 
d="M430 635q65 -53 65 -159q0 -112 -66.5 -166.5t-184.5 -54.5h-66v-255h-93v688h156q124 0 189 -53zM359 360q39 33 39 115q0 75 -38.5 108.5t-117.5 33.5h-64v-290h63q79 0 118 33z" />
    <glyph glyph-name="uni1E54" unicode="&#x1e54;" horiz-adv-x="523" 
d="M430 635q65 -53 65 -159q0 -112 -66.5 -166.5t-184.5 -54.5h-66v-255h-93v688h156q124 0 189 -53zM359 360q39 33 39 115q0 75 -38.5 108.5t-117.5 33.5h-64v-290h63q79 0 118 33zM335 908l38 -73l-194 -79l-24 47z" />
    <glyph glyph-name="uni1E56" unicode="&#x1e56;" horiz-adv-x="523" 
d="M430 635q65 -53 65 -159q0 -112 -66.5 -166.5t-184.5 -54.5h-66v-255h-93v688h156q124 0 189 -53zM359 360q39 33 39 115q0 75 -38.5 108.5t-117.5 33.5h-64v-290h63q79 0 118 33zM306.5 883q16.5 -17 16.5 -42t-16 -41.5t-43 -16.5q-26 0 -42.5 16.5t-16.5 41.5t16.5 42
t42.5 17t42.5 -17z" />
    <glyph glyph-name="uni01A4" unicode="&#x1a4;" horiz-adv-x="606" 
d="M513 635q65 -53 65 -159q0 -112 -66.5 -166.5t-184.5 -54.5h-66v-255h-93v616h-25q-55 0 -55 -54q0 -18 5 -34.5t14 -38.5l-60 -29q-18 26 -27.5 51t-9.5 58q0 54 35 86.5t102 32.5h177q124 0 189 -53zM442 360q39 33 39 115q0 75 -38.5 108.5t-117.5 33.5h-64v-290h63
q79 0 118 33z" />
    <glyph glyph-name="Thorn" unicode="&#xde;" horiz-adv-x="523" 
d="M430.5 516.5q64.5 -53.5 64.5 -161.5q0 -115 -65.5 -170.5t-181.5 -55.5h-70v-129h-93v688h93v-118h67q121 0 185.5 -53.5zM359.5 235.5q39.5 34.5 39.5 118.5q0 77 -39 111t-117 34h-65v-298h64q78 0 117.5 34.5z" />
    <glyph glyph-name="Q" unicode="Q" horiz-adv-x="628" 
d="M608 -34l-60 -73q-49 52 -102 74.5t-136 22.5q-78 0 -136.5 40t-91 119t-32.5 194t32.5 195.5t92 121.5t139.5 41q123 0 193.5 -91t70.5 -266q0 -129 -40 -201.5t-113 -108.5q105 -1 183 -68zM314 62q82 0 124 67t42 215t-42.5 215.5t-123.5 67.5q-166 0 -166 -284
q0 -281 166 -281z" />
    <glyph glyph-name="uni024A" unicode="&#x24a;" horiz-adv-x="604" 
d="M674 -174q-47 -37 -108 -37q-63 0 -101.5 36.5t-38.5 106.5v113q-56 -58 -140 -58q-67 0 -120.5 37.5t-84.5 114.5t-31 191q0 119 31.5 202.5t86 126t121.5 42.5q85 0 141 -61l6 48h83v-759q0 -67 54 -67q20 0 34.5 4.5t30.5 14.5zM426 120v449q-48 58 -121 58t-115 -71
t-42 -226q0 -269 152 -269q76 0 126 59z" />
    <glyph glyph-name="R" unicode="R" horiz-adv-x="545" 
d="M423 0l-148 293h-6h-91v-293h-93v688h161q246 0 246 -194q0 -68 -33 -115t-97 -69l164 -310h-103zM360 395.5q35 31.5 35 98.5q0 63 -35.5 93t-115.5 30h-66v-253h75q72 0 107 31.5z" />
    <glyph glyph-name="Racute" unicode="&#x154;" horiz-adv-x="545" 
d="M423 0l-148 293h-6h-91v-293h-93v688h161q246 0 246 -194q0 -68 -33 -115t-97 -69l164 -310h-103zM360 395.5q35 31.5 35 98.5q0 63 -35.5 93t-115.5 30h-66v-253h75q72 0 107 31.5zM340 908l38 -73l-194 -79l-24 47z" />
    <glyph glyph-name="Rcaron" unicode="&#x158;" horiz-adv-x="545" 
d="M423 0l-148 293h-6h-91v-293h-93v688h161q246 0 246 -194q0 -68 -33 -115t-97 -69l164 -310h-103zM360 395.5q35 31.5 35 98.5q0 63 -35.5 93t-115.5 30h-66v-253h75q72 0 107 31.5zM383 905l35 -39l-121 -112h-56l-121 112l36 39l113 -81z" />
    <glyph glyph-name="Rcommaaccent" unicode="&#x156;" horiz-adv-x="545" 
d="M423 0l-148 293h-6h-91v-293h-93v688h161q246 0 246 -194q0 -68 -33 -115t-97 -69l164 -310h-103zM360 395.5q35 31.5 35 98.5q0 63 -35.5 93t-115.5 30h-66v-253h75q72 0 107 31.5zM317.5 -94q14.5 -15 14.5 -39q0 -13 -4.5 -28t-17.5 -45l-38 -88h-49l29 115
q-26 17 -26 46q0 23 15 38.5t38 15.5q24 0 38.5 -15z" />
    <glyph glyph-name="uni0210" unicode="&#x210;" horiz-adv-x="545" 
d="M423 0l-148 293h-6h-91v-293h-93v688h161q246 0 246 -194q0 -68 -33 -115t-97 -69l164 -310h-103zM360 395.5q35 31.5 35 98.5q0 63 -35.5 93t-115.5 30h-66v-253h75q72 0 107 31.5zM157 953l77 -168l-50 -23l-95 155zM292 953l69 -164l-51 -22l-87 150z" />
    <glyph glyph-name="uni1E5A" unicode="&#x1e5a;" horiz-adv-x="545" 
d="M423 0l-148 293h-6h-91v-293h-93v688h161q246 0 246 -194q0 -68 -33 -115t-97 -69l164 -310h-103zM360 395.5q35 31.5 35 98.5q0 63 -35.5 93t-115.5 30h-66v-253h75q72 0 107 31.5zM236.5 -177q-16.5 17 -16.5 42t16 41.5t43 16.5q26 0 42.5 -16.5t16.5 -41.5t-16.5 -42
t-42.5 -17t-42.5 17z" />
    <glyph glyph-name="uni0212" unicode="&#x212;" horiz-adv-x="545" 
d="M423 0l-148 293h-6h-91v-293h-93v688h161q246 0 246 -194q0 -68 -33 -115t-97 -69l164 -310h-103zM360 395.5q35 31.5 35 98.5q0 63 -35.5 93t-115.5 30h-66v-253h75q72 0 107 31.5zM361 885q36 -35 42 -96l-54 -12q-18 76 -81 76q-61 0 -79 -76l-54 12q6 61 41.5 96
t91.5 35q57 0 93 -35z" />
    <glyph glyph-name="uni024C" unicode="&#x24c;" horiz-adv-x="553" 
d="M431 0l-148 293h-6h-91v-293h-93v293h-73v71h73v324h161q246 0 246 -194q0 -68 -33 -115t-97 -69l164 -310h-103zM368 395.5q35 31.5 35 98.5q0 63 -35.5 93t-115.5 30h-66v-253h75q72 0 107 31.5z" />
    <glyph glyph-name="uni2C64" unicode="&#x2c64;" horiz-adv-x="545" 
d="M177 0v-71q0 -67 54 -67q20 0 34.5 4.5t30.5 14.5l36 -55q-47 -37 -108 -37q-63 0 -101.5 36.5t-38.5 106.5v69h1v687h161q246 0 246 -194q0 -68 -33 -115t-97 -69l164 -310h-103l-148 293h-6h-91v-293h-1zM178 617v-253h75q72 0 107 31.5t35 98.5q0 63 -35.5 93
t-115.5 30h-66z" />
    <glyph glyph-name="uni2C64.ss01" horiz-adv-x="380" 
d="M232 -138q20 0 34.5 4.5t30.5 14.5l36 -55q-47 -37 -108 -37q-63 0 -101.5 36.5t-38.5 106.5v756h81l6 -97q44 109 149 109q35 0 60 -9l-18 -88q-23 7 -52 7q-51 0 -83.5 -35t-49.5 -104v-542q0 -67 54 -67z" />
    <glyph glyph-name="S" unicode="S" horiz-adv-x="496" 
d="M354.5 681q45.5 -20 85.5 -60l-47 -53q-34 30 -67.5 44.5t-72.5 14.5q-50 0 -80.5 -27.5t-30.5 -72.5q0 -30 12 -51.5t41 -39t82 -35.5q61 -22 100 -47t60 -64t21 -98t-27 -105.5t-77.5 -73t-118.5 -26.5q-125 0 -213 90l49 53q37 -33 75.5 -50.5t85.5 -17.5
q59 0 94.5 33.5t35.5 92.5q0 51 -28.5 81t-104.5 56q-97 34 -139.5 79t-42.5 117q0 51 25.5 92.5t71.5 64.5t104 23q61 0 106.5 -20z" />
    <glyph glyph-name="Sacute" unicode="&#x15a;" horiz-adv-x="496" 
d="M354.5 681q45.5 -20 85.5 -60l-47 -53q-34 30 -67.5 44.5t-72.5 14.5q-50 0 -80.5 -27.5t-30.5 -72.5q0 -30 12 -51.5t41 -39t82 -35.5q61 -22 100 -47t60 -64t21 -98t-27 -105.5t-77.5 -73t-118.5 -26.5q-125 0 -213 90l49 53q37 -33 75.5 -50.5t85.5 -17.5
q59 0 94.5 33.5t35.5 92.5q0 51 -28.5 81t-104.5 56q-97 34 -139.5 79t-42.5 117q0 51 25.5 92.5t71.5 64.5t104 23q61 0 106.5 -20zM322 908l38 -73l-194 -79l-24 47z" />
    <glyph glyph-name="Sacute.loclPLK" horiz-adv-x="496" 
d="M354.5 681q45.5 -20 85.5 -60l-47 -53q-34 30 -67.5 44.5t-72.5 14.5q-50 0 -80.5 -27.5t-30.5 -72.5q0 -30 12 -51.5t41 -39t82 -35.5q61 -22 100 -47t60 -64t21 -98t-27 -105.5t-77.5 -73t-118.5 -26.5q-125 0 -213 90l49 53q37 -33 75.5 -50.5t85.5 -17.5
q59 0 94.5 33.5t35.5 92.5q0 51 -28.5 81t-104.5 56q-97 34 -139.5 79t-42.5 117q0 51 25.5 92.5t71.5 64.5t104 23q61 0 106.5 -20zM292 926l70 -44l-117 -147l-43 26z" />
    <glyph glyph-name="uniA78B" unicode="&#xa78b;" horiz-adv-x="210" 
d="M69 347l-11 341h94l-12 -341h-71z" />
    <glyph glyph-name="Scaron" unicode="&#x160;" horiz-adv-x="496" 
d="M354.5 681q45.5 -20 85.5 -60l-47 -53q-34 30 -67.5 44.5t-72.5 14.5q-50 0 -80.5 -27.5t-30.5 -72.5q0 -30 12 -51.5t41 -39t82 -35.5q61 -22 100 -47t60 -64t21 -98t-27 -105.5t-77.5 -73t-118.5 -26.5q-125 0 -213 90l49 53q37 -33 75.5 -50.5t85.5 -17.5
q59 0 94.5 33.5t35.5 92.5q0 51 -28.5 81t-104.5 56q-97 34 -139.5 79t-42.5 117q0 51 25.5 92.5t71.5 64.5t104 23q61 0 106.5 -20zM365 905l35 -39l-121 -112h-56l-121 112l36 39l113 -81z" />
    <glyph glyph-name="Scedilla" unicode="&#x15e;" horiz-adv-x="496" 
d="M406.5 55q-51.5 -56 -138.5 -66v-49q44 -5 65.5 -26.5t21.5 -56.5q0 -45 -31.5 -70.5t-80.5 -25.5q-50 0 -84 24l24 46q26 -13 55 -13q21 0 33.5 10t12.5 29q0 22 -19.5 32.5t-61.5 10.5l9 88q-108 7 -190 89l49 53q37 -33 75.5 -50.5t85.5 -17.5q59 0 94.5 33.5
t35.5 92.5q0 51 -28.5 81t-104.5 56q-97 34 -139.5 79t-42.5 117q0 51 25.5 92.5t71.5 64.5t104 23q61 0 106.5 -20t85.5 -60l-47 -53q-34 30 -67.5 44.5t-72.5 14.5q-50 0 -80.5 -27.5t-30.5 -72.5q0 -30 12 -51.5t41 -39t82 -35.5q61 -22 100 -47t60 -64t21 -98
q0 -81 -51.5 -137z" />
    <glyph glyph-name="Scircumflex" unicode="&#x15c;" horiz-adv-x="496" 
d="M354.5 681q45.5 -20 85.5 -60l-47 -53q-34 30 -67.5 44.5t-72.5 14.5q-50 0 -80.5 -27.5t-30.5 -72.5q0 -30 12 -51.5t41 -39t82 -35.5q61 -22 100 -47t60 -64t21 -98t-27 -105.5t-77.5 -73t-118.5 -26.5q-125 0 -213 90l49 53q37 -33 75.5 -50.5t85.5 -17.5
q59 0 94.5 33.5t35.5 92.5q0 51 -28.5 81t-104.5 56q-97 34 -139.5 79t-42.5 117q0 51 25.5 92.5t71.5 64.5t104 23q61 0 106.5 -20zM136 761l-35 39l122 112h55l121 -112l-35 -39l-114 81z" />
    <glyph glyph-name="Scommaaccent" unicode="&#x218;" horiz-adv-x="496" 
d="M354.5 681q45.5 -20 85.5 -60l-47 -53q-34 30 -67.5 44.5t-72.5 14.5q-50 0 -80.5 -27.5t-30.5 -72.5q0 -30 12 -51.5t41 -39t82 -35.5q61 -22 100 -47t60 -64t21 -98t-27 -105.5t-77.5 -73t-118.5 -26.5q-125 0 -213 90l49 53q37 -33 75.5 -50.5t85.5 -17.5
q59 0 94.5 33.5t35.5 92.5q0 51 -28.5 81t-104.5 56q-97 34 -139.5 79t-42.5 117q0 51 25.5 92.5t71.5 64.5t104 23q61 0 106.5 -20zM281.5 -94q14.5 -15 14.5 -39q0 -13 -4.5 -28t-17.5 -45l-38 -88h-49l29 115q-26 17 -26 46q0 23 15 38.5t38 15.5q24 0 38.5 -15z" />
    <glyph glyph-name="uni1E60" unicode="&#x1e60;" horiz-adv-x="496" 
d="M354.5 681q45.5 -20 85.5 -60l-47 -53q-34 30 -67.5 44.5t-72.5 14.5q-50 0 -80.5 -27.5t-30.5 -72.5q0 -30 12 -51.5t41 -39t82 -35.5q61 -22 100 -47t60 -64t21 -98t-27 -105.5t-77.5 -73t-118.5 -26.5q-125 0 -213 90l49 53q37 -33 75.5 -50.5t85.5 -17.5
q59 0 94.5 33.5t35.5 92.5q0 51 -28.5 81t-104.5 56q-97 34 -139.5 79t-42.5 117q0 51 25.5 92.5t71.5 64.5t104 23q61 0 106.5 -20zM293.5 883q16.5 -17 16.5 -42t-16 -41.5t-43 -16.5q-26 0 -42.5 16.5t-16.5 41.5t16.5 42t42.5 17t42.5 -17z" />
    <glyph glyph-name="uni1E62" unicode="&#x1e62;" horiz-adv-x="496" 
d="M354.5 681q45.5 -20 85.5 -60l-47 -53q-34 30 -67.5 44.5t-72.5 14.5q-50 0 -80.5 -27.5t-30.5 -72.5q0 -30 12 -51.5t41 -39t82 -35.5q61 -22 100 -47t60 -64t21 -98t-27 -105.5t-77.5 -73t-118.5 -26.5q-125 0 -213 90l49 53q37 -33 75.5 -50.5t85.5 -17.5
q59 0 94.5 33.5t35.5 92.5q0 51 -28.5 81t-104.5 56q-97 34 -139.5 79t-42.5 117q0 51 25.5 92.5t71.5 64.5t104 23q61 0 106.5 -20zM200.5 -177q-16.5 17 -16.5 42t16 41.5t43 16.5q26 0 42.5 -16.5t16.5 -41.5t-16.5 -42t-42.5 -17t-42.5 17z" />
    <glyph glyph-name="uni1E9E" unicode="&#x1e9e;" horiz-adv-x="593" 
d="M516 635v-56l-156 -191q196 -28 196 -197q0 -95 -55.5 -149.5t-145.5 -54.5q-64 0 -109 24l29 65q32 -14 71 -14q53 0 82.5 32.5t29.5 96.5q0 69 -44 102t-137 38v66l158 198q-76 32 -144 32q-56 0 -84.5 -32t-28.5 -94v-501h-93v501q0 93 52.5 146.5t147.5 53.5
q110 0 231 -66z" />
    <glyph glyph-name="uni018F" unicode="&#x18f;" horiz-adv-x="586" 
d="M470 616q65 -85 65 -265q0 -185 -66.5 -274.5t-182.5 -89.5q-121 0 -183.5 87t-62.5 260q0 25 3 50h397q-4 131 -44.5 187t-116.5 56q-45 0 -82 -16.5t-76 -47.5l-45 53q46 43 96.5 64t112.5 21q120 0 185 -85zM396.5 119.5q39.5 58.5 43.5 193.5h-309q1 -134 41 -193
t113 -59q72 0 111.5 58.5z" />
    <glyph glyph-name="T" unicode="T" horiz-adv-x="463" 
d="M458 688l-11 -76h-169v-612h-93v612h-174v76h447z" />
    <glyph glyph-name="Tbar" unicode="&#x166;" horiz-adv-x="463" 
d="M447 611h-169v-225h109v-64h-109v-323h-93v323h-108v64h108v225h-174v76h447z" />
    <glyph glyph-name="Tcaron" unicode="&#x164;" horiz-adv-x="463" 
d="M458 688l-11 -76h-169v-612h-93v612h-174v76h447zM346 905l35 -39l-121 -112h-56l-121 112l36 39l113 -81z" />
    <glyph glyph-name="uni0162" unicode="&#x162;" horiz-adv-x="463" 
d="M344 -84.5q22 -22.5 22 -57.5q0 -45 -31.5 -71t-82.5 -26q-49 0 -82 24l24 49q27 -16 53 -16q22 0 35 10t13 30q0 21 -19 31.5t-62 10.5l10 100h-39v612h-174v76h447l-11 -76h-169v-670q44 -4 66 -26.5z" />
    <glyph glyph-name="uni1E70" unicode="&#x1e70;" horiz-adv-x="463" 
d="M458 688l-11 -76h-169v-612h-93v612h-174v76h447zM118 -223l-35 38l121 117h56l121 -117l-35 -38l-114 85z" />
    <glyph glyph-name="uni021A" unicode="&#x21a;" horiz-adv-x="463" 
d="M458 688l-11 -76h-169v-612h-93v612h-174v76h447zM270.5 -94q14.5 -15 14.5 -39q0 -13 -4.5 -28t-17.5 -45l-38 -88h-49l29 115q-26 17 -26 46q0 23 15 38.5t38 15.5q24 0 38.5 -15z" />
    <glyph glyph-name="uni023E" unicode="&#x23e;" horiz-adv-x="464" 
d="M447 612h-88l-84 -240v-372h-87v125l-69 -196l-37 14l106 301v368h-177v76h333l23 64l37 -13l-18 -51h72zM275 491l43 121h-43v-121z" />
    <glyph glyph-name="uni1E6A" unicode="&#x1e6a;" horiz-adv-x="463" 
d="M458 688l-11 -76h-169v-612h-93v612h-174v76h447zM274.5 883q16.5 -17 16.5 -42t-16 -41.5t-43 -16.5q-26 0 -42.5 16.5t-16.5 41.5t16.5 42t42.5 17t42.5 -17z" />
    <glyph glyph-name="uni1E6C" unicode="&#x1e6c;" horiz-adv-x="463" 
d="M458 688l-11 -76h-169v-612h-93v612h-174v76h447zM189.5 -177q-16.5 17 -16.5 42t16 41.5t43 16.5q26 0 42.5 -16.5t16.5 -41.5t-16.5 -42t-42.5 -17t-42.5 17z" />
    <glyph glyph-name="uni01AC" unicode="&#x1ac;" horiz-adv-x="499" 
d="M483 611h-169v-611h-93v611h-79q-27 0 -40 -13.5t-13 -37.5q0 -34 19 -69l-64 -32q-34 52 -34 105q0 58 37 91t104 33h342z" />
    <glyph glyph-name="uni1E6E" unicode="&#x1e6e;" horiz-adv-x="463" 
d="M458 688l-11 -76h-169v-612h-93v612h-174v76h447zM353 -170h-242v66h242v-66z" />
    <glyph glyph-name="uni01BC" unicode="&#x1bc;" horiz-adv-x="466" 
d="M391 619h-241v-210q46 28 102 28q79 0 126.5 -56.5t47.5 -159.5q0 -70 -26.5 -123t-75.5 -82t-114 -29q-59 0 -104 22.5t-82 65.5l52 48q29 -32 60 -47.5t71 -15.5q60 0 93.5 41.5t33.5 120.5q0 148 -112 148q-26 0 -47.5 -6.5t-45.5 -20.5h-65v345h339z" />
    <glyph glyph-name="uni0184" unicode="&#x184;" horiz-adv-x="524" 
d="M437 381.5q62 -52.5 62 -158.5q0 -115 -63 -169t-176 -54h-172v530l-56 39q41 46 70 119h80v-254h78q115 0 177 -52.5zM365.5 107q35.5 34 35.5 115q0 74 -35.5 107.5t-107.5 33.5h-76v-290h80q68 0 103.5 34z" />
    <glyph glyph-name="uni01A7" unicode="&#x1a7;" horiz-adv-x="488" 
d="M397 653.5q53 -47.5 53 -125.5q0 -75 -42.5 -119t-140.5 -79q-76 -27 -104.5 -59t-28.5 -87q0 -58 34 -89.5t89 -31.5q47 0 85 17t75 49l49 -52q-87 -90 -214 -90q-64 0 -112.5 25.5t-75.5 70.5t-27 103q0 85 44.5 131t137.5 79q53 19 81.5 37t40.5 40.5t12 56.5
q0 47 -27 72t-75 25q-42 0 -76.5 -14t-70.5 -44l-47 52q43 40 90.5 60t108.5 20q88 0 141 -47.5z" />
    <glyph glyph-name="uni01AE" unicode="&#x1ae;" horiz-adv-x="465" 
d="M332 -138q20 0 34.5 4.5t30.5 14.5l36 -55q-47 -37 -108 -37q-63 0 -101.5 36.5t-38.5 106.5v680h-174v76h447l-11 -76h-169v-683q0 -67 54 -67z" />
    <glyph glyph-name="U" unicode="U" horiz-adv-x="588" 
d="M514 202q0 -95 -57 -155t-163 -60q-107 0 -163 59.5t-56 155.5v486h93v-480q0 -145 126 -145t126 145v480h94v-486z" />
    <glyph glyph-name="Uacute" unicode="&#xda;" horiz-adv-x="588" 
d="M514 202q0 -95 -57 -155t-163 -60q-107 0 -163 59.5t-56 155.5v486h93v-480q0 -145 126 -145t126 145v480h94v-486zM365 908l38 -73l-194 -79l-24 47z" />
    <glyph glyph-name="uni0244" unicode="&#x244;" horiz-adv-x="614" 
d="M583 509h-56v-307q0 -95 -57 -155t-163 -60q-107 0 -163 59.5t-56 155.5v307h-57v62h57v117h93v-117h252v117h94v-117h56v-62zM433 509h-252v-301q0 -145 126 -145t126 145v301z" />
    <glyph glyph-name="Ubreve" unicode="&#x16c;" horiz-adv-x="588" 
d="M514 202q0 -95 -57 -155t-163 -60q-107 0 -163 59.5t-56 155.5v486h93v-480q0 -145 126 -145t126 145v480h94v-486zM201.5 792.5q-35.5 32.5 -41.5 87.5l54 12q8 -31 28 -48t51 -17t52 17t29 48l54 -12q-6 -55 -42.5 -87.5t-92.5 -32.5t-91.5 32.5z" />
    <glyph glyph-name="uni01D3" unicode="&#x1d3;" horiz-adv-x="588" 
d="M514 202q0 -95 -57 -155t-163 -60q-107 0 -163 59.5t-56 155.5v486h93v-480q0 -145 126 -145t126 145v480h94v-486zM408 905l35 -39l-121 -112h-56l-121 112l36 39l113 -81z" />
    <glyph glyph-name="Ucircumflex" unicode="&#xdb;" horiz-adv-x="588" 
d="M514 202q0 -95 -57 -155t-163 -60q-107 0 -163 59.5t-56 155.5v486h93v-480q0 -145 126 -145t126 145v480h94v-486zM179 761l-35 39l122 112h55l121 -112l-35 -39l-114 81z" />
    <glyph glyph-name="uni0214" unicode="&#x214;" horiz-adv-x="588" 
d="M514 202q0 -95 -57 -155t-163 -60q-107 0 -163 59.5t-56 155.5v486h93v-480q0 -145 126 -145t126 145v480h94v-486zM182 953l77 -168l-50 -23l-95 155zM317 953l69 -164l-51 -22l-87 150z" />
    <glyph glyph-name="Udieresis" unicode="&#xdc;" horiz-adv-x="588" 
d="M514 202q0 -95 -57 -155t-163 -60q-107 0 -163 59.5t-56 155.5v486h93v-480q0 -145 126 -145t126 145v480h94v-486zM240 873q15 -15 15 -38t-15 -38.5t-37 -15.5q-23 0 -38 15.5t-15 38.5t15 38t38 15q22 0 37 -15zM427 873q15 -15 15 -38t-15 -38.5t-37 -15.5
t-37.5 15.5t-15.5 38.5t15 38t38 15q22 0 37 -15z" />
    <glyph glyph-name="uni01D7" unicode="&#x1d7;" horiz-adv-x="588" 
d="M514 202q0 -95 -57 -155t-163 -60q-107 0 -163 59.5t-56 155.5v486h93v-480q0 -145 126 -145t126 145v480h94v-486zM367 1011l57 -49l-127 -129l-37 32zM236 837.5q15 -15.5 15 -38.5t-15 -38t-37 -15q-23 0 -38 15t-15 38t15 38.5t38 15.5q22 0 37 -15.5zM426 837.5
q15 -15.5 15 -38.5t-15 -38t-37 -15t-37.5 15.5t-15.5 37.5q0 23 15.5 38.5t37.5 15.5t37 -15.5z" />
    <glyph glyph-name="uni01D9" unicode="&#x1d9;" horiz-adv-x="588" 
d="M514 202q0 -95 -57 -155t-163 -60q-107 0 -163 59.5t-56 155.5v486h93v-480q0 -145 126 -145t126 145v480h94v-486zM406 1008l35 -39l-121 -112h-56l-121 112l36 39l113 -81zM236 837.5q15 -15.5 15 -38.5t-15 -38t-37 -15q-23 0 -38 15t-15 38t15 38.5t38 15.5
q22 0 37 -15.5zM426 837.5q15 -15.5 15 -38.5t-15 -38t-38 -15q-22 0 -37 15t-15 38t15 38.5t37 15.5q23 0 38 -15.5z" />
    <glyph glyph-name="uni01DB" unicode="&#x1db;" horiz-adv-x="588" 
d="M514 202q0 -95 -57 -155t-163 -60q-107 0 -163 59.5t-56 155.5v486h93v-480q0 -145 126 -145t126 145v480h94v-486zM228 1011l108 -146l-38 -32l-127 129zM236 837.5q15 -15.5 15 -38.5t-15 -38t-37 -15q-23 0 -38 15t-15 38t15 38.5t38 15.5q22 0 37 -15.5zM426 837.5
q15 -15.5 15 -38.5t-15 -38t-37 -15t-37.5 15.5t-15.5 37.5q0 23 15.5 38.5t37.5 15.5t37 -15.5z" />
    <glyph glyph-name="uni01D5" unicode="&#x1d5;" horiz-adv-x="588" 
d="M514 202q0 -95 -57 -155t-163 -60q-107 0 -163 59.5t-56 155.5v486h93v-480q0 -145 126 -145t126 145v480h94v-486zM238 837q15 -15 15 -38t-15 -38.5t-37 -15.5q-23 0 -38 15.5t-15 38.5t15 38t38 15q22 0 37 -15zM425 837q15 -15 15 -38t-15 -38.5t-37 -15.5
t-37.5 15.5t-15.5 38.5t15 38t38 15q22 0 37 -15zM416 902h-242v66h242v-66z" />
    <glyph glyph-name="uni1EE4" unicode="&#x1ee4;" horiz-adv-x="588" 
d="M514 202q0 -95 -57 -155t-163 -60q-107 0 -163 59.5t-56 155.5v486h93v-480q0 -145 126 -145t126 145v480h94v-486zM251.5 -177q-16.5 17 -16.5 42t16 41.5t43 16.5q26 0 42.5 -16.5t16.5 -41.5t-16.5 -42t-42.5 -17t-42.5 17z" />
    <glyph glyph-name="Ugrave" unicode="&#xd9;" horiz-adv-x="588" 
d="M514 202q0 -95 -57 -155t-163 -60q-107 0 -163 59.5t-56 155.5v486h93v-480q0 -145 126 -145t126 145v480h94v-486zM218 908l181 -105l-24 -48l-194 80z" />
    <glyph glyph-name="uni1EE6" unicode="&#x1ee6;" horiz-adv-x="588" 
d="M514 202q0 -95 -57 -155t-163 -60q-107 0 -163 59.5t-56 155.5v486h93v-480q0 -145 126 -145t126 145v480h94v-486zM263 848q34 4 49 13t15 31q0 18 -10.5 27.5t-29.5 9.5q-15 0 -26.5 -3t-26.5 -10l-18 47q39 23 84 23t70.5 -24.5t25.5 -64.5q0 -35 -18.5 -56t-52.5 -27
v-46h-62v80z" />
    <glyph glyph-name="Uhorn" unicode="&#x1af;" horiz-adv-x="620" 
d="M514 582v-380q0 -95 -57 -155t-163 -60q-107 0 -163 59.5t-56 155.5v486h93v-480q0 -145 126 -145t126 145v480h94v-54q22 4 32 16.5t10 34.5q0 36 -13 73l63 14q17 -38 17 -85q0 -97 -109 -105z" />
    <glyph glyph-name="uni1EE8" unicode="&#x1ee8;" horiz-adv-x="620" 
d="M403 835l-194 -79l-24 47l180 105zM514 582v-380q0 -95 -57 -155t-163 -60q-107 0 -163 59.5t-56 155.5v486h93v-480q0 -145 126 -145t126 145v480h94v-54q22 4 32 16.5t10 34.5q0 36 -13 73l63 14q17 -38 17 -85q0 -97 -109 -105z" />
    <glyph glyph-name="uni1EF0" unicode="&#x1ef0;" horiz-adv-x="620" 
d="M514 582v-380q0 -95 -57 -155t-163 -60q-107 0 -163 59.5t-56 155.5v486h93v-480q0 -145 126 -145t126 145v480h94v-54q22 4 32 16.5t10 34.5q0 36 -13 73l63 14q17 -38 17 -85q0 -97 -109 -105zM336.5 -93.5q16.5 -16.5 16.5 -41.5t-16.5 -42t-42.5 -17t-42.5 17
t-16.5 42t16 41.5t43 16.5q26 0 42.5 -16.5z" />
    <glyph glyph-name="uni1EEA" unicode="&#x1eea;" horiz-adv-x="620" 
d="M399 803l-24 -48l-194 80l37 73zM514 582v-380q0 -95 -57 -155t-163 -60q-107 0 -163 59.5t-56 155.5v486h93v-480q0 -145 126 -145t126 145v480h94v-54q22 4 32 16.5t10 34.5q0 36 -13 73l63 14q17 -38 17 -85q0 -97 -109 -105z" />
    <glyph glyph-name="uni1EEC" unicode="&#x1eec;" horiz-adv-x="620" 
d="M260.5 926q-11.5 -3 -26.5 -10l-18 47q39 23 84 23t70.5 -24.5t25.5 -64.5q0 -35 -18.5 -56t-52.5 -27v-46h-62v80q34 4 49 13t15 31q0 18 -10.5 27.5t-29.5 9.5q-15 0 -26.5 -3zM514 582v-380q0 -95 -57 -155t-163 -60q-107 0 -163 59.5t-56 155.5v486h93v-480
q0 -145 126 -145t126 145v480h94v-54q22 4 32 16.5t10 34.5q0 36 -13 73l63 14q17 -38 17 -85q0 -97 -109 -105z" />
    <glyph glyph-name="uni1EEE" unicode="&#x1eee;" horiz-adv-x="620" 
d="M216 819q-11 -10 -24 -32l-48 23q17 39 41.5 61.5t54.5 22.5q17 0 31 -6.5t31 -18.5q14 -10 24 -14.5t21 -4.5q14 0 25 10t23 33l49 -23q-32 -85 -96 -85q-18 0 -32 6.5t-33 19.5q-10 7 -21 12.5t-20 5.5q-15 0 -26 -10zM514 582v-380q0 -95 -57 -155t-163 -60
q-107 0 -163 59.5t-56 155.5v486h93v-480q0 -145 126 -145t126 145v480h94v-54q22 4 32 16.5t10 34.5q0 36 -13 73l63 14q17 -38 17 -85q0 -97 -109 -105z" />
    <glyph glyph-name="Uhungarumlaut" unicode="&#x170;" horiz-adv-x="588" 
d="M514 202q0 -95 -57 -155t-163 -60q-107 0 -163 59.5t-56 155.5v486h93v-480q0 -145 126 -145t126 145v480h94v-486zM266 953l68 -36l-87 -150l-50 22zM401 953l68 -36l-95 -155l-50 23z" />
    <glyph glyph-name="uni0216" unicode="&#x216;" horiz-adv-x="588" 
d="M514 202q0 -95 -57 -155t-163 -60q-107 0 -163 59.5t-56 155.5v486h93v-480q0 -145 126 -145t126 145v480h94v-486zM386 885q36 -35 42 -96l-54 -12q-18 76 -81 76q-61 0 -79 -76l-54 12q6 61 41.5 96t91.5 35q57 0 93 -35z" />
    <glyph glyph-name="Umacron" unicode="&#x16a;" horiz-adv-x="588" 
d="M514 202q0 -95 -57 -155t-163 -60q-107 0 -163 59.5t-56 155.5v486h93v-480q0 -145 126 -145t126 145v480h94v-486zM415 795h-242v66h242v-66z" />
    <glyph glyph-name="Uogonek" unicode="&#x172;" horiz-adv-x="588" 
d="M514 688v-486q0 -75 -36 -129.5t-105 -74.5q-58 -28 -81 -54.5t-23 -56.5q0 -24 13.5 -37t39.5 -13q25 0 53 7l-7 -65q-31 -7 -57 -7q-52 0 -82.5 27.5t-30.5 72.5q0 37 22.5 66t63.5 49q-102 3 -155.5 62t-53.5 153v486h93v-480q0 -145 126 -145t126 145v480h94z" />
    <glyph glyph-name="uni01B1" unicode="&#x1b1;" horiz-adv-x="622" 
d="M170.5 25q-59.5 38 -91.5 111t-32 174q0 114 32 184t88 120h-100v74h185v-72q-53 -50 -80 -120.5t-27 -185.5q0 -126 43 -187t123 -61q79 0 122.5 61t43.5 187q0 114 -27.5 184.5t-79.5 121.5v72h186v-74h-101q56 -45 88 -116t32 -188q0 -99 -32.5 -172t-92 -112
t-139.5 -39q-81 0 -140.5 38z" />
    <glyph glyph-name="Uring" unicode="&#x16e;" horiz-adv-x="588" 
d="M514 202q0 -95 -57 -155t-163 -60q-107 0 -163 59.5t-56 155.5v486h93v-480q0 -145 126 -145t126 145v480h94v-486zM369.5 932q28.5 -29 28.5 -76t-28.5 -76.5t-75.5 -29.5t-75.5 29.5t-28.5 76.5t28.5 76t75.5 29t75.5 -29zM248 856q0 -57 46 -57q47 0 47 57t-47 57
q-46 0 -46 -57z" />
    <glyph glyph-name="Utilde" unicode="&#x168;" horiz-adv-x="588" 
d="M514 202q0 -95 -57 -155t-163 -60q-107 0 -163 59.5t-56 155.5v486h93v-480q0 -145 126 -145t126 145v480h94v-486zM316 791.5q-14 6.5 -33 19.5q-10 7 -21 12.5t-20 5.5q-15 0 -26 -10t-24 -32l-48 23q17 39 41.5 61.5t54.5 22.5q17 0 31 -6.5t31 -18.5q14 -10 24 -14.5
t21 -4.5q14 0 25 10t23 33l49 -23q-32 -85 -96 -85q-18 0 -32 6.5z" />
    <glyph glyph-name="uni1E78" unicode="&#x1e78;" horiz-adv-x="588" 
d="M514 202q0 -95 -57 -155t-163 -60q-107 0 -163 59.5t-56 155.5v486h93v-480q0 -145 126 -145t126 145v480h94v-486zM316 766.5q-14 6.5 -33 19.5q-10 7 -21 12.5t-20 5.5q-15 0 -26 -10t-24 -32l-48 23q17 39 41.5 61.5t54.5 22.5q17 0 31 -6.5t31 -18.5q14 -10 24 -14.5
t21 -4.5q14 0 25 10t23 33l49 -23q-32 -85 -96 -85q-18 0 -32 6.5zM365 1048l38 -73l-194 -79l-24 47z" />
    <glyph glyph-name="V" unicode="V" horiz-adv-x="509" 
d="M501 688l-190 -688h-111l-193 688h96l154 -598l152 598h92z" />
    <glyph glyph-name="uni01B2" unicode="&#x1b2;" horiz-adv-x="588" 
d="M485.5 670.5q28.5 -30.5 28.5 -89.5v-301q0 -91 -30 -157t-84 -101t-125 -35q-92 0 -146 56t-54 145v500h93v-498q0 -61 28.5 -94t79.5 -33q67 0 105.5 56t38.5 162v300q0 24 -8 35.5t-26 11.5q-16 0 -32 -7l-19 63q32 17 70 17q52 0 80.5 -30.5z" />
    <glyph glyph-name="uni0245" unicode="&#x245;" horiz-adv-x="526" 
d="M320 688l199 -688h-97l-160 614l-160 -614h-95l199 688h114z" />
    <glyph glyph-name="W" unicode="W" horiz-adv-x="749" 
d="M726 688l-122 -688h-120l-110 586l-112 -586h-118l-121 688h90l96 -609l115 609h101l115 -609l99 609h87z" />
    <glyph glyph-name="Wacute" unicode="&#x1e82;" horiz-adv-x="749" 
d="M726 688l-122 -688h-120l-110 586l-112 -586h-118l-121 688h90l96 -609l115 609h101l115 -609l99 609h87zM446 908l38 -73l-194 -79l-24 47z" />
    <glyph glyph-name="Wcircumflex" unicode="&#x174;" horiz-adv-x="749" 
d="M726 688l-122 -688h-120l-110 586l-112 -586h-118l-121 688h90l96 -609l115 609h101l115 -609l99 609h87zM260 761l-35 39l122 112h55l121 -112l-35 -39l-114 81z" />
    <glyph glyph-name="Wdieresis" unicode="&#x1e84;" horiz-adv-x="749" 
d="M726 688l-122 -688h-120l-110 586l-112 -586h-118l-121 688h90l96 -609l115 609h101l115 -609l99 609h87zM321 873q15 -15 15 -38t-15 -38.5t-37 -15.5q-23 0 -38 15.5t-15 38.5t15 38t38 15q22 0 37 -15zM508 873q15 -15 15 -38t-15 -38.5t-37 -15.5t-37.5 15.5
t-15.5 38.5t15 38t38 15q22 0 37 -15z" />
    <glyph glyph-name="Wgrave" unicode="&#x1e80;" horiz-adv-x="749" 
d="M726 688l-122 -688h-120l-110 586l-112 -586h-118l-121 688h90l96 -609l115 609h101l115 -609l99 609h87zM299 908l181 -105l-24 -48l-194 80z" />
    <glyph glyph-name="uni2C72" unicode="&#x2c72;" horiz-adv-x="788" 
d="M144 0h118l112 586l110 -586h120l92 570q5 34 18 47.5t36 13.5q16 0 28.5 -5t25.5 -15l31 52q-21 18 -44 28t-51 10q-107 0 -123 -124l-77 -498l-115 609h-101l-115 -609l-96 609h-90z" />
    <glyph glyph-name="uni01F7" unicode="&#x1f7;" horiz-adv-x="523" 
d="M411 678.5q39 -22.5 61.5 -65t22.5 -100.5q0 -72 -31 -123t-81.5 -85t-125.5 -66l-79 -33v-206h-93v688h93v-49q62 62 145 62q49 0 88 -22.5zM358.5 391q39.5 47 39.5 121q0 57 -26 86t-72 29q-67 0 -122 -55v-293l68 31q73 34 112.5 81z" />
    <glyph glyph-name="X" unicode="X" horiz-adv-x="488" 
d="M297 372l187 -372h-100l-143 309l-141 -309h-96l182 368l-166 320h100l123 -261l124 261h96z" />
    <glyph glyph-name="Y" unicode="Y" horiz-adv-x="498" 
d="M494 688l-198 -423v-265h-94v264l-198 424h100l147 -344l146 344h97z" />
    <glyph glyph-name="Yacute" unicode="&#xdd;" horiz-adv-x="498" 
d="M494 688l-198 -423v-265h-94v264l-198 424h100l147 -344l146 344h97zM320 908l38 -73l-194 -79l-24 47z" />
    <glyph glyph-name="Ycircumflex" unicode="&#x176;" horiz-adv-x="498" 
d="M494 688l-198 -423v-265h-94v264l-198 424h100l147 -344l146 344h97zM134 761l-35 39l122 112h55l121 -112l-35 -39l-114 81z" />
    <glyph glyph-name="Ydieresis" unicode="&#x178;" horiz-adv-x="498" 
d="M494 688l-198 -423v-265h-94v264l-198 424h100l147 -344l146 344h97zM195 873q15 -15 15 -38t-15 -38.5t-37 -15.5q-23 0 -38 15.5t-15 38.5t15 38t38 15q22 0 37 -15zM382 873q15 -15 15 -38t-15 -38.5t-37 -15.5t-37.5 15.5t-15.5 38.5t15 38t38 15q22 0 37 -15z" />
    <glyph glyph-name="uni1EF4" unicode="&#x1ef4;" horiz-adv-x="498" 
d="M494 688l-198 -423v-265h-94v264l-198 424h100l147 -344l146 344h97zM206.5 -177q-16.5 17 -16.5 42t16 41.5t43 16.5q26 0 42.5 -16.5t16.5 -41.5t-16.5 -42t-42.5 -17t-42.5 17z" />
    <glyph glyph-name="Ygrave" unicode="&#x1ef2;" horiz-adv-x="498" 
d="M494 688l-198 -423v-265h-94v264l-198 424h100l147 -344l146 344h97zM173 908l181 -105l-24 -48l-194 80z" />
    <glyph glyph-name="uni01B3" unicode="&#x1b3;" horiz-adv-x="524" 
d="M202 264l-198 424h100l147 -344l98 249q21 57 50.5 82.5t76.5 25.5q28 0 51 -10t44 -28l-31 -52q-13 10 -25.5 15t-28.5 5q-21 0 -34 -12.5t-28 -47.5l-128 -306v-265h-94v264z" />
    <glyph glyph-name="uni1EF6" unicode="&#x1ef6;" horiz-adv-x="498" 
d="M494 688l-198 -423v-265h-94v264l-198 424h100l147 -344l146 344h97zM218 848q34 4 49 13t15 31q0 18 -10.5 27.5t-29.5 9.5q-15 0 -26.5 -3t-26.5 -10l-18 47q39 23 84 23t70.5 -24.5t25.5 -64.5q0 -35 -18.5 -56t-52.5 -27v-46h-62v80z" />
    <glyph glyph-name="uni0232" unicode="&#x232;" horiz-adv-x="498" 
d="M494 688l-198 -423v-265h-94v264l-198 424h100l147 -344l146 344h97zM370 795h-242v66h242v-66z" />
    <glyph glyph-name="uni01A6" unicode="&#x1a6;" horiz-adv-x="547" 
d="M425 -123l-148 294h-6h-93v-171h-93v688h93v-122h70q124 0 185 -50t61 -145q0 -68 -33.5 -115t-97.5 -68l165 -311h-103zM362 272.5q35 31.5 35 98.5q0 63 -35 92.5t-116 30.5h-68v-253h77q72 0 107 31.5z" />
    <glyph glyph-name="uni024E" unicode="&#x24e;" horiz-adv-x="498" 
d="M494 688l-40 -86h39v-62h-68l-129 -275v-265h-94v264l-129 276h-67v62h38l-40 86h99l37 -86h222l37 86h95zM251 342l85 198h-170z" />
    <glyph glyph-name="uni1EF8" unicode="&#x1ef8;" horiz-adv-x="498" 
d="M494 688l-198 -423v-265h-94v264l-198 424h100l147 -344l146 344h97zM271 791.5q-14 6.5 -33 19.5q-10 7 -21 12.5t-20 5.5q-15 0 -26 -10t-24 -32l-48 23q17 39 41.5 61.5t54.5 22.5q17 0 31 -6.5t31 -18.5q14 -10 24 -14.5t21 -4.5q14 0 25 10t23 33l49 -23
q-32 -85 -96 -85q-18 0 -32 6.5z" />
    <glyph glyph-name="Z" unicode="Z" horiz-adv-x="472" 
d="M437 688v-74l-310 -535h309l-10 -79h-401v74l312 537h-281v77h381z" />
    <glyph glyph-name="Zacute" unicode="&#x179;" horiz-adv-x="472" 
d="M437 688v-74l-310 -535h309l-10 -79h-401v74l312 537h-281v77h381zM313 908l38 -73l-194 -79l-24 47z" />
    <glyph glyph-name="Zacute.loclPLK" horiz-adv-x="472" 
d="M437 688v-74l-310 -535h309l-10 -79h-401v74l312 537h-281v77h381zM283 926l70 -44l-117 -147l-43 26z" />
    <glyph glyph-name="Zcaron" unicode="&#x17d;" horiz-adv-x="472" 
d="M437 688v-74l-310 -535h309l-10 -79h-401v74l312 537h-281v77h381zM356 905l35 -39l-121 -112h-56l-121 112l36 39l113 -81z" />
    <glyph glyph-name="Zdotaccent" unicode="&#x17b;" horiz-adv-x="472" 
d="M437 688v-74l-310 -535h309l-10 -79h-401v74l312 537h-281v77h381zM284.5 883q16.5 -17 16.5 -42t-16 -41.5t-43 -16.5q-26 0 -42.5 16.5t-16.5 41.5t16.5 42t42.5 17t42.5 -17z" />
    <glyph glyph-name="uni1E92" unicode="&#x1e92;" horiz-adv-x="472" 
d="M437 688v-74l-310 -535h309l-10 -79h-401v74l312 537h-281v77h381zM191.5 -177q-16.5 17 -16.5 42t16 41.5t43 16.5q26 0 42.5 -16.5t16.5 -41.5t-16.5 -42t-42.5 -17t-42.5 17z" />
    <glyph glyph-name="uni0224" unicode="&#x224;" horiz-adv-x="471" 
d="M437 614l-310 -535h304v-147q0 -70 -38 -106.5t-101 -36.5q-62 0 -109 37l36 56q17 -10 31.5 -15t35.5 -5q55 0 55 67v71h-316v74l312 537h-281v77h381v-74z" />
    <glyph glyph-name="uni01B5" unicode="&#x1b5;" horiz-adv-x="472" 
d="M437 688v-72l-138 -236h91v-69h-131l-136 -232h313l-10 -79h-401v72l140 239h-83v69h123l135 231h-284v77h381z" />
    <glyph glyph-name="uni0299" unicode="&#x299;" horiz-adv-x="503" 
d="M454 158q0 -79 -54 -118.5t-148 -39.5h-171v521q94 18 162 18q88 0 137.5 -38t49.5 -104q0 -88 -98 -111q122 -14 122 -128zM171 468v-158h85q86 0 86 81q0 42 -24 62t-75 20q-34 0 -72 -5zM362 160q0 49 -25 69.5t-77 20.5h-89v-184h81q110 0 110 94z" />
    <glyph glyph-name="uni0262" unicode="&#x262;" horiz-adv-x="509" 
d="M364.5 524q38.5 -16 74.5 -47l-45 -52q-29 22 -56 32.5t-59 10.5q-61 0 -98.5 -48t-37.5 -154q0 -113 32 -160t94 -47q51 0 91 21v148h-85l-9 67h179v-254q-82 -52 -176 -52q-220 0 -220 277q0 87 30.5 149t82 93.5t114.5 31.5q50 0 88.5 -16z" />
    <glyph glyph-name="uni029B" unicode="&#x29b;" horiz-adv-x="507" 
d="M591 713l-32 -56q-17 11 -31 16t-34 5q-55 0 -55 -69v-132l-41 -48q-32 20 -59.5 29.5t-59.5 9.5q-61 0 -98.5 -48t-37.5 -154q0 -113 32 -160t94 -47q51 0 91 21v148h-85l-9 67h179v-254q-82 -52 -176 -52q-220 0 -220 277q0 87 30 149t80.5 93.5t111.5 31.5
q49 0 85 -19v88q0 67 34.5 103.5t94.5 36.5q58 0 106 -36z" />
    <glyph glyph-name="uni029C" unicode="&#x29c;" horiz-adv-x="533" 
d="M362 0v234h-191v-234h-90v526h90v-221h191v221h90v-526h-90z" />
    <glyph glyph-name="uni026A" unicode="&#x26a;" horiz-adv-x="297" 
d="M276 458h-83v-389h83v-69h-255v69h82v389h-82v68h255v-68z" />
    <glyph glyph-name="uni029F" unicode="&#x29f;" horiz-adv-x="389" 
d="M171 526v-451h209l-11 -75h-288v526h90z" />
    <glyph glyph-name="uni0274" unicode="&#x274;" horiz-adv-x="534" 
d="M453 0h-112l-191 440q11 -103 11 -221v-219h-80v526h112l191 -440q-5 48 -8 85t-3 92v263h80v-526z" />
    <glyph glyph-name="uni0276" unicode="&#x276;" horiz-adv-x="675" 
d="M646 0h-313q-37 -13 -71 -13q-100 0 -156.5 73t-56.5 203q0 131 57 203.5t157 72.5q40 0 76 -13h304l-9 -68h-222q25 -26 41 -65.5t20 -89.5h134v-67h-133q-6 -109 -66 -168h238v-68zM173.5 108q30.5 -49 89.5 -49q56 0 88 50t32 155q0 104 -32 153.5t-87 49.5
q-59 0 -90 -49t-31 -155t30.5 -155z" />
    <glyph glyph-name="uni0280" unicode="&#x280;" horiz-adv-x="478" 
d="M352 0l-113 205h-16h-54v-205h-88v526h135q101 0 152.5 -41.5t51.5 -119.5q0 -52 -25.5 -89.5t-75.5 -55.5l129 -220h-96zM227 269q50 0 75.5 23t25.5 74q0 49 -27 71.5t-87 22.5h-45v-191h58z" />
    <glyph glyph-name="uni0281" unicode="&#x281;" horiz-adv-x="478" 
d="M395 252.5q25 -37.5 25 -90.5q0 -79 -51.5 -120.5t-152.5 -41.5h-135v526h88v-204h59h11l113 204h96l-128 -218q50 -18 75 -55.5zM301 89q27 23 27 73t-25.5 72.5t-75.5 22.5h-58v-191h45q60 0 87 23z" />
    <glyph glyph-name="uni028F" unicode="&#x28f;" horiz-adv-x="412" 
d="M414 526l-162 -326v-200h-90v199l-164 327h93l117 -265l115 265h91z" />
    <glyph glyph-name="a" unicode="a" horiz-adv-x="490" 
d="M418 72.5q9 -15.5 28 -23.5l-19 -61q-39 6 -61 24t-31 55q-51 -80 -143 -80q-70 0 -111 43.5t-41 116.5q0 84 55 128t157 44h68v45q0 55 -22.5 79.5t-73.5 24.5q-55 0 -128 -28l-22 63q88 36 164 36q171 0 171 -171v-248q0 -32 9 -47.5zM320 137v124h-58
q-130 0 -130 -109q0 -47 21 -72t60 -25q70 0 107 82z" />
    <glyph glyph-name="a.ss04" horiz-adv-x="537" 
d="M460 83.5q9 -15.5 32 -27.5l-26 -68q-41 11 -63 29.5t-33 49.5q-24 -37 -58.5 -58.5t-79.5 -21.5q-85 0 -134 72t-49 202q0 84 23.5 147t66.5 97t100 34q80 0 128 -69l6 56h78v-393q0 -34 9 -49.5zM312.5 77.5q26.5 19.5 48.5 57.5v268q-21 32 -45 48.5t-57 16.5
q-54 0 -85 -50t-31 -155q1 -108 28.5 -156.5t79.5 -48.5q35 0 61.5 19.5z" />
    <glyph glyph-name="aacute" unicode="&#xe1;" horiz-adv-x="490" 
d="M418 72.5q9 -15.5 28 -23.5l-19 -61q-39 6 -61 24t-31 55q-51 -80 -143 -80q-70 0 -111 43.5t-41 116.5q0 84 55 128t157 44h68v45q0 55 -22.5 79.5t-73.5 24.5q-55 0 -128 -28l-22 63q88 36 164 36q171 0 171 -171v-248q0 -32 9 -47.5zM320 137v124h-58
q-130 0 -130 -109q0 -47 21 -72t60 -25q70 0 107 82zM303 797l38 -72l-192 -87l-26 46z" />
    <glyph glyph-name="abreve" unicode="&#x103;" horiz-adv-x="490" 
d="M418 72.5q9 -15.5 28 -23.5l-19 -61q-39 6 -61 24t-31 55q-51 -80 -143 -80q-70 0 -111 43.5t-41 116.5q0 84 55 128t157 44h68v45q0 55 -22.5 79.5t-73.5 24.5q-55 0 -128 -28l-22 63q88 36 164 36q171 0 171 -171v-248q0 -32 9 -47.5zM320 137v124h-58
q-130 0 -130 -109q0 -47 21 -72t60 -25q70 0 107 82zM144.5 680q-35.5 35 -41.5 96l54 12q18 -76 79 -76q63 0 81 76l54 -12q-6 -61 -42 -96t-93 -35q-56 0 -91.5 35z" />
    <glyph glyph-name="uni1EAF" unicode="&#x1eaf;" horiz-adv-x="490" 
d="M418 72.5q9 -15.5 28 -23.5l-19 -61q-39 6 -61 24t-31 55q-51 -80 -143 -80q-70 0 -111 43.5t-41 116.5q0 84 55 128t157 44h68v45q0 55 -22.5 79.5t-73.5 24.5q-55 0 -128 -28l-22 63q88 36 164 36q171 0 171 -171v-248q0 -32 9 -47.5zM320 137v124h-58
q-130 0 -130 -109q0 -47 21 -72t60 -25q70 0 107 82zM144.5 630.5q-35.5 32.5 -41.5 87.5l54 12q8 -31 28 -48t51 -17t52 17t29 48l54 -12q-6 -55 -42.5 -87.5t-92.5 -32.5t-91.5 32.5zM311 912l57 -49l-127 -129l-37 32z" />
    <glyph glyph-name="uni1EB7" unicode="&#x1eb7;" horiz-adv-x="490" 
d="M418 72.5q9 -15.5 28 -23.5l-19 -61q-39 6 -61 24t-31 55q-51 -80 -143 -80q-70 0 -111 43.5t-41 116.5q0 84 55 128t157 44h68v45q0 55 -22.5 79.5t-73.5 24.5q-55 0 -128 -28l-22 63q88 36 164 36q171 0 171 -171v-248q0 -32 9 -47.5zM320 137v124h-58
q-130 0 -130 -109q0 -47 21 -72t60 -25q70 0 107 82zM144.5 680q-35.5 35 -41.5 96l54 12q18 -76 79 -76q63 0 81 76l54 -12q-6 -61 -42 -96t-93 -35q-56 0 -91.5 35zM195.5 -177q-16.5 17 -16.5 42t16 41.5t43 16.5q26 0 42.5 -16.5t16.5 -41.5t-16.5 -42t-42.5 -17
t-42.5 17z" />
    <glyph glyph-name="uni1EB1" unicode="&#x1eb1;" horiz-adv-x="490" 
d="M418 72.5q9 -15.5 28 -23.5l-19 -61q-39 6 -61 24t-31 55q-51 -80 -143 -80q-70 0 -111 43.5t-41 116.5q0 84 55 128t157 44h68v45q0 55 -22.5 79.5t-73.5 24.5q-55 0 -128 -28l-22 63q88 36 164 36q171 0 171 -171v-248q0 -32 9 -47.5zM320 137v124h-58
q-130 0 -130 -109q0 -47 21 -72t60 -25q70 0 107 82zM147.5 630.5q-35.5 32.5 -41.5 87.5l54 12q8 -31 28 -48t51 -17t52 17t29 48l54 -12q-6 -55 -42.5 -87.5t-92.5 -32.5t-91.5 32.5zM171 912l108 -146l-38 -32l-127 129z" />
    <glyph glyph-name="uni1EB3" unicode="&#x1eb3;" horiz-adv-x="490" 
d="M418 72.5q9 -15.5 28 -23.5l-19 -61q-39 6 -61 24t-31 55q-51 -80 -143 -80q-70 0 -111 43.5t-41 116.5q0 84 55 128t157 44h68v45q0 55 -22.5 79.5t-73.5 24.5q-55 0 -128 -28l-22 63q88 36 164 36q171 0 171 -171v-248q0 -32 9 -47.5zM320 137v124h-58
q-130 0 -130 -109q0 -47 21 -72t60 -25q70 0 107 82zM145.5 630.5q-35.5 32.5 -41.5 87.5l54 12q8 -31 28 -48t51 -17t52 17t29 48l54 -12q-6 -55 -42.5 -87.5t-92.5 -32.5t-91.5 32.5zM206 811q34 4 49 13t15 31q0 19 -10.5 28.5t-29.5 9.5q-15 0 -26.5 -3t-26.5 -10
l-18 46q39 23 84 23t70.5 -24t25.5 -64q0 -35 -18.5 -56.5t-52.5 -27.5v-56h-62v90z" />
    <glyph glyph-name="uni1EB5" unicode="&#x1eb5;" horiz-adv-x="490" 
d="M418 72.5q9 -15.5 28 -23.5l-19 -61q-39 6 -61 24t-31 55q-51 -80 -143 -80q-70 0 -111 43.5t-41 116.5q0 84 55 128t157 44h68v45q0 55 -22.5 79.5t-73.5 24.5q-55 0 -128 -28l-22 63q88 36 164 36q171 0 171 -171v-248q0 -32 9 -47.5zM320 137v124h-58
q-130 0 -130 -109q0 -47 21 -72t60 -25q70 0 107 82zM146.5 630.5q-35.5 32.5 -41.5 87.5l54 12q8 -31 28 -48t51 -17t52 17t29 48l54 -12q-6 -55 -42.5 -87.5t-92.5 -32.5t-91.5 32.5zM259.5 775.5q-14.5 6.5 -32.5 18.5q-10 7 -21 12.5t-20 5.5q-15 0 -26 -9.5t-24 -31.5
l-48 23q17 38 41.5 60t54.5 22q17 0 30.5 -6t31.5 -18q14 -10 24 -14.5t21 -4.5q14 0 25 10t23 32l49 -22q-16 -42 -40.5 -63t-55.5 -21q-18 0 -32.5 6.5z" />
    <glyph glyph-name="uni01CE" unicode="&#x1ce;" horiz-adv-x="490" 
d="M418 72.5q9 -15.5 28 -23.5l-19 -61q-39 6 -61 24t-31 55q-51 -80 -143 -80q-70 0 -111 43.5t-41 116.5q0 84 55 128t157 44h68v45q0 55 -22.5 79.5t-73.5 24.5q-55 0 -128 -28l-22 63q88 36 164 36q171 0 171 -171v-248q0 -32 9 -47.5zM320 137v124h-58
q-130 0 -130 -109q0 -47 21 -72t60 -25q70 0 107 82zM351 783l35 -40l-121 -116h-56l-121 116l35 40l114 -88z" />
    <glyph glyph-name="acircumflex" unicode="&#xe2;" horiz-adv-x="490" 
d="M418 72.5q9 -15.5 28 -23.5l-19 -61q-39 6 -61 24t-31 55q-51 -80 -143 -80q-70 0 -111 43.5t-41 116.5q0 84 55 128t157 44h68v45q0 55 -22.5 79.5t-73.5 24.5q-55 0 -128 -28l-22 63q88 36 164 36q171 0 171 -171v-248q0 -32 9 -47.5zM320 137v124h-58
q-130 0 -130 -109q0 -47 21 -72t60 -25q70 0 107 82zM123 637l-35 39l121 117h56l121 -117l-35 -39l-114 86z" />
    <glyph glyph-name="uni1EA5" unicode="&#x1ea5;" horiz-adv-x="490" 
d="M418 72.5q9 -15.5 28 -23.5l-19 -61q-39 6 -61 24t-31 55q-51 -80 -143 -80q-70 0 -111 43.5t-41 116.5q0 84 55 128t157 44h68v45q0 55 -22.5 79.5t-73.5 24.5q-55 0 -128 -28l-22 63q88 36 164 36q171 0 171 -171v-248q0 -32 9 -47.5zM320 137v124h-58
q-130 0 -130 -109q0 -47 21 -72t60 -25q70 0 107 82zM120 588l-35 39l122 112h55l121 -112l-35 -39l-114 81zM426 885l57 -49l-127 -129l-37 32z" />
    <glyph glyph-name="uni1EAD" unicode="&#x1ead;" horiz-adv-x="490" 
d="M418 72.5q9 -15.5 28 -23.5l-19 -61q-39 6 -61 24t-31 55q-51 -80 -143 -80q-70 0 -111 43.5t-41 116.5q0 84 55 128t157 44h68v45q0 55 -22.5 79.5t-73.5 24.5q-55 0 -128 -28l-22 63q88 36 164 36q171 0 171 -171v-248q0 -32 9 -47.5zM320 137v124h-58
q-130 0 -130 -109q0 -47 21 -72t60 -25q70 0 107 82zM123 637l-35 39l121 117h56l121 -117l-35 -39l-114 86zM195.5 -177q-16.5 17 -16.5 42t16 41.5t43 16.5q26 0 42.5 -16.5t16.5 -41.5t-16.5 -42t-42.5 -17t-42.5 17z" />
    <glyph glyph-name="uni1EA7" unicode="&#x1ea7;" horiz-adv-x="490" 
d="M418 72.5q9 -15.5 28 -23.5l-19 -61q-39 6 -61 24t-31 55q-51 -80 -143 -80q-70 0 -111 43.5t-41 116.5q0 84 55 128t157 44h68v45q0 55 -22.5 79.5t-73.5 24.5q-55 0 -128 -28l-22 63q88 36 164 36q171 0 171 -171v-248q0 -32 9 -47.5zM320 137v124h-58
q-130 0 -130 -109q0 -47 21 -72t60 -25q70 0 107 82zM120 588l-35 39l122 112h55l121 -112l-35 -39l-114 81zM45 885l108 -146l-38 -32l-127 129z" />
    <glyph glyph-name="uni1EA9" unicode="&#x1ea9;" horiz-adv-x="490" 
d="M418 72.5q9 -15.5 28 -23.5l-19 -61q-39 6 -61 24t-31 55q-51 -80 -143 -80q-70 0 -111 43.5t-41 116.5q0 84 55 128t157 44h68v45q0 55 -22.5 79.5t-73.5 24.5q-55 0 -128 -28l-22 63q88 36 164 36q171 0 171 -171v-248q0 -32 9 -47.5zM320 137v124h-58
q-130 0 -130 -109q0 -47 21 -72t60 -25q70 0 107 82zM120 588l-35 39l122 112h55l121 -112l-35 -39l-114 81zM330 801q34 4 49 13t15 31q0 19 -10.5 28.5t-29.5 9.5q-15 0 -26.5 -3t-26.5 -10l-18 46q39 23 84 23t70.5 -24t25.5 -64q0 -35 -18.5 -56.5t-52.5 -27.5v-56h-62
v90z" />
    <glyph glyph-name="uni1EAB" unicode="&#x1eab;" horiz-adv-x="490" 
d="M418 72.5q9 -15.5 28 -23.5l-19 -61q-39 6 -61 24t-31 55q-51 -80 -143 -80q-70 0 -111 43.5t-41 116.5q0 84 55 128t157 44h68v45q0 55 -22.5 79.5t-73.5 24.5q-55 0 -128 -28l-22 63q88 36 164 36q171 0 171 -171v-248q0 -32 9 -47.5zM320 137v124h-58
q-130 0 -130 -109q0 -47 21 -72t60 -25q70 0 107 82zM121 580l-35 39l122 112h55l121 -112l-35 -39l-114 81zM257.5 773.5q-14.5 6.5 -32.5 18.5q-10 7 -21 12.5t-20 5.5q-15 0 -26 -9.5t-24 -31.5l-48 23q17 38 41.5 60t54.5 22q17 0 30.5 -6t31.5 -18q14 -10 24 -14.5
t21 -4.5q14 0 25 10t23 32l49 -22q-16 -42 -40.5 -63t-55.5 -21q-18 0 -32.5 6.5z" />
    <glyph glyph-name="uni0201" unicode="&#x201;" horiz-adv-x="490" 
d="M418 72.5q9 -15.5 28 -23.5l-19 -61q-39 6 -61 24t-31 55q-51 -80 -143 -80q-70 0 -111 43.5t-41 116.5q0 84 55 128t157 44h68v45q0 55 -22.5 79.5t-73.5 24.5q-55 0 -128 -28l-22 63q88 36 164 36q171 0 171 -171v-248q0 -32 9 -47.5zM320 137v124h-58
q-130 0 -130 -109q0 -47 21 -72t60 -25q70 0 107 82zM133 827l77 -168l-50 -23l-95 155zM268 827l69 -164l-51 -22l-87 150z" />
    <glyph glyph-name="adieresis" unicode="&#xe4;" horiz-adv-x="490" 
d="M418 72.5q9 -15.5 28 -23.5l-19 -61q-39 6 -61 24t-31 55q-51 -80 -143 -80q-70 0 -111 43.5t-41 116.5q0 84 55 128t157 44h68v45q0 55 -22.5 79.5t-73.5 24.5q-55 0 -128 -28l-22 63q88 36 164 36q171 0 171 -171v-248q0 -32 9 -47.5zM320 137v124h-58
q-130 0 -130 -109q0 -47 21 -72t60 -25q70 0 107 82zM180 747q15 -15 15 -38t-15 -38.5t-37 -15.5q-23 0 -38 15.5t-15 38.5t15 38t38 15q22 0 37 -15zM367 747q15 -15 15 -38t-15 -38.5t-37 -15.5t-37.5 15.5t-15.5 38.5t15 38t38 15q22 0 37 -15z" />
    <glyph glyph-name="uni01DF" unicode="&#x1df;" horiz-adv-x="490" 
d="M418 72.5q9 -15.5 28 -23.5l-19 -61q-39 6 -61 24t-31 55q-51 -80 -143 -80q-70 0 -111 43.5t-41 116.5q0 84 55 128t157 44h68v45q0 55 -22.5 79.5t-73.5 24.5q-55 0 -128 -28l-22 63q88 36 164 36q171 0 171 -171v-248q0 -32 9 -47.5zM320 137v124h-58
q-130 0 -130 -109q0 -47 21 -72t60 -25q70 0 107 82zM181 715q15 -15 15 -38t-15 -38.5t-37 -15.5q-23 0 -38 15.5t-15 38.5t15 38t38 15q22 0 37 -15zM368 715q15 -15 15 -38t-15 -38.5t-37 -15.5t-37.5 15.5t-15.5 38.5t15 38t38 15q22 0 37 -15zM358 787h-242v66h242v-66
z" />
    <glyph glyph-name="uni0227" unicode="&#x227;" horiz-adv-x="490" 
d="M418 72.5q9 -15.5 28 -23.5l-19 -61q-39 6 -61 24t-31 55q-51 -80 -143 -80q-70 0 -111 43.5t-41 116.5q0 84 55 128t157 44h68v45q0 55 -22.5 79.5t-73.5 24.5q-55 0 -128 -28l-22 63q88 36 164 36q171 0 171 -171v-248q0 -32 9 -47.5zM320 137v124h-58
q-130 0 -130 -109q0 -47 21 -72t60 -25q70 0 107 82zM279.5 757q16.5 -17 16.5 -42t-16 -41.5t-43 -16.5q-26 0 -42.5 16.5t-16.5 41.5t16.5 42t42.5 17t42.5 -17z" />
    <glyph glyph-name="uni1EA1" unicode="&#x1ea1;" horiz-adv-x="490" 
d="M418 72.5q9 -15.5 28 -23.5l-19 -61q-39 6 -61 24t-31 55q-51 -80 -143 -80q-70 0 -111 43.5t-41 116.5q0 84 55 128t157 44h68v45q0 55 -22.5 79.5t-73.5 24.5q-55 0 -128 -28l-22 63q88 36 164 36q171 0 171 -171v-248q0 -32 9 -47.5zM320 137v124h-58
q-130 0 -130 -109q0 -47 21 -72t60 -25q70 0 107 82zM195.5 -177q-16.5 17 -16.5 42t16 41.5t43 16.5q26 0 42.5 -16.5t16.5 -41.5t-16.5 -42t-42.5 -17t-42.5 17z" />
    <glyph glyph-name="uni01E1" unicode="&#x1e1;" horiz-adv-x="490" 
d="M418 72.5q9 -15.5 28 -23.5l-19 -61q-39 6 -61 24t-31 55q-51 -80 -143 -80q-70 0 -111 43.5t-41 116.5q0 84 55 128t157 44h68v45q0 55 -22.5 79.5t-73.5 24.5q-55 0 -128 -28l-22 63q88 36 164 36q171 0 171 -171v-248q0 -32 9 -47.5zM320 137v124h-58
q-130 0 -130 -109q0 -47 21 -72t60 -25q70 0 107 82zM278.5 709q16.5 -17 16.5 -42t-16 -41.5t-43 -16.5q-26 0 -42.5 16.5t-16.5 41.5t16.5 42t42.5 17t42.5 -17zM358 772h-242v66h242v-66z" />
    <glyph glyph-name="agrave" unicode="&#xe0;" horiz-adv-x="490" 
d="M418 72.5q9 -15.5 28 -23.5l-19 -61q-39 6 -61 24t-31 55q-51 -80 -143 -80q-70 0 -111 43.5t-41 116.5q0 84 55 128t157 44h68v45q0 55 -22.5 79.5t-73.5 24.5q-55 0 -128 -28l-22 63q88 36 164 36q171 0 171 -171v-248q0 -32 9 -47.5zM320 137v124h-58
q-130 0 -130 -109q0 -47 21 -72t60 -25q70 0 107 82zM173 797l180 -113l-26 -46l-192 87z" />
    <glyph glyph-name="uni1EA3" unicode="&#x1ea3;" horiz-adv-x="490" 
d="M418 72.5q9 -15.5 28 -23.5l-19 -61q-39 6 -61 24t-31 55q-51 -80 -143 -80q-70 0 -111 43.5t-41 116.5q0 84 55 128t157 44h68v45q0 55 -22.5 79.5t-73.5 24.5q-55 0 -128 -28l-22 63q88 36 164 36q171 0 171 -171v-248q0 -32 9 -47.5zM320 137v124h-58
q-130 0 -130 -109q0 -47 21 -72t60 -25q70 0 107 82zM206 702q34 4 49 13t15 31q0 19 -10.5 28.5t-29.5 9.5q-15 0 -26.5 -3t-26.5 -10l-18 46q39 23 84 23t70.5 -24t25.5 -64q0 -35 -18.5 -56.5t-52.5 -27.5v-56h-62v90z" />
    <glyph glyph-name="uni0203" unicode="&#x203;" horiz-adv-x="490" 
d="M418 72.5q9 -15.5 28 -23.5l-19 -61q-39 6 -61 24t-31 55q-51 -80 -143 -80q-70 0 -111 43.5t-41 116.5q0 84 55 128t157 44h68v45q0 55 -22.5 79.5t-73.5 24.5q-55 0 -128 -28l-22 63q88 36 164 36q171 0 171 -171v-248q0 -32 9 -47.5zM320 137v124h-58
q-130 0 -130 -109q0 -47 21 -72t60 -25q70 0 107 82zM329 723q36 -35 42 -96l-54 -12q-18 76 -81 76q-61 0 -79 -76l-54 12q6 61 41.5 96t91.5 35q57 0 93 -35z" />
    <glyph glyph-name="uni0251" unicode="&#x251;" horiz-adv-x="537" 
d="M460 83.5q9 -15.5 32 -27.5l-26 -68q-41 11 -63 29.5t-33 49.5q-24 -37 -58.5 -58.5t-79.5 -21.5q-85 0 -134 72t-49 202q0 84 23.5 147t66.5 97t100 34q80 0 128 -69l6 56h78v-393q0 -34 9 -49.5zM312.5 77.5q26.5 19.5 48.5 57.5v268q-21 32 -45 48.5t-57 16.5
q-54 0 -85 -50t-31 -155q1 -108 28.5 -156.5t79.5 -48.5q35 0 61.5 19.5z" />
    <glyph glyph-name="uni0252" unicode="&#x252;" horiz-adv-x="537" 
d="M439 467q49 -72 49 -202q0 -84 -23.5 -147t-66.5 -97t-100 -34q-80 0 -128 69l-6 -56h-78v393q0 34 -9 49.5t-32 27.5l26 68q41 -11 63 -29.5t33 -49.5q24 37 58.5 58.5t79.5 21.5q85 0 134 -72zM363 108q31 50 31 155q-1 108 -28.5 156.5t-79.5 48.5q-35 0 -61.5 -19.5
t-48.5 -57.5v-268q21 -32 45 -48.5t57 -16.5q54 0 85 50z" />
    <glyph glyph-name="amacron" unicode="&#x101;" horiz-adv-x="490" 
d="M418 72.5q9 -15.5 28 -23.5l-19 -61q-39 6 -61 24t-31 55q-51 -80 -143 -80q-70 0 -111 43.5t-41 116.5q0 84 55 128t157 44h68v45q0 55 -22.5 79.5t-73.5 24.5q-55 0 -128 -28l-22 63q88 36 164 36q171 0 171 -171v-248q0 -32 9 -47.5zM320 137v124h-58
q-130 0 -130 -109q0 -47 21 -72t60 -25q70 0 107 82zM358 669h-242v66h242v-66z" />
    <glyph glyph-name="aogonek" unicode="&#x105;" horiz-adv-x="490" 
d="M342 -67.5q-24 -26.5 -24 -58.5q0 -49 53 -49q23 0 53 6l-7 -64q-33 -7 -57 -7q-53 0 -83.5 27t-30.5 73q0 48 32 83.5t96 62.5q-29 20 -39 61q-51 -80 -143 -80q-70 0 -111 43.5t-41 116.5q0 84 55 128t157 44h68v45q0 55 -22.5 79.5t-73.5 24.5q-55 0 -128 -28l-22 63
q88 36 164 36q171 0 171 -171v-248q0 -32 9 -47.5t28 -23.5l-19 -61q-61 -29 -85 -55.5zM320 137v124h-58q-130 0 -130 -109q0 -47 21 -72t60 -25q70 0 107 82z" />
    <glyph glyph-name="aring" unicode="&#xe5;" horiz-adv-x="490" 
d="M418 72.5q9 -15.5 28 -23.5l-19 -61q-39 6 -61 24t-31 55q-51 -80 -143 -80q-70 0 -111 43.5t-41 116.5q0 84 55 128t157 44h68v45q0 55 -22.5 79.5t-73.5 24.5q-55 0 -128 -28l-22 63q88 36 164 36q171 0 171 -171v-248q0 -32 9 -47.5zM320 137v124h-58
q-130 0 -130 -109q0 -47 21 -72t60 -25q70 0 107 82zM312.5 806q28.5 -29 28.5 -76t-28.5 -76.5t-75.5 -29.5t-75.5 29.5t-28.5 76.5t28.5 76t75.5 29t75.5 -29zM191 730q0 -57 46 -57q47 0 47 57t-47 57q-46 0 -46 -57z" />
    <glyph glyph-name="aringacute" unicode="&#x1fb;" horiz-adv-x="490" 
d="M347 883l-194 -79l-24 47l180 105zM161.5 766q28.5 29 75.5 29t75.5 -29t28.5 -76t-28.5 -76.5t-75.5 -29.5t-75.5 29.5t-28.5 76.5t28.5 76zM237 747q-46 0 -46 -57t46 -57q47 0 47 57t-47 57zM418 72.5q9 -15.5 28 -23.5l-19 -61q-39 6 -61 24t-31 55q-51 -80 -143 -80
q-70 0 -111 43.5t-41 116.5q0 84 55 128t157 44h68v45q0 55 -22.5 79.5t-73.5 24.5q-55 0 -128 -28l-22 63q88 36 164 36q171 0 171 -171v-248q0 -32 9 -47.5zM320 137v124h-58q-130 0 -130 -109q0 -47 21 -72t60 -25q70 0 107 82z" />
    <glyph glyph-name="uni2C65" unicode="&#x2c65;" horiz-adv-x="490" 
d="M418 72.5q9 -15.5 28 -23.5l-19 -61q-39 6 -61 24t-31 55q-50 -78 -141 -80l-14 -58l-38 9l13 53q-54 11 -84.5 52.5t-30.5 103.5q0 80 50 123.5t144 47.5l35 147q-20 5 -42 5q-54 0 -131 -28l-22 61q88 36 164 36q29 0 48 -4l15 60l38 -9l-15 -62q85 -35 85 -156v-248
q0 -32 9 -47.5zM304 442l-30 -124h50v46q0 54 -20 78zM324 135v126h-62h-2l-50 -208q74 0 114 82zM172 61l47 197q-91 -16 -91 -106q0 -71 44 -91z" />
    <glyph glyph-name="atilde" unicode="&#xe3;" horiz-adv-x="490" 
d="M418 72.5q9 -15.5 28 -23.5l-19 -61q-39 6 -61 24t-31 55q-51 -80 -143 -80q-70 0 -111 43.5t-41 116.5q0 84 55 128t157 44h68v45q0 55 -22.5 79.5t-73.5 24.5q-55 0 -128 -28l-22 63q88 36 164 36q171 0 171 -171v-248q0 -32 9 -47.5zM320 137v124h-58
q-130 0 -130 -109q0 -47 21 -72t60 -25q70 0 107 82zM259 665.5q-14 6.5 -33 19.5q-10 7 -21 12.5t-20 5.5q-15 0 -26 -10t-24 -32l-48 23q17 39 41.5 61.5t54.5 22.5q17 0 31 -6.5t31 -18.5q14 -10 24 -14.5t21 -4.5q14 0 25 10t23 33l49 -23q-32 -85 -96 -85
q-18 0 -32 6.5z" />
    <glyph glyph-name="uni0250" unicode="&#x250;" horiz-adv-x="490" 
d="M394 86l22 -63q-88 -36 -164 -36q-171 0 -171 171v248q0 32 -9 47.5t-28 23.5l19 61q39 -6 61 -24t31 -55q51 80 143 80q70 0 111 -43.5t41 -116.5q0 -84 -55 -128t-157 -44h-68v-45q0 -55 22.5 -79.5t73.5 -24.5q55 0 128 28zM170 389v-124h58q130 0 130 109
q0 47 -21 72t-60 25q-70 0 -107 -82z" />
    <glyph glyph-name="ae" unicode="&#xe6;" horiz-adv-x="769" 
d="M723 232h-307q6 -90 40 -131.5t90 -41.5q34 0 62 11t59 36l40 -52q-75 -67 -168 -67q-59 0 -104 25.5t-72 73.5q-34 -53 -74.5 -76t-92.5 -23q-71 0 -113.5 44t-42.5 116q0 82 56.5 127t158.5 45h68v41q0 58 -22.5 83t-74.5 25t-127 -28l-21 63q88 36 162 36
q57 0 91.5 -21.5t52.5 -63.5q53 85 150 85q90 0 140.5 -68t50.5 -192q0 -21 -2 -47zM637 306q0 165 -107 165q-106 0 -114 -176h221v11zM282.5 77q29.5 22 55.5 70q-14 50 -14 106v7h-58q-131 0 -131 -109q0 -47 21 -71.5t60 -24.5q37 0 66.5 22z" />
    <glyph glyph-name="aeacute" unicode="&#x1fd;" horiz-adv-x="769" 
d="M723 232h-307q6 -90 40 -131.5t90 -41.5q34 0 62 11t59 36l40 -52q-75 -67 -168 -67q-59 0 -104 25.5t-72 73.5q-34 -53 -74.5 -76t-92.5 -23q-71 0 -113.5 44t-42.5 116q0 82 56.5 127t158.5 45h68v41q0 58 -22.5 83t-74.5 25t-127 -28l-21 63q88 36 162 36
q57 0 91.5 -21.5t52.5 -63.5q53 85 150 85q90 0 140.5 -68t50.5 -192q0 -21 -2 -47zM637 306q0 165 -107 165q-106 0 -114 -176h221v11zM282.5 77q29.5 22 55.5 70q-14 50 -14 106v7h-58q-131 0 -131 -109q0 -47 21 -71.5t60 -24.5q37 0 66.5 22zM451 797l38 -72l-192 -87
l-26 46z" />
    <glyph glyph-name="uni01E3" unicode="&#x1e3;" horiz-adv-x="769" 
d="M723 232h-307q6 -90 40 -131.5t90 -41.5q34 0 62 11t59 36l40 -52q-75 -67 -168 -67q-59 0 -104 25.5t-72 73.5q-34 -53 -74.5 -76t-92.5 -23q-71 0 -113.5 44t-42.5 116q0 82 56.5 127t158.5 45h68v41q0 58 -22.5 83t-74.5 25t-127 -28l-21 63q88 36 162 36
q57 0 91.5 -21.5t52.5 -63.5q53 85 150 85q90 0 140.5 -68t50.5 -192q0 -21 -2 -47zM637 306q0 165 -107 165q-106 0 -114 -176h221v11zM282.5 77q29.5 22 55.5 70q-14 50 -14 106v7h-58q-131 0 -131 -109q0 -47 21 -71.5t60 -24.5q37 0 66.5 22zM506 669h-242v66h242v-66z
" />
    <glyph glyph-name="b" unicode="b" horiz-adv-x="532" 
d="M435.5 468.5q45.5 -70.5 45.5 -204.5q0 -128 -49.5 -202.5t-134.5 -74.5q-40 0 -73 18.5t-57 52.5l-6 -58h-80v738l90 10v-286q25 36 59.5 56.5t76.5 20.5q83 0 128.5 -70.5zM387 264q0 111 -27 157.5t-77 46.5q-35 0 -61.5 -21t-50.5 -59v-261q19 -31 46 -50t59 -19
q111 0 111 206z" />
    <glyph glyph-name="uni1E03" unicode="&#x1e03;" horiz-adv-x="532" 
d="M435.5 468.5q45.5 -70.5 45.5 -204.5q0 -128 -49.5 -202.5t-134.5 -74.5q-40 0 -73 18.5t-57 52.5l-6 -58h-80v738l90 10v-286q25 36 59.5 56.5t76.5 20.5q83 0 128.5 -70.5zM387 264q0 111 -27 157.5t-77 46.5q-35 0 -61.5 -21t-50.5 -59v-261q19 -31 46 -50t59 -19
q111 0 111 206zM323.5 934q16.5 -17 16.5 -42t-16 -41.5t-43 -16.5q-26 0 -42.5 16.5t-16.5 41.5t16.5 42t42.5 17t42.5 -17z" />
    <glyph glyph-name="uni1E05" unicode="&#x1e05;" horiz-adv-x="532" 
d="M435.5 468.5q45.5 -70.5 45.5 -204.5q0 -128 -49.5 -202.5t-134.5 -74.5q-40 0 -73 18.5t-57 52.5l-6 -58h-80v738l90 10v-286q25 36 59.5 56.5t76.5 20.5q83 0 128.5 -70.5zM387 264q0 111 -27 157.5t-77 46.5q-35 0 -61.5 -21t-50.5 -59v-261q19 -31 46 -50t59 -19
q111 0 111 206zM233.5 -177q-16.5 17 -16.5 42t16 41.5t43 16.5q26 0 42.5 -16.5t16.5 -41.5t-16.5 -42t-42.5 -17t-42.5 17z" />
    <glyph glyph-name="uniA7B5" unicode="&#xa7b5;" horiz-adv-x="542" 
d="M450 351q53 -46 53 -148q0 -66 -26.5 -115t-71 -75t-96.5 -26q-80 0 -140 51v-237l-88 -13v754q0 100 51.5 153.5t138.5 53.5q82 0 132.5 -48.5t51.5 -133.5q0 -72 -36 -113t-102 -51q80 -6 133 -52zM377.5 96.5q33.5 37.5 33.5 109.5q0 80 -40.5 119t-113.5 39h-40l8 68
h34q46 0 77.5 31.5t31.5 99.5q0 60 -26 88.5t-71 28.5q-50 0 -76 -33t-26 -105v-435q27 -25 55.5 -36.5t66.5 -11.5q53 0 86.5 37.5z" />
    <glyph glyph-name="uni0253" unicode="&#x253;" horiz-adv-x="532" 
d="M435.5 468.5q45.5 -70.5 45.5 -204.5q0 -128 -49.5 -202.5t-134.5 -74.5q-40 0 -73 18.5t-57 52.5l-6 -58h-80v605q0 65 40 104.5t113 39.5q60 0 118 -29l-28 -62q-40 20 -81 20q-37 0 -54.5 -18t-17.5 -56v-142q25 36 59.5 56.5t76.5 20.5q83 0 128.5 -70.5zM387 264
q0 111 -27 157.5t-77 46.5q-35 0 -61.5 -21t-50.5 -59v-261q19 -31 46 -50t59 -19q111 0 111 206z" />
    <glyph glyph-name="uni02AD" unicode="&#x2ad;" horiz-adv-x="314" 
d="M30 400v145h254v-145h-59v89h-136v-89h-59zM30 -1v145h254v-145h-59v89h-136v-89h-59z" />
    <glyph glyph-name="uni0298" unicode="&#x298;" horiz-adv-x="720" 
d="M522 659.5q70 -41.5 109 -121.5t39 -194q0 -112 -38.5 -192.5t-108.5 -122.5t-163 -42q-92 0 -162 41.5t-109 121.5t-39 194q0 111 39 191.5t109.5 123t161.5 42.5q92 0 162 -41.5zM197.5 560q-59.5 -71 -59.5 -216q0 -146 60 -216.5t163 -70.5q105 0 163 70.5t58 216.5
q0 145 -59 216t-162 71q-104 0 -163.5 -71zM403.5 383.5q15.5 -16.5 15.5 -41.5q0 -24 -15.5 -40t-41.5 -16q-25 0 -41.5 16t-16.5 40t16.5 41t41.5 17q26 0 41.5 -16.5z" />
    <glyph glyph-name="uni02AC" unicode="&#x2ac;" horiz-adv-x="418" 
d="M386 665l-59 -265h-73l-43 204l-45 -204h-73l-61 265h59l41 -212l48 212h64l46 -212l41 212h55zM386 265l-59 -265h-73l-43 204l-45 -204h-73l-61 265h59l41 -212l48 212h64l46 -212l41 212h55z" />
    <glyph glyph-name="uni0180" unicode="&#x180;" horiz-adv-x="537" 
d="M440.5 468.5q45.5 -70.5 45.5 -204.5q0 -128 -49.5 -202.5t-134.5 -74.5q-40 0 -73 18.5t-57 52.5l-6 -58h-80v609h-65v64h65v65l90 10v-75h135v-64h-135v-147q25 36 59.5 56.5t76.5 20.5q83 0 128.5 -70.5zM392 264q0 111 -27 157.5t-77 46.5q-35 0 -61.5 -21t-50.5 -59
v-261q19 -31 46 -50t59 -19q111 0 111 206z" />
    <glyph glyph-name="uni0183" unicode="&#x183;" horiz-adv-x="532" 
d="M435.5 468.5q45.5 -70.5 45.5 -204.5q0 -128 -49.5 -202.5t-134.5 -74.5q-40 0 -73 18.5t-57 52.5l-6 -58h-80v739h295l-11 -69h-194v-208q25 36 59.5 56.5t76.5 20.5q83 0 128.5 -70.5zM387 264q0 111 -27 157.5t-77 46.5q-35 0 -61.5 -21t-50.5 -59v-261q19 -31 46 -50
t59 -19q111 0 111 206z" />
    <glyph glyph-name="c" unicode="c" horiz-adv-x="428" 
d="M341 525q35 -14 67 -43l-40 -54q-24 19 -48 28.5t-52 9.5q-59 0 -91.5 -50t-32.5 -156q0 -198 124 -198q28 0 51 9.5t49 28.5l42 -55q-64 -58 -145 -58q-101 0 -158.5 70t-57.5 202q0 86 26.5 149t75 97t113.5 34q42 0 77 -14z" />
    <glyph glyph-name="cacute" unicode="&#x107;" horiz-adv-x="428" 
d="M341 525q35 -14 67 -43l-40 -54q-24 19 -48 28.5t-52 9.5q-59 0 -91.5 -50t-32.5 -156q0 -198 124 -198q28 0 51 9.5t49 28.5l42 -55q-64 -58 -145 -58q-101 0 -158.5 70t-57.5 202q0 86 26.5 149t75 97t113.5 34q42 0 77 -14zM329 797l38 -72l-192 -87l-26 46z" />
    <glyph glyph-name="cacute.loclPLK" horiz-adv-x="428" 
d="M341 525q35 -14 67 -43l-40 -54q-24 19 -48 28.5t-52 9.5q-59 0 -91.5 -50t-32.5 -156q0 -198 124 -198q28 0 51 9.5t49 28.5l42 -55q-64 -58 -145 -58q-101 0 -158.5 70t-57.5 202q0 86 26.5 149t75 97t113.5 34q42 0 77 -14zM304 777l70 -44l-117 -155l-43 27z" />
    <glyph glyph-name="ccaron" unicode="&#x10d;" horiz-adv-x="428" 
d="M341 525q35 -14 67 -43l-40 -54q-24 19 -48 28.5t-52 9.5q-59 0 -91.5 -50t-32.5 -156q0 -198 124 -198q28 0 51 9.5t49 28.5l42 -55q-64 -58 -145 -58q-101 0 -158.5 70t-57.5 202q0 86 26.5 149t75 97t113.5 34q42 0 77 -14zM377 783l35 -40l-121 -116h-56l-121 116
l35 40l114 -88z" />
    <glyph glyph-name="ccedilla" unicode="&#xe7;" horiz-adv-x="428" 
d="M346.5 -86.5q21.5 -21.5 21.5 -56.5q0 -45 -31.5 -70.5t-80.5 -25.5q-50 0 -84 24l24 46q26 -13 55 -13q21 0 33.5 10t12.5 29q0 22 -19.5 32.5t-61.5 10.5l9 90q-83 13 -129.5 82t-46.5 187q0 86 26.5 149t75 97t113.5 34q42 0 77 -14t67 -43l-40 -54q-24 19 -48 28.5
t-52 9.5q-59 0 -91.5 -50t-32.5 -156q0 -198 124 -198q28 0 51 9.5t49 28.5l42 -55q-58 -53 -129 -57v-48q44 -5 65.5 -26.5z" />
    <glyph glyph-name="ccircumflex" unicode="&#x109;" horiz-adv-x="428" 
d="M341 525q35 -14 67 -43l-40 -54q-24 19 -48 28.5t-52 9.5q-59 0 -91.5 -50t-32.5 -156q0 -198 124 -198q28 0 51 9.5t49 28.5l42 -55q-64 -58 -145 -58q-101 0 -158.5 70t-57.5 202q0 86 26.5 149t75 97t113.5 34q42 0 77 -14zM149 637l-35 39l121 117h56l121 -117
l-35 -39l-114 86z" />
    <glyph glyph-name="uni0255" unicode="&#x255;" horiz-adv-x="443" 
d="M397 200q29 -29 29 -77q0 -64 -44 -100t-114 -36q-39 0 -73 12l-29 -72l-52 22l33 75q-47 33 -72.5 93t-25.5 142q0 86 26.5 149t75 97t113.5 34q42 0 77 -14t67 -43l-41 -54q-23 19 -46.5 28.5t-52.5 9.5q-59 0 -91.5 -50t-32.5 -156t38 -157q26 68 58 97t80 29t77 -29z
M334.5 76q21.5 16 21.5 48q0 22 -11 34t-32 12q-27 0 -45.5 -21.5t-41.5 -79.5q24 -9 52 -9q35 0 56.5 16z" />
    <glyph glyph-name="cdotaccent" unicode="&#x10b;" horiz-adv-x="428" 
d="M341 525q35 -14 67 -43l-40 -54q-24 19 -48 28.5t-52 9.5q-59 0 -91.5 -50t-32.5 -156q0 -198 124 -198q28 0 51 9.5t49 28.5l42 -55q-64 -58 -145 -58q-101 0 -158.5 70t-57.5 202q0 86 26.5 149t75 97t113.5 34q42 0 77 -14zM305.5 757q16.5 -17 16.5 -42t-16 -41.5
t-43 -16.5q-26 0 -42.5 16.5t-16.5 41.5t16.5 42t42.5 17t42.5 -17z" />
    <glyph glyph-name="uni0188" unicode="&#x188;" horiz-adv-x="428" 
d="M560 713l-32 -56q-18 11 -32 16t-33 5q-55 0 -55 -69v-127l-37 -49q-28 16 -51.5 24.5t-51.5 8.5q-59 0 -91.5 -50t-32.5 -156q0 -198 124 -198q28 0 51 9.5t49 28.5l42 -55q-64 -58 -145 -58q-101 0 -158.5 70t-57.5 202q0 86 26 149t73.5 97t110.5 34q37 0 66 -13v83
q0 67 34.5 103.5t93.5 36.5t107 -36z" />
    <glyph glyph-name="uni0297" unicode="&#x297;" horiz-adv-x="446" 
d="M360 525q34 -14 66 -43l-40 -55q-24 20 -47.5 29.5t-50.5 9.5q-129 0 -129 -306q0 -157 33 -226.5t93 -69.5q28 0 51 9t49 29l41 -56q-63 -58 -143 -58q-105 0 -162 93.5t-57 277.5q0 185 58 282.5t163 97.5q41 0 75 -14z" />
    <glyph glyph-name="uni023C" unicode="&#x23c;" horiz-adv-x="428" 
d="M265 -13q-32 0 -57 7l-16 -65l-38 9l17 68q-59 27 -90.5 91.5t-31.5 161.5q0 86 26.5 149t75 97t113.5 34q19 0 37 -3l14 59l38 -9l-15 -60q36 -13 70 -44l-40 -54q-24 20 -47 28l-95 -387q18 -7 42 -7q28 0 51 9.5t49 28.5l42 -55q-64 -58 -145 -58zM192 91l91 374
q-5 1 -15 1q-59 0 -91.5 -50t-32.5 -156q0 -121 48 -169z" />
    <glyph glyph-name="d" unicode="d" horiz-adv-x="536" 
d="M455 739v-739h-80l-6 69q-51 -82 -137 -82t-133.5 73t-47.5 201q0 83 23.5 146t66.5 97.5t99 34.5q75 0 125 -63v273zM315.5 78q26.5 20 49.5 59v264q-45 67 -105 67q-53 0 -84 -51t-30 -154q0 -105 28 -155t79 -50q36 0 62.5 20z" />
    <glyph glyph-name="eth" unicode="&#xf0;" horiz-adv-x="516" 
d="M426 505q36 -94 36 -231q0 -135 -56 -211t-153 -76q-60 0 -106 29t-72 84.5t-26 133.5q0 66 22 120.5t63 86.5t95 32q81 0 135 -67q-11 67 -36 117t-72 89l-65 -71l-59 29l71 78q-52 25 -101 36l17 65q70 -15 133 -48l64 73l52 -41l-60 -68q82 -66 118 -160zM340 110.5
q31 52.5 31 158.5l-1 59q-48 76 -121 76q-55 0 -82 -44.5t-27 -123.5q0 -90 29.5 -134t83.5 -44q56 0 87 52.5z" />
    <glyph glyph-name="uni0238" unicode="&#x238;" horiz-adv-x="780" 
d="M686 469.5q43 -69.5 43 -205.5q0 -86 -22 -148.5t-61.5 -95.5t-92.5 -33q-38 0 -69 22.5t-50 57.5l-8 -67h-69l-7 69q-22 -38 -54.5 -60t-73.5 -22q-79 0 -125 72.5t-46 201.5q0 84 22 147t62 97t93 34q71 0 119 -71v271l90 10v-285q52 75 129 75t120 -69.5zM300 78
q25 20 47 58v263q-22 34 -45.5 51.5t-51.5 17.5q-48 0 -76.5 -50.5t-27.5 -154.5q0 -107 26 -156t71 -49q32 0 57 20zM607 106.5q27 48.5 27 157.5q0 112 -24.5 158t-70.5 46q-32 0 -56 -19.5t-46 -53.5v-258q21 -39 43.5 -59t53.5 -20q46 0 73 48.5z" />
    <glyph glyph-name="dcaron" unicode="&#x10f;" horiz-adv-x="564" 
d="M455 739v-739h-80l-6 69q-51 -82 -137 -82t-133.5 73t-47.5 201q0 83 23.5 146t66.5 97.5t99 34.5q75 0 125 -63v273zM315.5 78q26.5 20 49.5 59v264q-45 67 -105 67q-53 0 -84 -51t-30 -154q0 -105 28 -155t79 -50q36 0 62.5 20zM550 558l42 181l-75 10l-19 -183z" />
    <glyph glyph-name="uni1E13" unicode="&#x1e13;" horiz-adv-x="536" 
d="M455 739v-739h-80l-6 69q-51 -82 -137 -82t-133.5 73t-47.5 201q0 83 23.5 146t66.5 97.5t99 34.5q75 0 125 -63v273zM315.5 78q26.5 20 49.5 59v264q-45 67 -105 67q-53 0 -84 -51t-30 -154q0 -105 28 -155t79 -50q36 0 62.5 20zM161 -223l-35 38l121 117h56l121 -117
l-35 -38l-114 85z" />
    <glyph glyph-name="dcroat" unicode="&#x111;" horiz-adv-x="540" 
d="M519 673v-64h-64v-609h-80l-6 69q-51 -82 -137 -82t-133.5 73t-47.5 201q0 83 23.5 146t66.5 97.5t99 34.5q75 0 125 -63v133h-138v64h138v76l90 -10v-66h64zM315.5 78q26.5 20 49.5 59v264q-45 67 -105 67q-53 0 -84 -51t-30 -154q0 -105 28 -155t79 -50q36 0 62.5 20z
" />
    <glyph glyph-name="uni0221" unicode="&#x221;" horiz-adv-x="661" 
d="M651 189q27 -27 27 -72q0 -62 -42 -96t-109 -34q-32 0 -62 9l-30 -69l-51 21l33 74q-28 22 -41 57q-24 -43 -60 -67.5t-84 -24.5q-86 0 -133.5 73t-47.5 201q0 83 23.5 146t66.5 97.5t99 34.5q75 0 125 -63v273l90 -10v-601q0 -12 2 -28q22 54 51 80t72 26q44 0 71 -27z
M315.5 78q26.5 20 49.5 59v7v257q-45 67 -105 67q-53 0 -84 -51t-30 -154q0 -105 28 -155t79 -50q36 0 62.5 20zM589 74.5q19 15.5 19 44.5q0 18 -9.5 28.5t-26.5 10.5q-24 0 -40.5 -20t-38.5 -74q18 -5 41 -5q36 0 55 15.5z" />
    <glyph glyph-name="uni1E0B" unicode="&#x1e0b;" horiz-adv-x="536" 
d="M455 739v-739h-80l-6 69q-51 -82 -137 -82t-133.5 73t-47.5 201q0 83 23.5 146t66.5 97.5t99 34.5q75 0 125 -63v273zM315.5 78q26.5 20 49.5 59v264q-45 67 -105 67q-53 0 -84 -51t-30 -154q0 -105 28 -155t79 -50q36 0 62.5 20zM307.5 934q16.5 -17 16.5 -42t-16 -41.5
t-43 -16.5q-26 0 -42.5 16.5t-16.5 41.5t16.5 42t42.5 17t42.5 -17z" />
    <glyph glyph-name="uni1E0D" unicode="&#x1e0d;" horiz-adv-x="536" 
d="M455 739v-739h-80l-6 69q-51 -82 -137 -82t-133.5 73t-47.5 201q0 83 23.5 146t66.5 97.5t99 34.5q75 0 125 -63v273zM315.5 78q26.5 20 49.5 59v264q-45 67 -105 67q-53 0 -84 -51t-30 -154q0 -105 28 -155t79 -50q36 0 62.5 20zM232.5 -177q-16.5 17 -16.5 42t16 41.5
t43 16.5q26 0 42.5 -16.5t16.5 -41.5t-16.5 -42t-42.5 -17t-42.5 17z" />
    <glyph glyph-name="uni018D" unicode="&#x18d;" horiz-adv-x="521" 
d="M402.5 2q20.5 -32 20.5 -76q0 -60 -44 -100.5t-124 -40.5q-87 0 -157 53l42 51q29 -19 53.5 -27t55.5 -8q42 0 63.5 19.5t21.5 52.5q0 23 -8.5 39t-31 31.5t-67.5 35.5q-94 43 -136 100t-42 154q0 116 56.5 184.5t155.5 68.5t155 -63.5t56 -186.5q0 -80 -36.5 -137
t-103.5 -91q50 -27 70.5 -59zM154.5 198q11.5 -35 40.5 -61t84 -51q49 33 74 82t25 122q0 92 -29 135t-87 43q-59 0 -88.5 -43t-30.5 -137q0 -55 11.5 -90z" />
    <glyph glyph-name="uni02A4" unicode="&#x2a4;" horiz-adv-x="859" 
d="M835 6q0 -64 -26 -113t-75.5 -76.5t-115.5 -27.5q-63 0 -109.5 22.5t-82.5 67.5l52 47q33 -34 64.5 -49.5t72.5 -15.5q61 0 93.5 38.5t32.5 109.5t-34 102t-108 31h-67v62l181 250h-258v-454h-80l-6 69q-51 -82 -137 -82t-133.5 73t-47.5 201q0 83 23.5 146t66.5 97.5
t99 34.5q75 0 125 -63v273l90 -10v-213h356v-67l-187 -254q211 -4 211 -199zM315.5 78q26.5 20 49.5 59v264q-45 67 -105 67q-53 0 -84 -51t-30 -154q0 -105 28 -155t79 -50q36 0 62.5 20z" />
    <glyph glyph-name="uni0257" unicode="&#x257;" horiz-adv-x="536" 
d="M606 713l-32 -56q-18 11 -32 16t-33 5q-55 0 -55 -69v-83h1v-526h-80l-6 69q-51 -82 -137 -82t-133.5 72.5t-47.5 201.5q0 83 23.5 146t66.5 97.5t99 34.5q75 0 125 -63v49h-1v80q0 70 36 107t99 37q59 0 107 -36zM315.5 78q26.5 20 49.5 59v264q-45 67 -105 67
q-53 0 -84 -51t-30 -154q0 -105 28 -155t79 -50q36 0 62.5 20z" />
    <glyph glyph-name="uni1E0F" unicode="&#x1e0f;" horiz-adv-x="536" 
d="M455 739v-739h-80l-6 69q-51 -82 -137 -82t-133.5 73t-47.5 201q0 83 23.5 146t66.5 97.5t99 34.5q75 0 125 -63v273zM315.5 78q26.5 20 49.5 59v264q-45 67 -105 67q-53 0 -84 -51t-30 -154q0 -105 28 -155t79 -50q36 0 62.5 20zM396 -170h-242v66h242v-66z" />
    <glyph glyph-name="uni0256" unicode="&#x256;" horiz-adv-x="536" 
d="M611 -174q-47 -37 -109 -37t-100 36.5t-38 104.5v71h1v62q-23 -36 -56.5 -56t-76.5 -20q-86 0 -133.5 72.5t-47.5 201.5q0 83 23.5 146t66.5 97.5t99 34.5q75 0 125 -63v273l90 -10v-739h-1v-74q0 -67 57 -67q19 0 33 5t31 16zM315.5 78q26.5 20 49.5 59v264
q-45 67 -105 67q-53 0 -84 -51t-30 -154q0 -105 28 -155t79 -50q36 0 62.5 20z" />
    <glyph glyph-name="uni018C" unicode="&#x18c;" horiz-adv-x="536" 
d="M455 0h-80l-6 69q-51 -82 -137 -82t-133.5 72.5t-47.5 200.5q0 82 23.5 144.5t66.5 97t99 34.5q75 0 125 -63v197h-200v69h290v-739zM315.5 78q26.5 20 49.5 59v261q-44 68 -105 68q-53 0 -84 -51.5t-30 -153.5q0 -103 28 -153t79 -50q36 0 62.5 20z" />
    <glyph glyph-name="uni01F3" unicode="&#x1f3;" horiz-adv-x="931" 
d="M455 739v-739h-80l-6 69q-51 -82 -137 -82t-133.5 73t-47.5 201q0 83 23.5 146t66.5 97.5t99 34.5q75 0 125 -63v273zM315.5 78q26.5 20 49.5 59v264q-45 67 -105 67q-53 0 -84 -51t-30 -154q0 -105 28 -155t79 -50q36 0 62.5 20zM904 526v-67l-249 -385h250l-9 -74h-340
v67l249 385h-228v74h327z" />
    <glyph glyph-name="uni02A3" unicode="&#x2a3;" horiz-adv-x="830" 
d="M804 74l-9 -74h-420l-6 69q-51 -82 -137 -82t-133.5 73t-47.5 201q0 83 23.5 146t66.5 97.5t99 34.5q75 0 125 -63v273l90 -10v-213h348v-67l-252 -385h253zM315.5 78q26.5 20 49.5 59v264q-45 67 -105 67q-53 0 -84 -51t-30 -154q0 -105 28 -155t79 -50q36 0 62.5 20z
M455 452v-382l250 382h-250z" />
    <glyph glyph-name="uni01C6" unicode="&#x1c6;" horiz-adv-x="931" 
d="M455 739v-739h-80l-6 69q-51 -82 -137 -82t-133.5 73t-47.5 201q0 83 23.5 146t66.5 97.5t99 34.5q75 0 125 -63v273zM315.5 78q26.5 20 49.5 59v264q-45 67 -105 67q-53 0 -84 -51t-30 -154q0 -105 28 -155t79 -50q36 0 62.5 20zM904 526v-67l-249 -385h250l-9 -74h-340
v67l249 385h-228v74h327zM851 783l35 -40l-121 -116h-56l-121 116l35 40l114 -88z" />
    <glyph glyph-name="uni02A5" unicode="&#x2a5;" horiz-adv-x="864" 
d="M838.5 30q-43.5 -30 -132.5 -30q-4 -39 -4 -118h-59q0 66 4 118h-272l-6 69q-51 -82 -137 -82t-133.5 73t-47.5 201q0 83 23.5 146t66.5 97.5t99 34.5q75 0 125 -63v273l90 -10v-213h348v-66l-252 -386h105q13 73 46 109.5t82 36.5q43 0 70.5 -26.5t27.5 -71.5
q0 -62 -43.5 -92zM315.5 78q26.5 20 49.5 59v264q-45 67 -105 67q-53 0 -84 -51t-30 -154q0 -105 28 -155t79 -50q36 0 62.5 20zM455 452v-380l249 380h-249zM791.5 84.5q21.5 10.5 21.5 39.5q0 39 -35 39q-49 0 -62 -89q54 0 75.5 10.5z" />
    <glyph glyph-name="e" unicode="e" horiz-adv-x="494" 
d="M448 232h-306q4 -92 37 -132.5t90 -40.5q36 0 64.5 11t59.5 36l40 -53q-74 -66 -168 -66q-103 0 -159.5 71.5t-56.5 200.5t54 204.5t150 75.5q95 0 146 -67.5t51 -192.5q0 -21 -2 -47zM363 306q0 165 -109 165q-50 0 -79 -41.5t-33 -134.5h221v11z" />
    <glyph glyph-name="eacute" unicode="&#xe9;" horiz-adv-x="494" 
d="M448 232h-306q4 -92 37 -132.5t90 -40.5q36 0 64.5 11t59.5 36l40 -53q-74 -66 -168 -66q-103 0 -159.5 71.5t-56.5 200.5t54 204.5t150 75.5q95 0 146 -67.5t51 -192.5q0 -21 -2 -47zM363 306q0 165 -109 165q-50 0 -79 -41.5t-33 -134.5h221v11zM320 797l38 -72
l-192 -87l-26 46z" />
    <glyph glyph-name="ebreve" unicode="&#x115;" horiz-adv-x="494" 
d="M448 232h-306q4 -92 37 -132.5t90 -40.5q36 0 64.5 11t59.5 36l40 -53q-74 -66 -168 -66q-103 0 -159.5 71.5t-56.5 200.5t54 204.5t150 75.5q95 0 146 -67.5t51 -192.5q0 -21 -2 -47zM363 306q0 165 -109 165q-50 0 -79 -41.5t-33 -134.5h221v11zM161.5 680
q-35.5 35 -41.5 96l54 12q18 -76 79 -76q63 0 81 76l54 -12q-6 -61 -42 -96t-93 -35q-56 0 -91.5 35z" />
    <glyph glyph-name="ecaron" unicode="&#x11b;" horiz-adv-x="494" 
d="M448 232h-306q4 -92 37 -132.5t90 -40.5q36 0 64.5 11t59.5 36l40 -53q-74 -66 -168 -66q-103 0 -159.5 71.5t-56.5 200.5t54 204.5t150 75.5q95 0 146 -67.5t51 -192.5q0 -21 -2 -47zM363 306q0 165 -109 165q-50 0 -79 -41.5t-33 -134.5h221v11zM368 783l35 -40
l-121 -116h-56l-121 116l35 40l114 -88z" />
    <glyph glyph-name="uni0229" unicode="&#x229;" horiz-adv-x="494" 
d="M448 232h-306q4 -92 37 -132.5t90 -40.5q36 0 64.5 11t59.5 36l40 -53q-66 -58 -144 -65v-48q44 -5 65.5 -26.5t21.5 -56.5q0 -45 -31.5 -70.5t-80.5 -25.5q-50 0 -84 24l24 46q26 -13 55 -13q21 0 33.5 10t12.5 29q0 22 -19.5 32.5t-61.5 10.5l9 89q-88 11 -136 81.5
t-48 188.5q0 129 54 204.5t150 75.5q95 0 146 -67.5t51 -192.5q0 -21 -2 -47zM363 306q0 165 -109 165q-50 0 -79 -41.5t-33 -134.5h221v11z" />
    <glyph glyph-name="ecircumflex" unicode="&#xea;" horiz-adv-x="494" 
d="M448 232h-306q4 -92 37 -132.5t90 -40.5q36 0 64.5 11t59.5 36l40 -53q-74 -66 -168 -66q-103 0 -159.5 71.5t-56.5 200.5t54 204.5t150 75.5q95 0 146 -67.5t51 -192.5q0 -21 -2 -47zM363 306q0 165 -109 165q-50 0 -79 -41.5t-33 -134.5h221v11zM140 637l-35 39
l121 117h56l121 -117l-35 -39l-114 86z" />
    <glyph glyph-name="uni1EBF" unicode="&#x1ebf;" horiz-adv-x="494" 
d="M448 232h-306q4 -92 37 -132.5t90 -40.5q36 0 64.5 11t59.5 36l40 -53q-74 -66 -168 -66q-103 0 -159.5 71.5t-56.5 200.5t54 204.5t150 75.5q95 0 146 -67.5t51 -192.5q0 -21 -2 -47zM363 306q0 165 -109 165q-50 0 -79 -41.5t-33 -134.5h221v11zM137 588l-35 39
l122 112h55l121 -112l-35 -39l-114 81zM443 885l57 -49l-127 -129l-37 32z" />
    <glyph glyph-name="uni1EC7" unicode="&#x1ec7;" horiz-adv-x="494" 
d="M448 232h-306q4 -92 37 -132.5t90 -40.5q36 0 64.5 11t59.5 36l40 -53q-74 -66 -168 -66q-103 0 -159.5 71.5t-56.5 200.5t54 204.5t150 75.5q95 0 146 -67.5t51 -192.5q0 -21 -2 -47zM363 306q0 165 -109 165q-50 0 -79 -41.5t-33 -134.5h221v11zM140 637l-35 39
l121 117h56l121 -117l-35 -39l-114 86zM222.5 -177q-16.5 17 -16.5 42t16 41.5t43 16.5q26 0 42.5 -16.5t16.5 -41.5t-16.5 -42t-42.5 -17t-42.5 17z" />
    <glyph glyph-name="uni1EC1" unicode="&#x1ec1;" horiz-adv-x="494" 
d="M448 232h-306q4 -92 37 -132.5t90 -40.5q36 0 64.5 11t59.5 36l40 -53q-74 -66 -168 -66q-103 0 -159.5 71.5t-56.5 200.5t54 204.5t150 75.5q95 0 146 -67.5t51 -192.5q0 -21 -2 -47zM363 306q0 165 -109 165q-50 0 -79 -41.5t-33 -134.5h221v11zM137 588l-35 39
l122 112h55l121 -112l-35 -39l-114 81zM62 885l108 -146l-38 -32l-127 129z" />
    <glyph glyph-name="uni1EC3" unicode="&#x1ec3;" horiz-adv-x="494" 
d="M448 232h-306q4 -92 37 -132.5t90 -40.5q36 0 64.5 11t59.5 36l40 -53q-74 -66 -168 -66q-103 0 -159.5 71.5t-56.5 200.5t54 204.5t150 75.5q95 0 146 -67.5t51 -192.5q0 -21 -2 -47zM363 306q0 165 -109 165q-50 0 -79 -41.5t-33 -134.5h221v11zM137 588l-35 39
l122 112h55l121 -112l-35 -39l-114 81zM347 801q34 4 49 13t15 31q0 19 -10.5 28.5t-29.5 9.5q-15 0 -26.5 -3t-26.5 -10l-18 46q39 23 84 23t70.5 -24t25.5 -64q0 -35 -18.5 -56.5t-52.5 -27.5v-56h-62v90z" />
    <glyph glyph-name="uni1EC5" unicode="&#x1ec5;" horiz-adv-x="494" 
d="M448 232h-306q4 -92 37 -132.5t90 -40.5q36 0 64.5 11t59.5 36l40 -53q-74 -66 -168 -66q-103 0 -159.5 71.5t-56.5 200.5t54 204.5t150 75.5q95 0 146 -67.5t51 -192.5q0 -21 -2 -47zM363 306q0 165 -109 165q-50 0 -79 -41.5t-33 -134.5h221v11zM138 580l-35 39
l122 112h55l121 -112l-35 -39l-114 81zM274.5 773.5q-14.5 6.5 -32.5 18.5q-10 7 -21 12.5t-20 5.5q-15 0 -26 -9.5t-24 -31.5l-48 23q17 38 41.5 60t54.5 22q17 0 30.5 -6t31.5 -18q14 -10 24 -14.5t21 -4.5q14 0 25 10t23 32l49 -22q-16 -42 -40.5 -63t-55.5 -21
q-18 0 -32.5 6.5z" />
    <glyph glyph-name="uni0205" unicode="&#x205;" horiz-adv-x="494" 
d="M448 232h-306q4 -92 37 -132.5t90 -40.5q36 0 64.5 11t59.5 36l40 -53q-74 -66 -168 -66q-103 0 -159.5 71.5t-56.5 200.5t54 204.5t150 75.5q95 0 146 -67.5t51 -192.5q0 -21 -2 -47zM363 306q0 165 -109 165q-50 0 -79 -41.5t-33 -134.5h221v11zM150 827l77 -168
l-50 -23l-95 155zM285 827l69 -164l-51 -22l-87 150z" />
    <glyph glyph-name="edieresis" unicode="&#xeb;" horiz-adv-x="494" 
d="M448 232h-306q4 -92 37 -132.5t90 -40.5q36 0 64.5 11t59.5 36l40 -53q-74 -66 -168 -66q-103 0 -159.5 71.5t-56.5 200.5t54 204.5t150 75.5q95 0 146 -67.5t51 -192.5q0 -21 -2 -47zM363 306q0 165 -109 165q-50 0 -79 -41.5t-33 -134.5h221v11zM197 747q15 -15 15 -38
t-15 -38.5t-37 -15.5q-23 0 -38 15.5t-15 38.5t15 38t38 15q22 0 37 -15zM384 747q15 -15 15 -38t-15 -38.5t-37 -15.5t-37.5 15.5t-15.5 38.5t15 38t38 15q22 0 37 -15z" />
    <glyph glyph-name="edotaccent" unicode="&#x117;" horiz-adv-x="494" 
d="M448 232h-306q4 -92 37 -132.5t90 -40.5q36 0 64.5 11t59.5 36l40 -53q-74 -66 -168 -66q-103 0 -159.5 71.5t-56.5 200.5t54 204.5t150 75.5q95 0 146 -67.5t51 -192.5q0 -21 -2 -47zM363 306q0 165 -109 165q-50 0 -79 -41.5t-33 -134.5h221v11zM296.5 757
q16.5 -17 16.5 -42t-16 -41.5t-43 -16.5q-26 0 -42.5 16.5t-16.5 41.5t16.5 42t42.5 17t42.5 -17z" />
    <glyph glyph-name="uni1EB9" unicode="&#x1eb9;" horiz-adv-x="494" 
d="M448 232h-306q4 -92 37 -132.5t90 -40.5q36 0 64.5 11t59.5 36l40 -53q-74 -66 -168 -66q-103 0 -159.5 71.5t-56.5 200.5t54 204.5t150 75.5q95 0 146 -67.5t51 -192.5q0 -21 -2 -47zM363 306q0 165 -109 165q-50 0 -79 -41.5t-33 -134.5h221v11zM222.5 -177
q-16.5 17 -16.5 42t16 41.5t43 16.5q26 0 42.5 -16.5t16.5 -41.5t-16.5 -42t-42.5 -17t-42.5 17z" />
    <glyph glyph-name="egrave" unicode="&#xe8;" horiz-adv-x="494" 
d="M448 232h-306q4 -92 37 -132.5t90 -40.5q36 0 64.5 11t59.5 36l40 -53q-74 -66 -168 -66q-103 0 -159.5 71.5t-56.5 200.5t54 204.5t150 75.5q95 0 146 -67.5t51 -192.5q0 -21 -2 -47zM363 306q0 165 -109 165q-50 0 -79 -41.5t-33 -134.5h221v11zM190 797l180 -113
l-26 -46l-192 87z" />
    <glyph glyph-name="uni1EBB" unicode="&#x1ebb;" horiz-adv-x="494" 
d="M448 232h-306q4 -92 37 -132.5t90 -40.5q36 0 64.5 11t59.5 36l40 -53q-74 -66 -168 -66q-103 0 -159.5 71.5t-56.5 200.5t54 204.5t150 75.5q95 0 146 -67.5t51 -192.5q0 -21 -2 -47zM363 306q0 165 -109 165q-50 0 -79 -41.5t-33 -134.5h221v11zM223 702q34 4 49 13
t15 31q0 19 -10.5 28.5t-29.5 9.5q-15 0 -26.5 -3t-26.5 -10l-18 46q39 23 84 23t70.5 -24t25.5 -64q0 -35 -18.5 -56.5t-52.5 -27.5v-56h-62v90z" />
    <glyph glyph-name="uni0207" unicode="&#x207;" horiz-adv-x="494" 
d="M448 232h-306q4 -92 37 -132.5t90 -40.5q36 0 64.5 11t59.5 36l40 -53q-74 -66 -168 -66q-103 0 -159.5 71.5t-56.5 200.5t54 204.5t150 75.5q95 0 146 -67.5t51 -192.5q0 -21 -2 -47zM363 306q0 165 -109 165q-50 0 -79 -41.5t-33 -134.5h221v11zM346 723q36 -35 42 -96
l-54 -12q-18 76 -81 76q-61 0 -79 -76l-54 12q6 61 41.5 96t91.5 35q57 0 93 -35z" />
    <glyph glyph-name="emacron" unicode="&#x113;" horiz-adv-x="494" 
d="M448 232h-306q4 -92 37 -132.5t90 -40.5q36 0 64.5 11t59.5 36l40 -53q-74 -66 -168 -66q-103 0 -159.5 71.5t-56.5 200.5t54 204.5t150 75.5q95 0 146 -67.5t51 -192.5q0 -21 -2 -47zM363 306q0 165 -109 165q-50 0 -79 -41.5t-33 -134.5h221v11zM375 669h-242v66h242
v-66z" />
    <glyph glyph-name="eogonek" unicode="&#x119;" horiz-adv-x="494" 
d="M448 232h-306q4 -92 37 -132.5t90 -40.5q36 0 64.5 11t59.5 36l40 -53q-41 -36 -83 -51q-56 -28 -78 -53.5t-22 -55.5q0 -24 13.5 -37t39.5 -13q25 0 53 7l-7 -65q-32 -7 -57 -7q-52 0 -82.5 27.5t-30.5 72.5q0 68 75 109q-98 5 -151.5 76t-53.5 196q0 129 54 204.5
t150 75.5q95 0 146 -67.5t51 -192.5q0 -21 -2 -47zM363 306q0 165 -109 165q-50 0 -79 -41.5t-33 -134.5h221v11z" />
    <glyph glyph-name="uni025B" unicode="&#x25b;" horiz-adv-x="425" 
d="M326 526.5q38 -12.5 71 -37.5l-38 -52q-27 17 -52.5 25t-57.5 8q-43 0 -66.5 -21t-23.5 -60q0 -37 25 -59.5t69 -22.5h55l-10 -66h-50q-55 0 -80 -22.5t-25 -70.5q0 -42 27 -66t76 -24q37 0 65.5 11t58.5 34l42 -53q-73 -63 -175 -63q-84 0 -136 42t-52 115
q0 115 126 135q-107 24 -107 118q0 65 47.5 103.5t124.5 38.5q48 0 86 -12.5z" />
    <glyph glyph-name="uni029A" unicode="&#x29a;" horiz-adv-x="514" 
d="M103 31q-54 44 -54 122q0 58 31.5 88.5t95.5 39.5q-53 14 -78 41.5t-25 72.5q0 65 48 104.5t124 39.5q105 0 162.5 -72.5t57.5 -203.5q0 -133 -56 -204.5t-163 -71.5q-89 0 -143 44zM343 106.5q30 48.5 30 156.5q0 107 -31.5 157t-94.5 50q-39 0 -61.5 -21t-22.5 -58
q0 -41 26.5 -62.5t69.5 -21.5h21l5 -66h-32q-53 0 -82.5 -19.5t-29.5 -66.5q0 -50 28 -73.5t78 -23.5q66 0 96 48.5z" />
    <glyph glyph-name="uni025C" unicode="&#x25c;" horiz-adv-x="444" 
d="M322.5 500.5q48.5 -38.5 48.5 -103.5q0 -46 -25.5 -74t-78.5 -42q64 -9 96 -39.5t32 -88.5q0 -80 -55 -123t-143 -43q-107 0 -184 67l45 52q32 -25 62.5 -36.5t71.5 -11.5q109 0 109 97q0 47 -30.5 66.5t-90.5 19.5h-58l5 66h44q52 0 80 21.5t28 63.5q0 40 -24 59t-64 19
q-35 0 -61.5 -10t-58.5 -30l-42 50q37 30 79 44.5t95 14.5q71 0 119.5 -38.5z" />
    <glyph glyph-name="uni025E" unicode="&#x25e;" horiz-adv-x="514" 
d="M105 58.5q-56 71.5 -56 204.5q0 131 57.5 203.5t162.5 72.5q76 0 124 -39.5t48 -104.5q0 -45 -25 -72.5t-78 -41.5q64 -9 95.5 -39.5t31.5 -88.5q0 -78 -54 -122t-143 -44q-107 0 -163 71.5zM345 81.5q28 23.5 28 73.5q0 47 -29.5 66.5t-82.5 19.5h-32l5 66h21
q44 0 70 21.5t26 62.5q0 37 -22.5 58t-61.5 21q-63 0 -94.5 -50t-31.5 -157q0 -108 30 -156.5t96 -48.5q50 0 78 23.5z" />
    <glyph glyph-name="uni025D" unicode="&#x25d;" horiz-adv-x="649" 
d="M670 352q-46 -36 -103 -36q-56 0 -88.5 31.5t-33.5 88.5l-1 22l-74 -43q1 -6 1 -18q0 -46 -25.5 -74t-78.5 -42q64 -9 96 -39.5t32 -88.5q0 -80 -55 -123t-143 -43q-107 0 -184 67l45 52q32 -25 62.5 -36.5t71.5 -11.5q109 0 109 97q0 47 -30.5 66.5t-90.5 19.5h-58l5 66
h44q52 0 80 21.5t28 63.5q0 40 -24 59t-64 19q-35 0 -61.5 -10t-58.5 -30l-42 50q37 30 79 44.5t95 14.5q47 0 85 -17.5t60 -49.5l93 54h80v-75q0 -65 55 -65q19 0 32 4.5t29 14.5z" />
    <glyph glyph-name="uni0258" unicode="&#x258;" horiz-adv-x="494" 
d="M394.5 467q50.5 -72 50.5 -208q0 -130 -56.5 -201t-159.5 -71q-92 0 -168 66l40 53q32 -25 60.5 -36t65.5 -11q57 0 89 40t37 133h-307q-2 26 -2 47q0 123 53 191.5t148 68.5q99 0 149.5 -72zM132 295h221q-4 98 -30.5 137t-78.5 39q-55 0 -83.5 -42.5t-28.5 -122.5v-11z
" />
    <glyph glyph-name="uni0283" unicode="&#x283;" horiz-adv-x="251" 
d="M323 713l-32 -56q-18 11 -32 16t-33 5q-55 0 -55 -69v-679q0 -68 -38 -104.5t-100 -36.5t-109 37l36 54q17 -11 31 -16t33 -5q57 0 57 67v679q0 70 36 107t99 37q59 0 107 -36z" />
    <glyph glyph-name="uni0286" unicode="&#x286;" horiz-adv-x="279" 
d="M293 -50l-21 -46q-37 17 -76 30q-8 -70 -47 -107.5t-106 -37.5q-56 0 -87 28t-31 77q0 54 34.5 83.5t94.5 29.5q33 0 54 -3v601q0 70 36 107t99 37q59 0 107 -36l-32 -56q-18 11 -32 16t-33 5q-55 0 -55 -69v-622q49 -14 95 -37zM92 -129.5q16 24.5 16 79.5q-22 6 -53 6
q-68 0 -68 -59q0 -51 53 -51q36 0 52 24.5z" />
    <glyph glyph-name="uni01AA" unicode="&#x1aa;" horiz-adv-x="301" 
d="M377 -174q-47 -37 -109 -37t-100 36.5t-38 104.5v556q-24 -11 -53 -11q-54 0 -87.5 36t-33.5 99q0 64 36 101.5t94 37.5q62 0 98 -37t36 -101v-685q0 -67 57 -67q19 0 33 5t31 16zM130 551v65q0 64 -45 64q-46 0 -46 -68q0 -69 51 -69q19 0 40 8z" />
    <glyph glyph-name="uni0285" unicode="&#x285;" horiz-adv-x="394" 
d="M396 25q-47 -37 -109 -37t-100 36.5t-38 104.5v187h1v83q0 69 -55 69q-19 0 -33 -5t-32 -16l-32 56q48 36 107 36q63 0 99 -37t36 -107v-80h-1v-190q0 -67 57 -67q19 0 33 5t31 16z" />
    <glyph glyph-name="uni0247" unicode="&#x247;" horiz-adv-x="494" 
d="M257 233l-41 -165q23 -10 53 -10q35 0 64 11.5t60 35.5l40 -51q-75 -67 -168 -67q-36 0 -66 9l-17 -67l-38 9l18 73q-55 29 -84 92.5t-29 155.5q0 129 54 204.5t150 75.5q20 0 38 -3l15 59l38 -9l-15 -61q59 -23 90 -86t31 -160q0 -22 -2 -46h-191zM138 295h94l43 175
q-12 2 -21 2q-108 0 -116 -177zM312 457l-40 -162h95v10q0 117 -55 152zM217 233h-79q6 -100 44 -141z" />
    <glyph glyph-name="uni1EBD" unicode="&#x1ebd;" horiz-adv-x="494" 
d="M448 232h-306q4 -92 37 -132.5t90 -40.5q36 0 64.5 11t59.5 36l40 -53q-74 -66 -168 -66q-103 0 -159.5 71.5t-56.5 200.5t54 204.5t150 75.5q95 0 146 -67.5t51 -192.5q0 -21 -2 -47zM363 306q0 165 -109 165q-50 0 -79 -41.5t-33 -134.5h221v11zM276 665.5
q-14 6.5 -33 19.5q-10 7 -21 12.5t-20 5.5q-15 0 -26 -10t-24 -32l-48 23q17 39 41.5 61.5t54.5 22.5q17 0 31 -6.5t31 -18.5q14 -10 24 -14.5t21 -4.5q14 0 25 10t23 33l49 -23q-32 -85 -96 -85q-18 0 -32 6.5z" />
    <glyph glyph-name="uni01DD" unicode="&#x1dd;" horiz-adv-x="500" 
d="M399 469q52 -70 52 -204q0 -135 -54.5 -206.5t-152.5 -71.5q-93 0 -146.5 67.5t-53.5 194.5q0 19 2 45h315q-4 92 -34 133t-85 41q-36 0 -65.5 -10.5t-60.5 -35.5l-40 54q74 63 167 63q104 0 156 -70zM329 96.5q29 39.5 32 133.5h-231v-7q0 -84 30 -125t85 -41t84 39.5z
" />
    <glyph glyph-name="uni0259" unicode="&#x259;" horiz-adv-x="500" 
d="M399 469q52 -70 52 -204q0 -135 -54.5 -206.5t-152.5 -71.5q-93 0 -146.5 67.5t-53.5 194.5q0 19 2 45h315q-4 92 -34 133t-85 41q-36 0 -65.5 -10.5t-60.5 -35.5l-40 54q74 63 167 63q104 0 156 -70zM329 96.5q29 39.5 32 133.5h-231v-7q0 -84 30 -125t85 -41t84 39.5z
" />
    <glyph glyph-name="uni025A" unicode="&#x25a;" horiz-adv-x="702" 
d="M722 352q-46 -36 -103 -36q-56 0 -88.5 31.5t-33.5 88.5l-1 22l-69 -40q24 -61 24 -153q0 -135 -54.5 -206.5t-152.5 -71.5q-93 0 -146.5 67.5t-53.5 194.5q0 19 2 45h315q-4 92 -34 133t-85 41q-36 0 -65.5 -10.5t-60.5 -35.5l-40 54q74 63 167 63q102 0 155 -68l95 55
h80v-75q0 -65 55 -65q19 0 32 4.5t29 14.5zM329 96.5q29 39.5 32 133.5h-231v-7q0 -84 30 -125t85 -41t84 39.5z" />
    <glyph glyph-name="uni0292" unicode="&#x292;" horiz-adv-x="432" 
d="M408 6q0 -64 -26 -113t-75.5 -76.5t-115.5 -27.5q-63 0 -109.5 22.5t-82.5 67.5l52 47q33 -34 64.5 -49.5t72.5 -15.5q61 0 93.5 38.5t32.5 109.5t-34 102t-108 31h-67v62l181 250h-259v72h357v-67l-187 -254q211 -4 211 -199z" />
    <glyph glyph-name="uni01EF" unicode="&#x1ef;" horiz-adv-x="432" 
d="M408 6q0 -64 -26 -113t-75.5 -76.5t-115.5 -27.5q-63 0 -109.5 22.5t-82.5 67.5l52 47q33 -34 64.5 -49.5t72.5 -15.5q61 0 93.5 38.5t32.5 109.5t-34 102t-108 31h-67v62l181 250h-259v72h357v-67l-187 -254q211 -4 211 -199zM319 783l35 -40l-121 -116h-56l-121 116
l35 40l114 -88z" />
    <glyph glyph-name="uni0293" unicode="&#x293;" horiz-adv-x="432" 
d="M372 -120q-36 -53 -106 -76l23 -56l-53 -21l-27 65q-22 -3 -49 -3q-89 0 -135.5 34t-46.5 98q0 49 29.5 79t76.5 30q52 0 85.5 -34t66.5 -123q78 30 78 136q0 72 -33.5 103t-107.5 31h-68v62l181 249h-259v72h357v-67l-187 -253q105 -1 158 -51t53 -147q0 -75 -36 -128z
M74.5 -124.5q26.5 -14.5 85.5 -14.5q14 0 21 1q-25 64 -44.5 86.5t-45.5 22.5q-20 0 -31.5 -12.5t-11.5 -35.5q0 -33 26.5 -47.5z" />
    <glyph glyph-name="uni01B9" unicode="&#x1b9;" horiz-adv-x="432" 
d="M433 -121q-36 -45 -83 -67.5t-111 -22.5q-65 0 -113.5 26.5t-75 74t-26.5 109.5q0 96 54 150t157 56l-187 254v67h357v-72h-259l182 -250v-62h-67q-74 0 -108.5 -34.5t-34.5 -106.5q0 -68 32 -104t92 -36q43 0 75 15.5t65 49.5z" />
    <glyph glyph-name="uni01BA" unicode="&#x1ba;" horiz-adv-x="429" 
d="M27 -77q0 49 37 77t115 40q73 11 103 31.5t30 67.5q0 71 -83 71h-128v61l175 184h-252v71h354v-65l-183 -188h52q74 0 116.5 -35t42.5 -100q-1 -73 -47.5 -110.5t-130.5 -51.5q-67 -11 -90.5 -23.5t-23.5 -37.5q0 -20 14.5 -36.5t45.5 -34.5l-26 -57q-121 54 -121 136z
" />
    <glyph glyph-name="f" unicode="f" horiz-adv-x="306" 
d="M198.5 660q-17.5 -18 -17.5 -56v-78h118l-10 -68h-108v-458h-90v458h-78v68h78v77q0 66 40.5 106t112.5 40q60 0 118 -29l-27 -62q-41 20 -82 20q-37 0 -54.5 -18z" />
    <glyph glyph-name="uni1E1F" unicode="&#x1e1f;" horiz-adv-x="306" 
d="M198.5 660q-17.5 -18 -17.5 -56v-78h118l-10 -68h-108v-458h-90v458h-78v68h78v77q0 66 40.5 106t112.5 40q60 0 118 -29l-27 -62q-41 20 -82 20q-37 0 -54.5 -18zM278.5 934q16.5 -17 16.5 -42t-16 -41.5t-43 -16.5q-26 0 -42.5 16.5t-16.5 41.5t16.5 42t42.5 17
t42.5 -17z" />
    <glyph glyph-name="uni02A9" unicode="&#x2a9;" horiz-adv-x="791" 
d="M679.5 497.5q35.5 -41.5 35.5 -114.5v-453q0 -68 -38 -104.5t-100 -36.5t-109 37l36 54q17 -11 31 -16t33 -5q57 0 57 67v446q0 51 -17 73.5t-52 22.5q-66 0 -120 -94v-374h-90v458h-165v-458h-90v458h-78v68h78v77q0 66 40.5 106t112.5 40q60 0 118 -29l-27 -62
q-41 20 -82 20q-37 0 -54.5 -18t-17.5 -56v-78h243l7 -78q61 91 150 91q63 0 98.5 -41.5z" />
    <glyph glyph-name="g" unicode="g" horiz-adv-x="470" 
d="M467 507q-43 -17 -133 -17q84 -42 84 -138q0 -79 -49.5 -127.5t-134.5 -48.5q-32 0 -58 10q-28 -20 -28 -51q0 -47 66 -47h69q78 0 124 -39.5t46 -100.5q0 -74 -57 -116.5t-167 -42.5q-114 0 -161.5 39t-47.5 119h81q0 -33 11.5 -52.5t39 -29t78.5 -9.5q71 0 102 22
t31 63q0 38 -25.5 58t-72.5 20h-59q-69 0 -103 26.5t-34 70.5q0 51 55 91q-42 24 -62.5 60.5t-20.5 88.5q0 82 52 132t137 50q79 0 122.5 11t89.5 34zM156.5 444.5q-25.5 -30.5 -25.5 -88.5q0 -56 26.5 -87.5t73.5 -31.5q99 0 99 120q0 58 -25 88t-74 30t-74.5 -30.5z" />
    <glyph glyph-name="g.ss04" horiz-adv-x="536" 
d="M455 526v-535q0 -97 -51.5 -149.5t-151.5 -52.5q-87 0 -151 42l32 58q26 -14 52 -22t62 -8q64 0 91 31t27 96v97q-47 -76 -131 -76q-86 0 -134.5 71t-48.5 193q0 79 23 139.5t66.5 94.5t101.5 34q78 0 129 -68l6 55h78zM316 98q26 20 49 62v242q-22 32 -47 49t-57 17
q-54 0 -85 -49t-30 -146q0 -100 28 -147.5t79 -47.5q37 0 63 20z" />
    <glyph glyph-name="uni01F5" unicode="&#x1f5;" horiz-adv-x="470" 
d="M467 507q-43 -17 -133 -17q84 -42 84 -138q0 -79 -49.5 -127.5t-134.5 -48.5q-32 0 -58 10q-28 -20 -28 -51q0 -47 66 -47h69q78 0 124 -39.5t46 -100.5q0 -74 -57 -116.5t-167 -42.5q-114 0 -161.5 39t-47.5 119h81q0 -33 11.5 -52.5t39 -29t78.5 -9.5q71 0 102 22
t31 63q0 38 -25.5 58t-72.5 20h-59q-69 0 -103 26.5t-34 70.5q0 51 55 91q-42 24 -62.5 60.5t-20.5 88.5q0 82 52 132t137 50q79 0 122.5 11t89.5 34zM156.5 444.5q-25.5 -30.5 -25.5 -88.5q0 -56 26.5 -87.5t73.5 -31.5q99 0 99 120q0 58 -25 88t-74 30t-74.5 -30.5z
M302 797l38 -72l-192 -87l-26 46z" />
    <glyph glyph-name="uni0263" unicode="&#x263;" horiz-adv-x="446" 
d="M271 63q31 -59 44.5 -98t13.5 -78q0 -45 -27 -71.5t-78 -26.5q-50 0 -76.5 26t-26.5 71q0 35 13.5 76t44.5 100l-170 464h94l121 -404l123 404h90zM248.5 -59.5q-7.5 24.5 -24.5 63.5q-16 -38 -23 -63t-7 -50q0 -38 30 -38q32 0 32 38q0 25 -7.5 49.5z" />
    <glyph glyph-name="gbreve" unicode="&#x11f;" horiz-adv-x="470" 
d="M467 507q-43 -17 -133 -17q84 -42 84 -138q0 -79 -49.5 -127.5t-134.5 -48.5q-32 0 -58 10q-28 -20 -28 -51q0 -47 66 -47h69q78 0 124 -39.5t46 -100.5q0 -74 -57 -116.5t-167 -42.5q-114 0 -161.5 39t-47.5 119h81q0 -33 11.5 -52.5t39 -29t78.5 -9.5q71 0 102 22
t31 63q0 38 -25.5 58t-72.5 20h-59q-69 0 -103 26.5t-34 70.5q0 51 55 91q-42 24 -62.5 60.5t-20.5 88.5q0 82 52 132t137 50q79 0 122.5 11t89.5 34zM156.5 444.5q-25.5 -30.5 -25.5 -88.5q0 -56 26.5 -87.5t73.5 -31.5q99 0 99 120q0 58 -25 88t-74 30t-74.5 -30.5z
M143.5 680q-35.5 35 -41.5 96l54 12q18 -76 79 -76q63 0 81 76l54 -12q-6 -61 -42 -96t-93 -35q-56 0 -91.5 35z" />
    <glyph glyph-name="gcaron" unicode="&#x1e7;" horiz-adv-x="470" 
d="M467 507q-43 -17 -133 -17q84 -42 84 -138q0 -79 -49.5 -127.5t-134.5 -48.5q-32 0 -58 10q-28 -20 -28 -51q0 -47 66 -47h69q78 0 124 -39.5t46 -100.5q0 -74 -57 -116.5t-167 -42.5q-114 0 -161.5 39t-47.5 119h81q0 -33 11.5 -52.5t39 -29t78.5 -9.5q71 0 102 22
t31 63q0 38 -25.5 58t-72.5 20h-59q-69 0 -103 26.5t-34 70.5q0 51 55 91q-42 24 -62.5 60.5t-20.5 88.5q0 82 52 132t137 50q79 0 122.5 11t89.5 34zM156.5 444.5q-25.5 -30.5 -25.5 -88.5q0 -56 26.5 -87.5t73.5 -31.5q99 0 99 120q0 58 -25 88t-74 30t-74.5 -30.5z
M350 783l35 -40l-121 -116h-56l-121 116l35 40l114 -88z" />
    <glyph glyph-name="gcircumflex" unicode="&#x11d;" horiz-adv-x="470" 
d="M467 507q-43 -17 -133 -17q84 -42 84 -138q0 -79 -49.5 -127.5t-134.5 -48.5q-32 0 -58 10q-28 -20 -28 -51q0 -47 66 -47h69q78 0 124 -39.5t46 -100.5q0 -74 -57 -116.5t-167 -42.5q-114 0 -161.5 39t-47.5 119h81q0 -33 11.5 -52.5t39 -29t78.5 -9.5q71 0 102 22
t31 63q0 38 -25.5 58t-72.5 20h-59q-69 0 -103 26.5t-34 70.5q0 51 55 91q-42 24 -62.5 60.5t-20.5 88.5q0 82 52 132t137 50q79 0 122.5 11t89.5 34zM156.5 444.5q-25.5 -30.5 -25.5 -88.5q0 -56 26.5 -87.5t73.5 -31.5q99 0 99 120q0 58 -25 88t-74 30t-74.5 -30.5z
M122 637l-35 39l121 117h56l121 -117l-35 -39l-114 86z" />
    <glyph glyph-name="gcommaaccent" unicode="&#x123;" horiz-adv-x="470" 
d="M467 507q-43 -17 -133 -17q84 -42 84 -138q0 -79 -49.5 -127.5t-134.5 -48.5q-32 0 -58 10q-28 -20 -28 -51q0 -47 66 -47h69q78 0 124 -39.5t46 -100.5q0 -74 -57 -116.5t-167 -42.5q-114 0 -161.5 39t-47.5 119h81q0 -33 11.5 -52.5t39 -29t78.5 -9.5q71 0 102 22
t31 63q0 38 -25.5 58t-72.5 20h-59q-69 0 -103 26.5t-34 70.5q0 51 55 91q-42 24 -62.5 60.5t-20.5 88.5q0 82 52 132t137 50q79 0 122.5 11t89.5 34zM156.5 444.5q-25.5 -30.5 -25.5 -88.5q0 -56 26.5 -87.5t73.5 -31.5q99 0 99 120q0 58 -25 88t-74 30t-74.5 -30.5z
M196.5 600q-14.5 15 -14.5 39q0 13 4.5 28t17.5 45l38 88h49l-29 -115q26 -17 26 -46q0 -23 -15 -38.5t-38 -15.5q-24 0 -38.5 15z" />
    <glyph glyph-name="gdotaccent" unicode="&#x121;" horiz-adv-x="470" 
d="M467 507q-43 -17 -133 -17q84 -42 84 -138q0 -79 -49.5 -127.5t-134.5 -48.5q-32 0 -58 10q-28 -20 -28 -51q0 -47 66 -47h69q78 0 124 -39.5t46 -100.5q0 -74 -57 -116.5t-167 -42.5q-114 0 -161.5 39t-47.5 119h81q0 -33 11.5 -52.5t39 -29t78.5 -9.5q71 0 102 22
t31 63q0 38 -25.5 58t-72.5 20h-59q-69 0 -103 26.5t-34 70.5q0 51 55 91q-42 24 -62.5 60.5t-20.5 88.5q0 82 52 132t137 50q79 0 122.5 11t89.5 34zM156.5 444.5q-25.5 -30.5 -25.5 -88.5q0 -56 26.5 -87.5t73.5 -31.5q99 0 99 120q0 58 -25 88t-74 30t-74.5 -30.5z
M278.5 757q16.5 -17 16.5 -42t-16 -41.5t-43 -16.5q-26 0 -42.5 16.5t-16.5 41.5t16.5 42t42.5 17t42.5 -17z" />
    <glyph glyph-name="uni0260" unicode="&#x260;" horiz-adv-x="536" 
d="M606 713l-32 -56q-18 11 -32 16t-33 5q-55 0 -55 -69v-83h1v-535q0 -97 -51.5 -149.5t-151.5 -52.5q-87 0 -151 42l32 58q26 -14 52 -22t62 -8q64 0 91 31t27 96v97q-47 -76 -131 -76q-86 0 -134.5 71t-48.5 193q0 79 23 139.5t66.5 94.5t101.5 34q74 0 123 -60v46h-1v80
q0 70 36 107t99 37q59 0 107 -36zM316 98q26 20 49 62v242q-22 32 -47 49t-57 17q-54 0 -85 -49t-30 -146q0 -100 28 -147.5t79 -47.5q37 0 63 20z" />
    <glyph glyph-name="uni01BE" unicode="&#x1be;" horiz-adv-x="458" 
d="M367 356q42 -48 42 -144q0 -103 -56 -163t-151 -60q-55 0 -98.5 21t-84.5 64l47 47q32 -30 62.5 -45t68.5 -15q58 0 88 39t30 113t-30.5 111t-88.5 53l-57 15v155h-64v65h64v126l90 10v-136h97v-65h-97v-115l27 -7q69 -21 111 -69z" />
    <glyph glyph-name="uni0294" unicode="&#x294;" horiz-adv-x="406" 
d="M118 346l50 16q59 20 89.5 55t30.5 108q0 74 -30.5 113t-88.5 39q-38 0 -68.5 -15t-62.5 -45l-47 47q41 43 85 64t100 21q95 0 150 -60t55 -163q0 -95 -41.5 -142t-111.5 -72l-20 -6v-306h-90v346z" />
    <glyph glyph-name="uni0296" unicode="&#x296;" horiz-adv-x="458" 
d="M229 748v-316l27 -7q69 -21 111 -69t42 -144q0 -103 -56 -163t-151 -60q-55 0 -98.5 21t-84.5 64l47 47q32 -30 62.5 -45t68.5 -15q58 0 88 39t30 113t-30.5 111t-88.5 53l-57 15v346z" />
    <glyph glyph-name="uni0295" unicode="&#x295;" horiz-adv-x="406" 
d="M198 0v306l-20 6q-71 25 -112.5 71.5t-41.5 142.5q0 103 57 163t152 60q54 0 97.5 -21t84.5 -64l-47 -47q-32 30 -62 45t-68 15q-57 0 -88.5 -39t-31.5 -113q0 -73 30.5 -108t89.5 -55l50 -16v-346h-90z" />
    <glyph glyph-name="uni0242" unicode="&#x242;" horiz-adv-x="397" 
d="M108 193l58 17q50 16 76.5 48t26.5 88t-27.5 87.5t-74.5 31.5q-37 0 -63.5 -12.5t-55.5 -37.5l-46 49q37 37 77.5 56t94.5 19q86 0 137.5 -53.5t51.5 -138.5q0 -79 -37.5 -121.5t-99.5 -62.5l-28 -9v-154h-90v193z" />
    <glyph glyph-name="uni02A1" unicode="&#x2a1;" horiz-adv-x="406" 
d="M208 306v-92h97v-64h-97v-150h-90v150h-61v64h61v132l50 16q59 20 89.5 55t30.5 108q0 74 -30.5 113t-88.5 39q-38 0 -68.5 -15t-62.5 -45l-47 47q41 43 85 64t100 21q95 0 150 -60t55 -163q0 -95 -41.5 -142t-111.5 -72z" />
    <glyph glyph-name="uni02A2" unicode="&#x2a2;" horiz-adv-x="406" 
d="M149.5 638q-31.5 -39 -31.5 -113q0 -73 30.5 -108t89.5 -55l50 -16v-132h62v-64h-62v-150h-90v150h-95v64h95v92l-20 6q-71 25 -112.5 71.5t-41.5 142.5q0 103 57 163t152 60q54 0 97.5 -21t84.5 -64l-47 -47q-32 30 -62 45t-68 15q-57 0 -88.5 -39z" />
    <glyph glyph-name="uni0261" unicode="&#x261;" horiz-adv-x="536" 
d="M455 526v-535q0 -97 -51.5 -149.5t-151.5 -52.5q-87 0 -151 42l32 58q26 -14 52 -22t62 -8q64 0 91 31t27 96v97q-47 -76 -131 -76q-86 0 -134.5 71t-48.5 193q0 79 23 139.5t66.5 94.5t101.5 34q78 0 129 -68l6 55h78zM316 98q26 20 49 62v242q-22 32 -47 49t-57 17
q-54 0 -85 -49t-30 -146q0 -100 28 -147.5t79 -47.5q37 0 63 20z" />
    <glyph glyph-name="uni01E5" unicode="&#x1e5;" horiz-adv-x="470" 
d="M502 -86h-52q-12 -59 -68.5 -92t-152.5 -33q-114 0 -161.5 39t-47.5 119h81q0 -50 27.5 -71t102.5 -21q118 0 137 59h-125v58h124q-18 50 -102 50h-59q-70 0 -103.5 25.5t-33.5 68.5q0 51 55 91q-42 24 -62.5 60.5t-20.5 88.5q0 82 52 132t137 50q79 0 122.5 11t89.5 34
l25 -76q-43 -17 -133 -17q84 -42 84 -138q0 -79 -49.5 -127.5t-134.5 -48.5q-32 0 -58 10q-28 -20 -28 -51q0 -47 66 -47h69q69 0 114 -32t54 -84h51v-58zM156.5 444.5q-25.5 -30.5 -25.5 -88.5q0 -56 26.5 -87.5t73.5 -31.5q99 0 99 120q0 58 -25 88t-74 30t-74.5 -30.5z
" />
    <glyph glyph-name="uni021D" unicode="&#x21d;" horiz-adv-x="428" 
d="M306.5 500.5q48.5 -38.5 48.5 -107.5q0 -50 -25.5 -79.5t-77.5 -42.5q60 -2 93.5 -32t33.5 -84q0 -85 -82 -151t-238 -104l-11 64q125 41 181 85t56 105q0 77 -89 77h-83l6 66h49q43 0 69 22.5t26 67.5q0 42 -23.5 62.5t-64.5 20.5q-35 0 -61 -9.5t-58 -30.5l-43 50
q73 59 171 59q74 0 122.5 -38.5z" />
    <glyph glyph-name="h" unicode="h" horiz-adv-x="527" 
d="M414.5 497q35.5 -42 35.5 -114v-383h-90v372q0 51 -17.5 73.5t-51.5 22.5q-66 0 -120 -94v-374h-90v738l90 10v-297q29 43 64 65.5t81 22.5q63 0 98.5 -42z" />
    <glyph glyph-name="hbar" unicode="&#x127;" horiz-adv-x="532" 
d="M419.5 497q35.5 -42 35.5 -114v-383h-90v372q0 51 -17.5 73.5t-51.5 22.5q-66 0 -120 -94v-374h-90v610h-65v63h65v65l90 10v-75h135v-63h-135v-159q29 43 64 65.5t81 22.5q63 0 98.5 -42z" />
    <glyph glyph-name="uni021F" unicode="&#x21f;" horiz-adv-x="527" 
d="M414.5 497q35.5 -42 35.5 -114v-383h-90v372q0 51 -17.5 73.5t-51.5 22.5q-66 0 -120 -94v-374h-90v738l90 10v-297q29 43 64 65.5t81 22.5q63 0 98.5 -42zM378 956l35 -39l-121 -112h-56l-121 112l36 39l113 -81z" />
    <glyph glyph-name="hcircumflex" unicode="&#x125;" horiz-adv-x="527" 
d="M414.5 497q35.5 -42 35.5 -114v-383h-90v372q0 51 -17.5 73.5t-51.5 22.5q-66 0 -120 -94v-374h-90v738l90 10v-297q29 43 64 65.5t81 22.5q63 0 98.5 -42zM149 812l-35 39l122 112h55l121 -112l-35 -39l-114 81z" />
    <glyph glyph-name="uni1E25" unicode="&#x1e25;" horiz-adv-x="527" 
d="M414.5 497q35.5 -42 35.5 -114v-383h-90v372q0 51 -17.5 73.5t-51.5 22.5q-66 0 -120 -94v-374h-90v738l90 10v-297q29 43 64 65.5t81 22.5q63 0 98.5 -42zM223.5 -177q-16.5 17 -16.5 42t16 41.5t43 16.5q26 0 42.5 -16.5t16.5 -41.5t-16.5 -42t-42.5 -17t-42.5 17z" />
    <glyph glyph-name="uni0267" unicode="&#x267;" horiz-adv-x="527" 
d="M414.5 496q35.5 -43 35.5 -118v-448q0 -68 -38 -104.5t-100 -36.5t-109 37l36 54q17 -11 31 -16t33 -5q57 0 57 67v441q0 54 -17.5 77.5t-51.5 23.5q-66 0 -120 -94v-374h-90v605q0 65 40 104.5t113 39.5q60 0 118 -29l-28 -62q-40 20 -81 20q-37 0 -54.5 -18t-17.5 -56
v-153q29 43 64 65.5t81 22.5q63 0 98.5 -43z" />
    <glyph glyph-name="uni0266" unicode="&#x266;" horiz-adv-x="527" 
d="M414.5 496q35.5 -43 35.5 -118v-378h-90v367q0 54 -17.5 77.5t-51.5 23.5q-66 0 -120 -94v-374h-90v605q0 65 40 104.5t113 39.5q60 0 118 -29l-28 -62q-40 20 -81 20q-37 0 -54.5 -18t-17.5 -56v-153q29 43 64 65.5t81 22.5q63 0 98.5 -43z" />
    <glyph glyph-name="uni0265" unicode="&#x265;" horiz-adv-x="527" 
d="M446 526v-737l-90 11v276q-30 -43 -64.5 -65.5t-81.5 -22.5q-63 0 -98 41.5t-35 113.5v383h90v-372q0 -50 17.5 -73t51.5 -23q35 0 64 24.5t56 69.5v374h90z" />
    <glyph glyph-name="uni02AE" unicode="&#x2ae;" horiz-adv-x="615" 
d="M534 526v-737l-90 11v275q-28 -42 -63.5 -64.5t-81.5 -22.5q-63 0 -98.5 41.5t-35.5 113.5v259q0 67 -57 67q-19 0 -33 -5t-31 -16l-36 54q47 37 109 37t100 -36.5t38 -104.5v-244q0 -50 17.5 -73t51.5 -23q35 0 64 24.5t56 69.5v374h90z" />
    <glyph glyph-name="uni02AF" unicode="&#x2af;" horiz-adv-x="615" 
d="M691 -174q-47 -37 -109 -37t-100 36.5t-38 104.5v145q-28 -42 -63.5 -64.5t-81.5 -22.5q-63 0 -98.5 41.5t-35.5 113.5v259q0 67 -57 67q-19 0 -33 -5t-31 -16l-36 54q47 37 109 37t100 -36.5t38 -104.5v-244q0 -50 17.5 -73t51.5 -23q35 0 64 24.5t56 69.5v374h90v-600
q0 -67 57 -67q19 0 33 5t31 16z" />
    <glyph glyph-name="uni0195" unicode="&#x195;" horiz-adv-x="797" 
d="M736 260q0 -95 -29 -156t-76 -89t-104 -28q-73 0 -120 43.5t-47 123.5v218q0 51 -17.5 73.5t-51.5 22.5q-66 0 -120 -94v-374h-90v738l90 10v-297q29 43 64 65.5t81 22.5q63 0 98.5 -42t35.5 -114v-227q0 -97 81 -97q49 0 81.5 46t32.5 158q0 123 -23 263h89
q25 -148 25 -266z" />
    <glyph glyph-name="i" unicode="i" horiz-adv-x="252" 
d="M171 526v-526h-90v526h90zM168.5 757q16.5 -17 16.5 -42t-16 -41.5t-43 -16.5q-26 0 -42.5 16.5t-16.5 41.5t16.5 42t42.5 17t42.5 -17z" />
    <glyph glyph-name="dotlessi" unicode="&#x131;" horiz-adv-x="252" 
d="M171 526v-526h-90v526h90z" />
    <glyph glyph-name="iacute" unicode="&#xed;" horiz-adv-x="252" 
d="M171 526v-526h-90v526h90zM192 797l38 -72l-192 -87l-26 46z" />
    <glyph glyph-name="ibreve" unicode="&#x12d;" horiz-adv-x="252" 
d="M171 526v-526h-90v526h90zM33.5 680q-35.5 35 -41.5 96l54 12q18 -76 79 -76q63 0 81 76l54 -12q-6 -61 -42 -96t-93 -35q-56 0 -91.5 35z" />
    <glyph glyph-name="uni01D0" unicode="&#x1d0;" horiz-adv-x="252" 
d="M171 526v-526h-90v526h90zM240 783l35 -40l-121 -116h-56l-121 116l35 40l114 -88z" />
    <glyph glyph-name="icircumflex" unicode="&#xee;" horiz-adv-x="252" 
d="M171 526v-526h-90v526h90zM12 637l-35 39l121 117h56l121 -117l-35 -39l-114 86z" />
    <glyph glyph-name="uni0209" unicode="&#x209;" horiz-adv-x="252" 
d="M171 526v-526h-90v526h90zM22 827l77 -168l-50 -23l-95 155zM157 827l69 -164l-51 -22l-87 150z" />
    <glyph glyph-name="idieresis" unicode="&#xef;" horiz-adv-x="252" 
d="M171 526v-526h-90v526h90zM69 747q15 -15 15 -38t-15 -38.5t-37 -15.5q-23 0 -38 15.5t-15 38.5t15 38t38 15q22 0 37 -15zM256 747q15 -15 15 -38t-15 -38.5t-37 -15.5t-37.5 15.5t-15.5 38.5t15 38t38 15q22 0 37 -15z" />
    <glyph glyph-name="uni1E2F" unicode="&#x1e2f;" horiz-adv-x="252" 
d="M171 526v-526h-90v526h90zM199 889l57 -49l-127 -129l-37 32zM68 715q15 -15 15 -38t-15 -38.5t-37 -15.5q-23 0 -38 15.5t-15 38.5t15 38t38 15q22 0 37 -15zM258 715q15 -15 15 -38t-15 -38.5t-37 -15.5t-37.5 15.5t-15.5 38.5t15.5 38t37.5 15t37 -15z" />
    <glyph glyph-name="i.loclTRK" horiz-adv-x="252" 
d="M171 526v-526h-90v526h90zM168.5 757q16.5 -17 16.5 -42t-16 -41.5t-43 -16.5q-26 0 -42.5 16.5t-16.5 41.5t16.5 42t42.5 17t42.5 -17z" />
    <glyph glyph-name="uni1ECB" unicode="&#x1ecb;" horiz-adv-x="252" 
d="M171 526v-526h-90v526h90zM168.5 757q16.5 -17 16.5 -42t-16 -41.5t-43 -16.5q-26 0 -42.5 16.5t-16.5 41.5t16.5 42t42.5 17t42.5 -17zM83.5 -177q-16.5 17 -16.5 42t16 41.5t43 16.5q26 0 42.5 -16.5t16.5 -41.5t-16.5 -42t-42.5 -17t-42.5 17z" />
    <glyph glyph-name="igrave" unicode="&#xec;" horiz-adv-x="252" 
d="M171 526v-526h-90v526h90zM62 797l180 -113l-26 -46l-192 87z" />
    <glyph glyph-name="uni1EC9" unicode="&#x1ec9;" horiz-adv-x="252" 
d="M171 526v-526h-90v526h90zM95 702q34 4 49 13t15 31q0 19 -10.5 28.5t-29.5 9.5q-15 0 -26.5 -3t-26.5 -10l-18 46q39 23 84 23t70.5 -24t25.5 -64q0 -35 -18.5 -56.5t-52.5 -27.5v-56h-62v90z" />
    <glyph glyph-name="uni020B" unicode="&#x20b;" horiz-adv-x="252" 
d="M171 526v-526h-90v526h90zM218 723q36 -35 42 -96l-54 -12q-18 76 -81 76q-61 0 -79 -76l-54 12q6 61 41.5 96t91.5 35q57 0 93 -35z" />
    <glyph glyph-name="ij" unicode="&#x133;" 
d="M171 526v-526h-90v526h90zM168.5 757q16.5 -17 16.5 -42t-16 -41.5t-43 -16.5q-26 0 -42.5 16.5t-16.5 41.5t16.5 42t42.5 17t42.5 -17zM423 21q0 -67 -17.5 -109.5t-50 -69t-87.5 -52.5l-28 65q35 18 54 36t29 48t10 80v507h90v-505zM420.5 757q16.5 -17 16.5 -42
t-16 -41.5t-43 -16.5q-26 0 -42.5 16.5t-16.5 41.5t16.5 42t42.5 17t42.5 -17z" />
    <glyph glyph-name="imacron" unicode="&#x12b;" horiz-adv-x="252" 
d="M171 526v-526h-90v526h90zM247 669h-242v66h242v-66z" />
    <glyph glyph-name="iogonek" unicode="&#x12f;" horiz-adv-x="252" 
d="M83.5 673.5q-16.5 16.5 -16.5 41.5t16.5 42t42.5 17t42.5 -17t16.5 -42t-16 -41.5t-43 -16.5q-26 0 -42.5 16.5zM81 526h90v-526h-8q-61 -29 -85 -55.5t-24 -58.5q0 -49 53 -49q23 0 53 6l-7 -64q-33 -7 -57 -7q-53 0 -83.5 27t-30.5 73q0 81 99 132v522z" />
    <glyph glyph-name="uni0269" unicode="&#x269;" horiz-adv-x="264" 
d="M104 16q-28 29 -28 81v429h90v-426q0 -39 32 -39q13 0 29 6l20 -63q-32 -17 -67 -17q-48 0 -76 29z" />
    <glyph glyph-name="uni0268" unicode="&#x268;" horiz-adv-x="282" 
d="M99.5 673.5q-16.5 16.5 -16.5 41.5t16.5 42t42.5 17t42.5 -17t16.5 -42t-16 -41.5t-43 -16.5q-26 0 -42.5 16.5zM271 316v-68h-84v-248h-90v248h-85v68h85v210h90v-210h84z" />
    <glyph glyph-name="itilde" unicode="&#x129;" horiz-adv-x="252" 
d="M171 526v-526h-90v526h90zM148 665.5q-14 6.5 -33 19.5q-10 7 -21 12.5t-20 5.5q-15 0 -26 -10t-24 -32l-48 23q17 39 41.5 61.5t54.5 22.5q17 0 31 -6.5t31 -18.5q14 -10 24 -14.5t21 -4.5q14 0 25 10t23 33l49 -23q-32 -85 -96 -85q-18 0 -32 6.5z" />
    <glyph glyph-name="j" unicode="j" horiz-adv-x="252" 
d="M171 21q0 -67 -17.5 -109.5t-50 -69t-87.5 -52.5l-28 65q35 18 54 36t29 48t10 80v507h90v-505zM168.5 757q16.5 -17 16.5 -42t-16 -41.5t-43 -16.5q-26 0 -42.5 16.5t-16.5 41.5t16.5 42t42.5 17t42.5 -17z" />
    <glyph glyph-name="uni0237" unicode="&#x237;" horiz-adv-x="252" 
d="M171 21q0 -67 -17.5 -109.5t-50 -69t-87.5 -52.5l-28 65q35 18 54 36t29 48t10 80v507h90v-505z" />
    <glyph glyph-name="uni01F0" unicode="&#x1f0;" horiz-adv-x="252" 
d="M171 21q0 -67 -17.5 -109.5t-50 -69t-87.5 -52.5l-28 65q35 18 54 36t29 48t10 80v507h90v-505zM240 783l35 -40l-121 -116h-56l-121 116l35 40l114 -88z" />
    <glyph glyph-name="jcircumflex" unicode="&#x135;" horiz-adv-x="252" 
d="M171 21q0 -67 -17.5 -109.5t-50 -69t-87.5 -52.5l-28 65q35 18 54 36t29 48t10 80v507h90v-505zM12 637l-35 39l121 117h56l121 -117l-35 -39l-114 86z" />
    <glyph glyph-name="uni029D" unicode="&#x29d;" horiz-adv-x="280" 
d="M272 -96q-46 21 -76 30q-8 -71 -47 -108t-105 -37q-56 0 -87.5 28t-31.5 77q0 54 34.5 83.5t94.5 29.5q34 0 55 -3v522h90l-1 -538q51 -16 95 -38zM92 -129q16 25 17 79q-22 6 -54 6q-68 0 -68 -59q0 -51 54 -51q35 0 51 25zM196.5 757q16.5 -17 16.5 -42t-16 -41.5
t-43 -16.5q-26 0 -42.5 16.5t-16.5 41.5t16.5 42t42.5 17t42.5 -17z" />
    <glyph glyph-name="uni025F" unicode="&#x25f;" horiz-adv-x="285" 
d="M273 217h-83v-196q0 -67 -17.5 -109.5t-50 -69t-87.5 -52.5l-28 65q35 18 54 36t29 48t10 80v198h-86v68h86v241h90v-241h83v-68z" />
    <glyph glyph-name="uni0284" unicode="&#x284;" horiz-adv-x="281" 
d="M272 67v-67h-85q-3 -59 -21.5 -97t-49.5 -63t-83 -50l-29 65q33 17 51.5 33.5t29 43t12.5 68.5h-84v67h84v538q0 70 36 107t99 37q59 0 107 -36l-32 -56q-18 11 -32 16t-33 5q-55 0 -55 -69v-542h85z" />
    <glyph glyph-name="uni0249" unicode="&#x249;" horiz-adv-x="285" 
d="M273 217h-83v-196q0 -67 -17.5 -109.5t-50 -69t-87.5 -52.5l-28 65q35 18 54 36t29 48t10 80v198h-86v68h86v241h90v-241h83v-68zM187.5 757q16.5 -17 16.5 -42t-16 -41.5t-43 -16.5q-26 0 -42.5 16.5t-16.5 41.5t16.5 42t42.5 17t42.5 -17z" />
    <glyph glyph-name="k" unicode="k" horiz-adv-x="466" 
d="M171 749v-749h-90v739zM448 526l-178 -234l195 -292h-100l-189 288l178 238h94z" />
    <glyph glyph-name="uni01E9" unicode="&#x1e9;" horiz-adv-x="466" 
d="M171 749v-749h-90v739zM448 526l-178 -234l195 -292h-100l-189 288l178 238h94zM369 956l35 -39l-121 -112h-56l-121 112l36 39l113 -81z" />
    <glyph glyph-name="kcommaaccent" unicode="&#x137;" horiz-adv-x="466" 
d="M171 749v-749h-90v739zM448 526l-178 -234l195 -292h-100l-189 288l178 238h94zM280.5 -94q14.5 -15 14.5 -39q0 -13 -4.5 -28t-17.5 -45l-38 -88h-49l29 115q-26 17 -26 46q0 23 15 38.5t38 15.5q24 0 38.5 -15z" />
    <glyph glyph-name="kgreenlandic" unicode="&#x138;" horiz-adv-x="465" 
d="M171 526v-526h-90v526h90zM447 526l-177 -242l195 -284h-101l-189 279l179 247h93z" />
    <glyph glyph-name="uni0199" unicode="&#x199;" horiz-adv-x="466" 
d="M188.5 660q-17.5 -18 -17.5 -56v-604h-90v605q0 65 40 104.5t113 39.5q60 0 118 -29l-28 -62q-40 20 -81 20q-37 0 -54.5 -18zM270 292l195 -292h-100l-189 288l178 238h94z" />
    <glyph glyph-name="uni029E" unicode="&#x29e;" horiz-adv-x="466" 
d="M18 0l177 234l-194 292h100l189 -287l-179 -239h-93zM295 -200v726h90v-737z" />
    <glyph glyph-name="l" unicode="l" horiz-adv-x="264" 
d="M104 16q-28 29 -28 81v642l90 10v-649q0 -39 32 -39q13 0 29 6l20 -63q-32 -17 -67 -17q-48 0 -76 29z" />
    <glyph glyph-name="lacute" unicode="&#x13a;" horiz-adv-x="264" 
d="M104 16q-28 29 -28 81v642l90 10v-649q0 -39 32 -39q13 0 29 6l20 -63q-32 -17 -67 -17q-48 0 -76 29zM192 959l38 -73l-194 -79l-24 47z" />
    <glyph glyph-name="uni019B" unicode="&#x19b;" horiz-adv-x="445" 
d="M351.5 260q24.5 -87 48.5 -138.5t58 -101.5l-84 -32q-33 54 -56.5 106.5t-45.5 133.5t-44 208l-122 -448l-86 21l153 497h41q-12 62 -31 99l-59 -66l-52 31l74 82q-29 22 -82 34l12 64q77 -15 121 -49l62 67l44 -41l-64 -71q36 -54 59 -164q29 -145 53.5 -232z" />
    <glyph glyph-name="uni019A" unicode="&#x19a;" horiz-adv-x="284" 
d="M187 338v-238q0 -39 32 -39q13 0 29 6l20 -63q-32 -17 -67 -17q-48 0 -76 29t-28 81v241h-85v68h85v333l90 10v-343h84v-68h-84z" />
    <glyph glyph-name="uni026C" unicode="&#x26c;" horiz-adv-x="331" 
d="M305 4q-32 -17 -67 -17q-48 0 -76 29t-28 81v160h-1q-63 1 -96 29.5t-33 78.5q0 46 28.5 72t72.5 26q8 0 29 -3v279l90 10v-434q28 1 67 10l10 -52q-38 -11 -77 -14v-159q0 -39 32 -39q13 0 29 6zM134 315v92q-14 2 -23 2q-19 0 -30 -11t-11 -32q0 -51 63 -51h1z" />
    <glyph glyph-name="lcaron" unicode="&#x13e;" horiz-adv-x="264" 
d="M104 16q-28 29 -28 81v642l90 10v-649q0 -39 32 -39q13 0 29 6l20 -63q-32 -17 -67 -17q-48 0 -76 29zM262 558l42 181l-75 10l-19 -183z" />
    <glyph glyph-name="uni1E3D" unicode="&#x1e3d;" horiz-adv-x="264" 
d="M104 16q-28 29 -28 81v642l90 10v-649q0 -39 32 -39q13 0 29 6l20 -63q-32 -17 -67 -17q-48 0 -76 29zM49 -223l-35 38l121 117h56l121 -117l-35 -38l-114 85z" />
    <glyph glyph-name="lcommaaccent" unicode="&#x13c;" horiz-adv-x="264" 
d="M104 16q-28 29 -28 81v642l90 10v-649q0 -39 32 -39q13 0 29 6l20 -63q-32 -17 -67 -17q-48 0 -76 29zM202.5 -94q14.5 -15 14.5 -39q0 -13 -4.5 -28t-17.5 -45l-38 -88h-49l29 115q-26 17 -26 46q0 23 15 38.5t38 15.5q24 0 38.5 -15z" />
    <glyph glyph-name="uni0234" unicode="&#x234;" horiz-adv-x="372" 
d="M362.5 189q27.5 -27 27.5 -72q0 -62 -42 -96t-109 -34q-33 0 -63 9l-30 -69l-51 21l33 73q-52 42 -52 123v595l90 10v-611q0 -12 2 -28q23 54 51.5 80t72.5 26q43 0 70.5 -27zM300 74.5q19 15.5 19 44.5q0 18 -9.5 28.5t-25.5 10.5q-24 0 -41 -20t-38 -74q18 -5 40 -5
q36 0 55 15.5z" />
    <glyph glyph-name="ldot" unicode="&#x140;" horiz-adv-x="319" 
d="M104 16q-28 29 -28 81v642l90 10v-649q0 -39 32 -39q13 0 29 6l20 -63q-32 -17 -67 -17q-48 0 -76 29zM321.5 419q16.5 -17 16.5 -42t-16 -41.5t-43 -16.5q-26 0 -42.5 16.5t-16.5 41.5t16.5 42t42.5 17t42.5 -17z" />
    <glyph glyph-name="uni1E37" unicode="&#x1e37;" horiz-adv-x="264" 
d="M104 16q-28 29 -28 81v642l90 10v-649q0 -39 32 -39q13 0 29 6l20 -63q-32 -17 -67 -17q-48 0 -76 29zM120.5 -177q-16.5 17 -16.5 42t16 41.5t43 16.5q26 0 42.5 -16.5t16.5 -41.5t-16.5 -42t-42.5 -17t-42.5 17z" />
    <glyph glyph-name="uni026E" unicode="&#x26e;" horiz-adv-x="596" 
d="M572 6q0 -64 -26.5 -113t-75.5 -76.5t-115 -27.5q-58 0 -102 19.5t-79 57.5l49 50q30 -29 60 -42t68 -13q61 0 94 38t33 109t-34 102.5t-108 31.5h-66v62l180 250h-284v-354q0 -39 32 -39q13 0 29 6l20 -63q-32 -17 -67 -17q-48 0 -76 29t-28 81v642l90 10v-223h382v-67
l-187 -254q211 -4 211 -199z" />
    <glyph glyph-name="uni026D" unicode="&#x26d;" horiz-adv-x="252" 
d="M328 -174q-47 -37 -109 -37t-100 36.5t-38 104.5v809l90 10v-823q0 -67 57 -67q19 0 33 5t31 16z" />
    <glyph glyph-name="uni01C9" unicode="&#x1c9;" horiz-adv-x="516" 
d="M104 16q-28 29 -28 81v642l90 10v-649q0 -39 32 -39q13 0 29 6l20 -63q-32 -17 -67 -17q-48 0 -76 29zM435 21q0 -67 -17.5 -109.5t-50 -69t-87.5 -52.5l-28 65q35 18 54 36t29 48t10 80v507h90v-505zM432.5 757q16.5 -17 16.5 -42t-16 -41.5t-43 -16.5q-26 0 -42.5 16.5
t-16.5 41.5t16.5 42t42.5 17t42.5 -17z" />
    <glyph glyph-name="uni026B" unicode="&#x26b;" horiz-adv-x="345" 
d="M218 304v-204q0 -39 32 -39q13 0 29 6l20 -63q-32 -17 -67 -17q-48 0 -76 29t-28 81v253q-16 8 -29 8q-20 0 -34 -13t-29 -36l-50 27q21 41 49 66.5t69 25.5q12 0 24 -3v314l90 10v-370q15 -9 31 -9q19 0 33.5 12t28.5 34l50 -27q-21 -40 -48.5 -64.5t-66.5 -24.5
q-16 0 -28 4z" />
    <glyph glyph-name="uni02AA" unicode="&#x2aa;" horiz-adv-x="601" 
d="M135 38.5q-59 51.5 -59 141.5v559l90 10v-570q0 -60 37 -90t115 -30q81 0 120 21.5t39 67.5q0 24 -7.5 39.5t-29 29.5t-63.5 28q-73 24 -102.5 58.5t-29.5 90.5q0 41 21 74.5t58 52t83 18.5q82 0 153 -60l-36 -53q-31 22 -57 32.5t-56 10.5q-35 0 -56.5 -19.5
t-21.5 -52.5t20 -52t77 -38q72 -24 104.5 -60t32.5 -93q0 -81 -66 -124t-186 -43q-121 0 -180 51.5z" />
    <glyph glyph-name="lslash" unicode="&#x142;" horiz-adv-x="292" 
d="M241 67l20 -63q-32 -17 -67 -17q-48 0 -76 29t-28 81v206l-46 -30l-32 54l78 53v359l90 10v-311l77 50l31 -54l-108 -71v-263q0 -39 32 -39q13 0 29 6z" />
    <glyph glyph-name="uni02AB" unicode="&#x2ab;" horiz-adv-x="600" 
d="M566 0h-327q-32 -13 -59 -13q-48 0 -76 29t-28 81v642l90 10v-649q0 -39 32 -39q12 0 28 6l249 385h-229v74h328v-67l-251 -385h252z" />
    <glyph glyph-name="m" unicode="m" horiz-adv-x="769" 
d="M658 496.5q34 -42.5 34 -113.5v-383h-89v373q0 96 -62 96q-60 0 -110 -92v-377h-89v373q0 96 -62 96q-61 0 -110 -92v-377h-89v526h78l7 -77q58 90 140 90q43 0 73 -25t43 -71q61 96 145 96q57 0 91 -42.5z" />
    <glyph glyph-name="uni1E3F" unicode="&#x1e3f;" horiz-adv-x="769" 
d="M658 496.5q34 -42.5 34 -113.5v-383h-89v373q0 96 -62 96q-60 0 -110 -92v-377h-89v373q0 96 -62 96q-61 0 -110 -92v-377h-89v526h78l7 -77q58 90 140 90q43 0 73 -25t43 -71q61 96 145 96q57 0 91 -42.5zM451 797l38 -72l-192 -87l-26 46z" />
    <glyph glyph-name="uni1E41" unicode="&#x1e41;" horiz-adv-x="769" 
d="M658 496.5q34 -42.5 34 -113.5v-383h-89v373q0 96 -62 96q-60 0 -110 -92v-377h-89v373q0 96 -62 96q-61 0 -110 -92v-377h-89v526h78l7 -77q58 90 140 90q43 0 73 -25t43 -71q61 96 145 96q57 0 91 -42.5zM427.5 757q16.5 -17 16.5 -42t-16 -41.5t-43 -16.5
q-26 0 -42.5 16.5t-16.5 41.5t16.5 42t42.5 17t42.5 -17z" />
    <glyph glyph-name="uni0271" unicode="&#x271;" horiz-adv-x="769" 
d="M658 496.5q34 -42.5 34 -113.5v-450q0 -70 -38 -107t-100 -37q-60 0 -107 37l35 54q17 -11 31 -16t34 -5q56 0 56 67v447q0 96 -62 96q-60 0 -110 -92v-377h-89v373q0 96 -62 96q-61 0 -110 -92v-377h-89v526h78l7 -77q58 90 140 90q43 0 73 -25t43 -71q61 96 145 96
q57 0 91 -42.5z" />
    <glyph glyph-name="uni0270" unicode="&#x270;" horiz-adv-x="769" 
d="M688 526v-737l-90 11v269q-56 -82 -135 -82q-43 0 -73 25t-43 71q-61 -96 -145 -96q-57 0 -91 42.5t-34 113.5v383h89v-373q0 -96 62 -96q60 0 110 92v377h89v-373q0 -96 62 -96q61 0 110 92v377h89z" />
    <glyph glyph-name="uni026F" unicode="&#x26f;" horiz-adv-x="769" 
d="M688 526v-526h-78l-7 77q-58 -90 -140 -90q-43 0 -73 25t-43 71q-61 -96 -145 -96q-57 0 -91 42.5t-34 113.5v383h89v-373q0 -96 62 -96q60 0 110 92v377h89v-373q0 -96 62 -96q61 0 110 92v377h89z" />
    <glyph glyph-name="n" unicode="n" horiz-adv-x="527" 
d="M414.5 497.5q35.5 -41.5 35.5 -114.5v-383h-90v372q0 51 -17 73.5t-52 22.5q-66 0 -120 -94v-374h-90v526h78l7 -78q61 91 150 91q63 0 98.5 -41.5z" />
    <glyph glyph-name="nacute" unicode="&#x144;" horiz-adv-x="527" 
d="M414.5 497.5q35.5 -41.5 35.5 -114.5v-383h-90v372q0 51 -17 73.5t-52 22.5q-66 0 -120 -94v-374h-90v526h78l7 -78q61 91 150 91q63 0 98.5 -41.5zM334 797l38 -72l-192 -87l-26 46z" />
    <glyph glyph-name="nacute.loclPLK" horiz-adv-x="527" 
d="M414.5 497.5q35.5 -41.5 35.5 -114.5v-383h-90v372q0 51 -17 73.5t-52 22.5q-66 0 -120 -94v-374h-90v526h78l7 -78q61 91 150 91q63 0 98.5 -41.5zM309 777l70 -44l-117 -155l-43 27z" />
    <glyph glyph-name="napostrophe" unicode="&#x149;" horiz-adv-x="623" 
d="M131 736q14 -15 14 -37q0 -13 -4.5 -26t-17.5 -46l-33 -87h-46l24 114q-25 15 -25 45q0 22 14 37t37 15t37 -15zM510.5 497.5q35.5 -41.5 35.5 -114.5v-383h-90v372q0 51 -17 73.5t-52 22.5q-66 0 -120 -94v-374h-90v526h78l7 -78q61 91 150 91q63 0 98.5 -41.5z" />
    <glyph glyph-name="ncaron" unicode="&#x148;" horiz-adv-x="527" 
d="M414.5 497.5q35.5 -41.5 35.5 -114.5v-383h-90v372q0 51 -17 73.5t-52 22.5q-66 0 -120 -94v-374h-90v526h78l7 -78q61 91 150 91q63 0 98.5 -41.5zM382 783l35 -40l-121 -116h-56l-121 116l35 40l114 -88z" />
    <glyph glyph-name="uni1E4B" unicode="&#x1e4b;" horiz-adv-x="527" 
d="M414.5 497.5q35.5 -41.5 35.5 -114.5v-383h-90v372q0 51 -17 73.5t-52 22.5q-66 0 -120 -94v-374h-90v526h78l7 -78q61 91 150 91q63 0 98.5 -41.5zM149 -223l-35 38l121 117h56l121 -117l-35 -38l-114 85z" />
    <glyph glyph-name="ncommaaccent" unicode="&#x146;" horiz-adv-x="527" 
d="M414.5 497.5q35.5 -41.5 35.5 -114.5v-383h-90v372q0 51 -17 73.5t-52 22.5q-66 0 -120 -94v-374h-90v526h78l7 -78q61 91 150 91q63 0 98.5 -41.5zM302.5 -94q14.5 -15 14.5 -39q0 -13 -4.5 -28t-17.5 -45l-38 -88h-49l29 115q-26 17 -26 46q0 23 15 38.5t38 15.5
q24 0 38.5 -15z" />
    <glyph glyph-name="uni0235" unicode="&#x235;" horiz-adv-x="657" 
d="M647 189q27 -27 27 -72q0 -62 -42 -96t-109 -34q-33 0 -63 9l-29 -69l-51 21l32 73q-52 42 -52 123v228q0 51 -17 73.5t-52 22.5q-66 0 -120 -94v-374h-90v526h78l7 -78q61 91 150 91q63 0 98.5 -41.5t35.5 -114.5v-245q0 -13 2 -29q23 55 52 81t72 26q44 0 71 -27z
M584.5 74.5q18.5 15.5 18.5 44.5q0 18 -9 28.5t-26 10.5q-24 0 -40.5 -20t-38.5 -74q18 -5 41 -5q36 0 54.5 15.5z" />
    <glyph glyph-name="uni1E45" unicode="&#x1e45;" horiz-adv-x="527" 
d="M414.5 497.5q35.5 -41.5 35.5 -114.5v-383h-90v372q0 51 -17 73.5t-52 22.5q-66 0 -120 -94v-374h-90v526h78l7 -78q61 91 150 91q63 0 98.5 -41.5zM310.5 757q16.5 -17 16.5 -42t-16 -41.5t-43 -16.5q-26 0 -42.5 16.5t-16.5 41.5t16.5 42t42.5 17t42.5 -17z" />
    <glyph glyph-name="uni1E47" unicode="&#x1e47;" horiz-adv-x="527" 
d="M414.5 497.5q35.5 -41.5 35.5 -114.5v-383h-90v372q0 51 -17 73.5t-52 22.5q-66 0 -120 -94v-374h-90v526h78l7 -78q61 91 150 91q63 0 98.5 -41.5zM220.5 -177q-16.5 17 -16.5 42t16 41.5t43 16.5q26 0 42.5 -16.5t16.5 -41.5t-16.5 -42t-42.5 -17t-42.5 17z" />
    <glyph glyph-name="uni01F9" unicode="&#x1f9;" horiz-adv-x="527" 
d="M414.5 497.5q35.5 -41.5 35.5 -114.5v-383h-90v372q0 51 -17 73.5t-52 22.5q-66 0 -120 -94v-374h-90v526h78l7 -78q61 91 150 91q63 0 98.5 -41.5zM204 797l180 -113l-26 -46l-192 87z" />
    <glyph glyph-name="eng" unicode="&#x14b;" horiz-adv-x="527" 
d="M414.5 497.5q35.5 -41.5 35.5 -114.5v-453q0 -68 -38 -104.5t-100 -36.5t-109 37l36 54q17 -11 31 -16t33 -5q57 0 57 67v446q0 51 -17 73.5t-52 22.5q-66 0 -120 -94v-374h-90v526h78l7 -78q61 91 150 91q63 0 98.5 -41.5z" />
    <glyph glyph-name="uni0272" unicode="&#x272;" horiz-adv-x="527" 
d="M414.5 497.5q35.5 -41.5 35.5 -114.5v-383h-90v372q0 51 -17 73.5t-52 22.5q-66 0 -120 -94v-444q0 -68 -38 -104.5t-100 -36.5t-109 37l36 54q17 -11 31 -16t33 -5q57 0 57 67v600h78l7 -78q61 91 150 91q63 0 98.5 -41.5z" />
    <glyph glyph-name="uni0273" unicode="&#x273;" horiz-adv-x="525" 
d="M607 -174q-47 -37 -109 -37t-100 36.5t-38 104.5v442q0 51 -17 73.5t-52 22.5q-66 0 -120 -94v-374h-90v526h78l7 -78q61 91 150 91q63 0 98.5 -41.5t35.5 -114.5v-457q0 -67 57 -67q19 0 33 5t31 16z" />
    <glyph glyph-name="uni01CC" unicode="&#x1cc;" horiz-adv-x="779" 
d="M414.5 497.5q35.5 -41.5 35.5 -114.5v-383h-90v372q0 51 -17 73.5t-52 22.5q-66 0 -120 -94v-374h-90v526h78l7 -78q61 91 150 91q63 0 98.5 -41.5zM698 21q0 -67 -17.5 -109.5t-50 -69t-87.5 -52.5l-28 65q35 18 54 36t29 48t10 80v507h90v-505zM695.5 757
q16.5 -17 16.5 -42t-16 -41.5t-43 -16.5q-26 0 -42.5 16.5t-16.5 41.5t16.5 42t42.5 17t42.5 -17z" />
    <glyph glyph-name="uni019E" unicode="&#x19e;" horiz-adv-x="527" 
d="M414.5 497.5q35.5 -41.5 35.5 -114.5v-594l-90 11v572q0 51 -17 73.5t-52 22.5q-66 0 -120 -94v-374h-90v526h78l7 -78q61 91 150 91q63 0 98.5 -41.5z" />
    <glyph glyph-name="ntilde" unicode="&#xf1;" horiz-adv-x="527" 
d="M414.5 497.5q35.5 -41.5 35.5 -114.5v-383h-90v372q0 51 -17 73.5t-52 22.5q-66 0 -120 -94v-374h-90v526h78l7 -78q61 91 150 91q63 0 98.5 -41.5zM290 665.5q-14 6.5 -33 19.5q-10 7 -21 12.5t-20 5.5q-15 0 -26 -10t-24 -32l-48 23q17 39 41.5 61.5t54.5 22.5
q17 0 31 -6.5t31 -18.5q14 -10 24 -14.5t21 -4.5q14 0 25 10t23 33l49 -23q-32 -85 -96 -85q-18 0 -32 6.5z" />
    <glyph glyph-name="o" unicode="o" horiz-adv-x="526" 
d="M421 468q56 -71 56 -204q0 -128 -57 -202.5t-157 -74.5q-101 0 -157.5 73t-56.5 203q0 131 57 203.5t158 72.5t157 -71zM174 417.5q-31 -49.5 -31 -154.5q0 -205 120 -205t120 206q0 105 -30 154t-89 49t-90 -49.5z" />
    <glyph glyph-name="oacute" unicode="&#xf3;" horiz-adv-x="526" 
d="M421 468q56 -71 56 -204q0 -128 -57 -202.5t-157 -74.5q-101 0 -157.5 73t-56.5 203q0 131 57 203.5t158 72.5t157 -71zM174 417.5q-31 -49.5 -31 -154.5q0 -205 120 -205t120 206q0 105 -30 154t-89 49t-90 -49.5zM329 797l38 -72l-192 -87l-26 46z" />
    <glyph glyph-name="oacute.loclPLK" horiz-adv-x="526" 
d="M421 468q56 -71 56 -204q0 -128 -57 -202.5t-157 -74.5q-101 0 -157.5 73t-56.5 203q0 131 57 203.5t158 72.5t157 -71zM174 417.5q-31 -49.5 -31 -154.5q0 -205 120 -205t120 206q0 105 -30 154t-89 49t-90 -49.5zM304 777l70 -44l-117 -155l-43 27z" />
    <glyph glyph-name="uni0275" unicode="&#x275;" horiz-adv-x="526" 
d="M421 468q56 -71 56 -204q0 -128 -57 -202.5t-157 -74.5q-101 0 -157.5 73t-56.5 203q0 131 57 203.5t158 72.5t157 -71zM141 299h243q-5 88 -35.5 129t-84.5 41q-113 0 -123 -170zM384 236h-243q7 -179 122 -179q114 0 121 179z" />
    <glyph glyph-name="obreve" unicode="&#x14f;" horiz-adv-x="526" 
d="M421 468q56 -71 56 -204q0 -128 -57 -202.5t-157 -74.5q-101 0 -157.5 73t-56.5 203q0 131 57 203.5t158 72.5t157 -71zM174 417.5q-31 -49.5 -31 -154.5q0 -205 120 -205t120 206q0 105 -30 154t-89 49t-90 -49.5zM170.5 680q-35.5 35 -41.5 96l54 12q18 -76 79 -76
q63 0 81 76l54 -12q-6 -61 -42 -96t-93 -35q-56 0 -91.5 35z" />
    <glyph glyph-name="uni01D2" unicode="&#x1d2;" horiz-adv-x="526" 
d="M421 468q56 -71 56 -204q0 -128 -57 -202.5t-157 -74.5q-101 0 -157.5 73t-56.5 203q0 131 57 203.5t158 72.5t157 -71zM174 417.5q-31 -49.5 -31 -154.5q0 -205 120 -205t120 206q0 105 -30 154t-89 49t-90 -49.5zM377 783l35 -40l-121 -116h-56l-121 116l35 40l114 -88
z" />
    <glyph glyph-name="ocircumflex" unicode="&#xf4;" horiz-adv-x="526" 
d="M421 468q56 -71 56 -204q0 -128 -57 -202.5t-157 -74.5q-101 0 -157.5 73t-56.5 203q0 131 57 203.5t158 72.5t157 -71zM174 417.5q-31 -49.5 -31 -154.5q0 -205 120 -205t120 206q0 105 -30 154t-89 49t-90 -49.5zM149 637l-35 39l121 117h56l121 -117l-35 -39l-114 86z
" />
    <glyph glyph-name="uni1ED1" unicode="&#x1ed1;" horiz-adv-x="526" 
d="M421 468q56 -71 56 -204q0 -128 -57 -202.5t-157 -74.5q-101 0 -157.5 73t-56.5 203q0 131 57 203.5t158 72.5t157 -71zM174 417.5q-31 -49.5 -31 -154.5q0 -205 120 -205t120 206q0 105 -30 154t-89 49t-90 -49.5zM146 588l-35 39l122 112h55l121 -112l-35 -39l-114 81z
M452 885l57 -49l-127 -129l-37 32z" />
    <glyph glyph-name="uni1ED9" unicode="&#x1ed9;" horiz-adv-x="526" 
d="M421 468q56 -71 56 -204q0 -128 -57 -202.5t-157 -74.5q-101 0 -157.5 73t-56.5 203q0 131 57 203.5t158 72.5t157 -71zM174 417.5q-31 -49.5 -31 -154.5q0 -205 120 -205t120 206q0 105 -30 154t-89 49t-90 -49.5zM149 637l-35 39l121 117h56l121 -117l-35 -39l-114 86z
M220.5 -177q-16.5 17 -16.5 42t16 41.5t43 16.5q26 0 42.5 -16.5t16.5 -41.5t-16.5 -42t-42.5 -17t-42.5 17z" />
    <glyph glyph-name="uni1ED3" unicode="&#x1ed3;" horiz-adv-x="526" 
d="M421 468q56 -71 56 -204q0 -128 -57 -202.5t-157 -74.5q-101 0 -157.5 73t-56.5 203q0 131 57 203.5t158 72.5t157 -71zM174 417.5q-31 -49.5 -31 -154.5q0 -205 120 -205t120 206q0 105 -30 154t-89 49t-90 -49.5zM146 588l-35 39l122 112h55l121 -112l-35 -39l-114 81z
M71 885l108 -146l-38 -32l-127 129z" />
    <glyph glyph-name="uni1ED5" unicode="&#x1ed5;" horiz-adv-x="526" 
d="M421 468q56 -71 56 -204q0 -128 -57 -202.5t-157 -74.5q-101 0 -157.5 73t-56.5 203q0 131 57 203.5t158 72.5t157 -71zM174 417.5q-31 -49.5 -31 -154.5q0 -205 120 -205t120 206q0 105 -30 154t-89 49t-90 -49.5zM146 588l-35 39l122 112h55l121 -112l-35 -39l-114 81z
M356 801q34 4 49 13t15 31q0 19 -10.5 28.5t-29.5 9.5q-15 0 -26.5 -3t-26.5 -10l-18 46q39 23 84 23t70.5 -24t25.5 -64q0 -35 -18.5 -56.5t-52.5 -27.5v-56h-62v90z" />
    <glyph glyph-name="uni1ED7" unicode="&#x1ed7;" horiz-adv-x="526" 
d="M421 468q56 -71 56 -204q0 -128 -57 -202.5t-157 -74.5q-101 0 -157.5 73t-56.5 203q0 131 57 203.5t158 72.5t157 -71zM174 417.5q-31 -49.5 -31 -154.5q0 -205 120 -205t120 206q0 105 -30 154t-89 49t-90 -49.5zM147 580l-35 39l122 112h55l121 -112l-35 -39l-114 81z
M283.5 773.5q-14.5 6.5 -32.5 18.5q-10 7 -21 12.5t-20 5.5q-15 0 -26 -9.5t-24 -31.5l-48 23q17 38 41.5 60t54.5 22q17 0 30.5 -6t31.5 -18q14 -10 24 -14.5t21 -4.5q14 0 25 10t23 32l49 -22q-16 -42 -40.5 -63t-55.5 -21q-18 0 -32.5 6.5z" />
    <glyph glyph-name="uni020D" unicode="&#x20d;" horiz-adv-x="526" 
d="M421 468q56 -71 56 -204q0 -128 -57 -202.5t-157 -74.5q-101 0 -157.5 73t-56.5 203q0 131 57 203.5t158 72.5t157 -71zM174 417.5q-31 -49.5 -31 -154.5q0 -205 120 -205t120 206q0 105 -30 154t-89 49t-90 -49.5zM159 827l77 -168l-50 -23l-95 155zM294 827l69 -164
l-51 -22l-87 150z" />
    <glyph glyph-name="odieresis" unicode="&#xf6;" horiz-adv-x="526" 
d="M421 468q56 -71 56 -204q0 -128 -57 -202.5t-157 -74.5q-101 0 -157.5 73t-56.5 203q0 131 57 203.5t158 72.5t157 -71zM174 417.5q-31 -49.5 -31 -154.5q0 -205 120 -205t120 206q0 105 -30 154t-89 49t-90 -49.5zM206 747q15 -15 15 -38t-15 -38.5t-37 -15.5
q-23 0 -38 15.5t-15 38.5t15 38t38 15q22 0 37 -15zM393 747q15 -15 15 -38t-15 -38.5t-37 -15.5t-37.5 15.5t-15.5 38.5t15 38t38 15q22 0 37 -15z" />
    <glyph glyph-name="uni022B" unicode="&#x22b;" horiz-adv-x="526" 
d="M421 468q56 -71 56 -204q0 -128 -57 -202.5t-157 -74.5q-101 0 -157.5 73t-56.5 203q0 131 57 203.5t158 72.5t157 -71zM174 417.5q-31 -49.5 -31 -154.5q0 -205 120 -205t120 206q0 105 -30 154t-89 49t-90 -49.5zM207 715q15 -15 15 -38t-15 -38.5t-37 -15.5
q-23 0 -38 15.5t-15 38.5t15 38t38 15q22 0 37 -15zM394 715q15 -15 15 -38t-15 -38.5t-37 -15.5t-37.5 15.5t-15.5 38.5t15 38t38 15q22 0 37 -15zM384 787h-242v66h242v-66z" />
    <glyph glyph-name="uni022F" unicode="&#x22f;" horiz-adv-x="526" 
d="M421 468q56 -71 56 -204q0 -128 -57 -202.5t-157 -74.5q-101 0 -157.5 73t-56.5 203q0 131 57 203.5t158 72.5t157 -71zM174 417.5q-31 -49.5 -31 -154.5q0 -205 120 -205t120 206q0 105 -30 154t-89 49t-90 -49.5zM305.5 757q16.5 -17 16.5 -42t-16 -41.5t-43 -16.5
q-26 0 -42.5 16.5t-16.5 41.5t16.5 42t42.5 17t42.5 -17z" />
    <glyph glyph-name="uni0231" unicode="&#x231;" horiz-adv-x="526" 
d="M421 468q56 -71 56 -204q0 -128 -57 -202.5t-157 -74.5q-101 0 -157.5 73t-56.5 203q0 131 57 203.5t158 72.5t157 -71zM174 417.5q-31 -49.5 -31 -154.5q0 -205 120 -205t120 206q0 105 -30 154t-89 49t-90 -49.5zM304.5 709q16.5 -17 16.5 -42t-16 -41.5t-43 -16.5
q-26 0 -42.5 16.5t-16.5 41.5t16.5 42t42.5 17t42.5 -17zM384 772h-242v66h242v-66z" />
    <glyph glyph-name="uni1ECD" unicode="&#x1ecd;" horiz-adv-x="526" 
d="M421 468q56 -71 56 -204q0 -128 -57 -202.5t-157 -74.5q-101 0 -157.5 73t-56.5 203q0 131 57 203.5t158 72.5t157 -71zM174 417.5q-31 -49.5 -31 -154.5q0 -205 120 -205t120 206q0 105 -30 154t-89 49t-90 -49.5zM220.5 -177q-16.5 17 -16.5 42t16 41.5t43 16.5
q26 0 42.5 -16.5t16.5 -41.5t-16.5 -42t-42.5 -17t-42.5 17z" />
    <glyph glyph-name="ograve" unicode="&#xf2;" horiz-adv-x="526" 
d="M421 468q56 -71 56 -204q0 -128 -57 -202.5t-157 -74.5q-101 0 -157.5 73t-56.5 203q0 131 57 203.5t158 72.5t157 -71zM174 417.5q-31 -49.5 -31 -154.5q0 -205 120 -205t120 206q0 105 -30 154t-89 49t-90 -49.5zM199 797l180 -113l-26 -46l-192 87z" />
    <glyph glyph-name="uni1ECF" unicode="&#x1ecf;" horiz-adv-x="526" 
d="M421 468q56 -71 56 -204q0 -128 -57 -202.5t-157 -74.5q-101 0 -157.5 73t-56.5 203q0 131 57 203.5t158 72.5t157 -71zM174 417.5q-31 -49.5 -31 -154.5q0 -205 120 -205t120 206q0 105 -30 154t-89 49t-90 -49.5zM232 702q34 4 49 13t15 31q0 19 -10.5 28.5t-29.5 9.5
q-15 0 -26.5 -3t-26.5 -10l-18 46q39 23 84 23t70.5 -24t25.5 -64q0 -35 -18.5 -56.5t-52.5 -27.5v-56h-62v90z" />
    <glyph glyph-name="ohorn" unicode="&#x1a1;" horiz-adv-x="542" 
d="M449 421q28 -65 28 -157q0 -128 -57 -202.5t-157 -74.5q-101 0 -157.5 73t-56.5 203q0 131 57 203.5t158 72.5q99 0 156 -69q25 3 36 15.5t11 36.5q0 35 -13 72l63 14q17 -38 17 -85q0 -86 -85 -102zM383 264q0 105 -30 154t-89 49t-90 -49.5t-31 -154.5q0 -205 120 -205
t120 206z" />
    <glyph glyph-name="uni1EDB" unicode="&#x1edb;" horiz-adv-x="542" 
d="M367 725l-192 -87l-26 46l180 113zM449 421q28 -65 28 -157q0 -128 -57 -202.5t-157 -74.5q-101 0 -157.5 73t-56.5 203q0 131 57 203.5t158 72.5q99 0 156 -69q25 3 36 15.5t11 36.5q0 35 -13 72l63 14q17 -38 17 -85q0 -86 -85 -102zM383 264q0 105 -30 154t-89 49
t-90 -49.5t-31 -154.5q0 -205 120 -205t120 206z" />
    <glyph glyph-name="uni1EE3" unicode="&#x1ee3;" horiz-adv-x="542" 
d="M449 421q28 -65 28 -157q0 -128 -57 -202.5t-157 -74.5q-101 0 -157.5 73t-56.5 203q0 131 57 203.5t158 72.5q99 0 156 -69q25 3 36 15.5t11 36.5q0 35 -13 72l63 14q17 -38 17 -85q0 -86 -85 -102zM383 264q0 105 -30 154t-89 49t-90 -49.5t-31 -154.5q0 -205 120 -205
t120 206zM305.5 -93.5q16.5 -16.5 16.5 -41.5t-16.5 -42t-42.5 -17t-42.5 17t-16.5 42t16 41.5t43 16.5q26 0 42.5 -16.5z" />
    <glyph glyph-name="uni1EDD" unicode="&#x1edd;" horiz-adv-x="542" 
d="M379 684l-26 -46l-192 87l38 72zM449 421q28 -65 28 -157q0 -128 -57 -202.5t-157 -74.5q-101 0 -157.5 73t-56.5 203q0 131 57 203.5t158 72.5q99 0 156 -69q25 3 36 15.5t11 36.5q0 35 -13 72l63 14q17 -38 17 -85q0 -86 -85 -102zM383 264q0 105 -30 154t-89 49
t-90 -49.5t-31 -154.5q0 -205 120 -205t120 206z" />
    <glyph glyph-name="uni1EDF" unicode="&#x1edf;" horiz-adv-x="542" 
d="M229.5 781q-11.5 -3 -26.5 -10l-18 46q39 23 84 23t70.5 -24t25.5 -64q0 -35 -18.5 -56.5t-52.5 -27.5v-56h-62v90q34 4 49 13t15 31q0 19 -10.5 28.5t-29.5 9.5q-15 0 -26.5 -3zM449 421q28 -65 28 -157q0 -128 -57 -202.5t-157 -74.5q-101 0 -157.5 73t-56.5 203
q0 131 57 203.5t158 72.5q99 0 156 -69q25 3 36 15.5t11 36.5q0 35 -13 72l63 14q17 -38 17 -85q0 -86 -85 -102zM383 264q0 105 -30 154t-89 49t-90 -49.5t-31 -154.5q0 -205 120 -205t120 206z" />
    <glyph glyph-name="uni1EE1" unicode="&#x1ee1;" horiz-adv-x="542" 
d="M185 693q-11 -10 -24 -32l-48 23q17 39 41.5 61.5t54.5 22.5q17 0 31 -6.5t31 -18.5q14 -10 24 -14.5t21 -4.5q14 0 25 10t23 33l49 -23q-32 -85 -96 -85q-18 0 -32 6.5t-33 19.5q-10 7 -21 12.5t-20 5.5q-15 0 -26 -10zM449 421q28 -65 28 -157q0 -128 -57 -202.5
t-157 -74.5q-101 0 -157.5 73t-56.5 203q0 131 57 203.5t158 72.5q99 0 156 -69q25 3 36 15.5t11 36.5q0 35 -13 72l63 14q17 -38 17 -85q0 -86 -85 -102zM383 264q0 105 -30 154t-89 49t-90 -49.5t-31 -154.5q0 -205 120 -205t120 206z" />
    <glyph glyph-name="ohungarumlaut" unicode="&#x151;" horiz-adv-x="526" 
d="M421 468q56 -71 56 -204q0 -128 -57 -202.5t-157 -74.5q-101 0 -157.5 73t-56.5 203q0 131 57 203.5t158 72.5t157 -71zM174 417.5q-31 -49.5 -31 -154.5q0 -205 120 -205t120 206q0 105 -30 154t-89 49t-90 -49.5zM237 827l68 -36l-87 -150l-50 22zM372 827l68 -36
l-95 -155l-50 23z" />
    <glyph glyph-name="uni01A3" unicode="&#x1a3;" horiz-adv-x="717" 
d="M598 499.5q38 -39.5 38 -114.5v-596l-90 11v589q0 79 -65 79q-30 0 -54 -10q49 -73 49 -194q0 -128 -57 -202.5t-157 -74.5t-156.5 73t-56.5 203q0 131 57 203.5t157 72.5q65 0 114 -32q53 32 114 32q69 0 107 -39.5zM381 264q0 105 -30 154t-88 49q-120 0 -120 -204
q0 -205 119 -205t119 206z" />
    <glyph glyph-name="uni020F" unicode="&#x20f;" horiz-adv-x="526" 
d="M421 468q56 -71 56 -204q0 -128 -57 -202.5t-157 -74.5q-101 0 -157.5 73t-56.5 203q0 131 57 203.5t158 72.5t157 -71zM174 417.5q-31 -49.5 -31 -154.5q0 -205 120 -205t120 206q0 105 -30 154t-89 49t-90 -49.5zM355 723q36 -35 42 -96l-54 -12q-18 76 -81 76
q-61 0 -79 -76l-54 12q6 61 41.5 96t91.5 35q57 0 93 -35z" />
    <glyph glyph-name="omacron" unicode="&#x14d;" horiz-adv-x="526" 
d="M421 468q56 -71 56 -204q0 -128 -57 -202.5t-157 -74.5q-101 0 -157.5 73t-56.5 203q0 131 57 203.5t158 72.5t157 -71zM174 417.5q-31 -49.5 -31 -154.5q0 -205 120 -205t120 206q0 105 -30 154t-89 49t-90 -49.5zM384 669h-242v66h242v-66z" />
    <glyph glyph-name="uni1E53" unicode="&#x1e53;" horiz-adv-x="526" 
d="M421 468q56 -71 56 -204q0 -128 -57 -202.5t-157 -74.5q-101 0 -157.5 73t-56.5 203q0 131 57 203.5t158 72.5t157 -71zM174 417.5q-31 -49.5 -31 -154.5q0 -205 120 -205t120 206q0 105 -30 154t-89 49t-90 -49.5zM385 618h-242v66h242v-66zM336 884l38 -73l-194 -79
l-24 47z" />
    <glyph glyph-name="uni1E51" unicode="&#x1e51;" horiz-adv-x="526" 
d="M421 468q56 -71 56 -204q0 -128 -57 -202.5t-157 -74.5q-101 0 -157.5 73t-56.5 203q0 131 57 203.5t158 72.5t157 -71zM174 417.5q-31 -49.5 -31 -154.5q0 -205 120 -205t120 206q0 105 -30 154t-89 49t-90 -49.5zM385 618h-242v66h242v-66zM193 884l181 -105l-24 -48
l-194 80z" />
    <glyph glyph-name="uniA7B7" unicode="&#xa7b7;" horiz-adv-x="700" 
d="M645 239q0 -130 -46 -191t-121 -61q-53 0 -86 28.5t-42 83.5q-22 -112 -129 -112q-76 0 -120.5 61t-44.5 191q0 84 14.5 153.5t39.5 133.5h85q-25 -79 -37.5 -147t-12.5 -139q0 -97 22 -139t65 -42q36 0 56 25.5t20 89.5v180l84 12v-192q0 -115 74 -115q42 0 66 39.5
t24 142.5q0 69 -13 136t-38 149h86q54 -143 54 -287z" />
    <glyph glyph-name="uni0277" unicode="&#x277;" horiz-adv-x="687" 
d="M563 459.5q75 -79.5 75 -220.5q0 -130 -45.5 -191t-121.5 -61q-52 0 -85.5 28.5t-41.5 83.5q-22 -112 -129 -112q-77 0 -121.5 61t-44.5 191q0 141 76 220.5t220 79.5q143 0 218 -79.5zM525 98.5q24 39.5 24 142.5q0 112 -48 170t-156 58t-157.5 -58t-49.5 -171
q0 -97 22.5 -139t65.5 -42q35 0 55 25.5t20 89.5v125l84 11v-136q0 -115 74 -115q42 0 66 39.5z" />
    <glyph glyph-name="uni01EB" unicode="&#x1eb;" horiz-adv-x="526" 
d="M250 -56q-23 -26 -23 -58q0 -49 53 -49q23 0 53 6l-7 -64q-33 -7 -57 -7q-53 0 -83.5 27t-30.5 73q0 70 73 117q-85 13 -132 84.5t-47 189.5q0 131 57 203.5t158 72.5t157 -71t56 -204q0 -105 -38.5 -174.5t-108.5 -92.5q-57 -27 -80 -53zM263 58q120 0 120 206
q0 105 -30 154t-89 49t-90 -49.5t-31 -154.5q0 -205 120 -205z" />
    <glyph glyph-name="uni01ED" unicode="&#x1ed;" horiz-adv-x="526" 
d="M384 735v-66h-242v66h242zM250 -56q-23 -26 -23 -58q0 -49 53 -49q23 0 53 6l-7 -64q-33 -7 -57 -7q-53 0 -83.5 27t-30.5 73q0 70 73 117q-85 13 -132 84.5t-47 189.5q0 131 57 203.5t158 72.5t157 -71t56 -204q0 -105 -38.5 -174.5t-108.5 -92.5q-57 -27 -80 -53z
M263 58q120 0 120 206q0 105 -30 154t-89 49t-90 -49.5t-31 -154.5q0 -205 120 -205z" />
    <glyph glyph-name="uni0254" unicode="&#x254;" horiz-adv-x="428" 
d="M86 2q-36 15 -67 44l42 53q25 -20 48.5 -30t54.5 -10q60 0 90.5 49t30.5 156t-29.5 155t-87.5 48q-30 0 -54 -9t-51 -29l-40 53q63 57 151 57q98 0 151.5 -70.5t53.5 -204.5q0 -131 -56 -204t-155 -73q-46 0 -82 15z" />
    <glyph glyph-name="oslash" unicode="&#xf8;" horiz-adv-x="526" 
d="M450.5 416q26.5 -62 26.5 -152q0 -128 -57 -202.5t-157 -74.5q-26 0 -45 4l-35 -120l-70 20l39 126q-50 32 -76.5 95t-26.5 151q0 131 57 203.5t158 72.5q26 0 46 -4l34 120l69 -20l-38 -126q49 -31 75.5 -93zM170 419q-32 -50 -32 -156q0 -70 12 -113.5t36 -66.5
l110 383q-15 3 -32 3q-62 0 -94 -50zM388 264q0 132 -46 178l-110 -382q15 -3 31 -3q125 0 125 207z" />
    <glyph glyph-name="oslashacute" unicode="&#x1ff;" horiz-adv-x="526" 
d="M450.5 416q26.5 -62 26.5 -152q0 -128 -57 -202.5t-157 -74.5q-26 0 -45 4l-35 -120l-70 20l39 126q-50 32 -76.5 95t-26.5 151q0 131 57 203.5t158 72.5q26 0 46 -4l34 120l69 -20l-38 -126q49 -31 75.5 -93zM170 419q-32 -50 -32 -156q0 -70 12 -113.5t36 -66.5
l110 383q-15 3 -32 3q-62 0 -94 -50zM388 264q0 132 -46 178l-110 -382q15 -3 31 -3q125 0 125 207zM329 797l38 -72l-192 -87l-26 46z" />
    <glyph glyph-name="otilde" unicode="&#xf5;" horiz-adv-x="526" 
d="M421 468q56 -71 56 -204q0 -128 -57 -202.5t-157 -74.5q-101 0 -157.5 73t-56.5 203q0 131 57 203.5t158 72.5t157 -71zM174 417.5q-31 -49.5 -31 -154.5q0 -205 120 -205t120 206q0 105 -30 154t-89 49t-90 -49.5zM285 665.5q-14 6.5 -33 19.5q-10 7 -21 12.5t-20 5.5
q-15 0 -26 -10t-24 -32l-48 23q17 39 41.5 61.5t54.5 22.5q17 0 31 -6.5t31 -18.5q14 -10 24 -14.5t21 -4.5q14 0 25 10t23 33l49 -23q-32 -85 -96 -85q-18 0 -32 6.5z" />
    <glyph glyph-name="uni1E4D" unicode="&#x1e4d;" horiz-adv-x="526" 
d="M421 468q56 -71 56 -204q0 -128 -57 -202.5t-157 -74.5q-101 0 -157.5 73t-56.5 203q0 131 57 203.5t158 72.5t157 -71zM174 417.5q-31 -49.5 -31 -154.5q0 -205 120 -205t120 206q0 105 -30 154t-89 49t-90 -49.5zM285 606.5q-14 6.5 -33 19.5q-10 7 -21 12.5t-20 5.5
q-15 0 -26 -10t-24 -32l-48 23q17 39 41.5 61.5t54.5 22.5q17 0 31 -6.5t31 -18.5q14 -10 24 -14.5t21 -4.5q14 0 25 10t23 33l49 -23q-32 -85 -96 -85q-18 0 -32 6.5zM334 888l38 -73l-194 -79l-24 47z" />
    <glyph glyph-name="uni022D" unicode="&#x22d;" horiz-adv-x="526" 
d="M421 468q56 -71 56 -204q0 -128 -57 -202.5t-157 -74.5q-101 0 -157.5 73t-56.5 203q0 131 57 203.5t158 72.5t157 -71zM174 417.5q-31 -49.5 -31 -154.5q0 -205 120 -205t120 206q0 105 -30 154t-89 49t-90 -49.5zM285 606.5q-14 6.5 -33 19.5q-10 7 -21 12.5t-20 5.5
q-15 0 -26 -10t-24 -32l-48 23q17 39 41.5 61.5t54.5 22.5q17 0 31 -6.5t31 -18.5q14 -10 24 -14.5t21 -4.5q14 0 25 10t23 33l49 -23q-32 -85 -96 -85q-18 0 -32 6.5zM384 758h-242v66h242v-66z" />
    <glyph glyph-name="uni0223" unicode="&#x223;" horiz-adv-x="521" 
d="M443 336.5q29 -50.5 29 -125.5q0 -100 -56 -162t-155 -62t-155.5 61t-56.5 162q0 73 29.5 124t84.5 74q-40 21 -60.5 56t-20.5 82v193h90v-200q0 -47 21.5 -74t67.5 -27q90 0 90 101v200h89v-193q0 -45 -21 -80.5t-61 -56.5q56 -22 85 -72.5zM349.5 96q28.5 37 28.5 117
t-28 119t-89 39q-60 0 -89 -39.5t-29 -119.5q0 -153 118 -153q60 0 88.5 37z" />
    <glyph glyph-name="oe" unicode="&#x153;" horiz-adv-x="828" 
d="M782 232h-307q11 -173 128 -173q36 0 64.5 11t59.5 36l40 -52q-75 -67 -168 -67q-113 0 -171 107q-27 -51 -69 -79t-97 -28q-100 0 -156.5 72.5t-56.5 203.5q0 128 57 202t157 74q56 0 98 -27t69 -77q57 104 160 104q92 0 143 -68.5t51 -191.5q0 -21 -2 -47zM696 306
q0 164 -106 164q-51 0 -81 -42.5t-34 -132.5h221v11zM351.5 109.5q30.5 51.5 30.5 154.5q0 203 -119 203q-120 0 -120 -204q0 -205 120 -205q58 0 88.5 51.5z" />
    <glyph glyph-name="p" unicode="p" horiz-adv-x="532" 
d="M437.5 468q43.5 -71 43.5 -203q0 -128 -48.5 -203t-135.5 -75q-78 0 -126 63v-250l-90 -11v737h79l5 -71q54 84 143 84q86 0 129.5 -71zM387 264q0 107 -25.5 155.5t-77.5 48.5q-35 0 -62 -21t-51 -57v-266q41 -65 105 -65q111 0 111 205z" />
    </font>
</defs>
</svg>
