<?xml version="1.0" standalone="no"?>
<!DOCTYPE svg PUBLIC "-//W3C//DTD SVG 1.1//EN" "http://www.w3.org/Graphics/SVG/1.1/DTD/svg11.dtd" >
<svg xmlns="http://www.w3.org/2000/svg" xmlns:xlink="http://www.w3.org/1999/xlink" version="1.1">
<metadata>
Created by FontForge 20190801 at Wed Dec  2 14:33:53 2015
 By Unknown
Digitized data copyright \(c\) 2012-2015, The Mozilla Foundation and Telefonica S.A.
</metadata>
<defs>
<font id="FiraSansCondensed-Book" horiz-adv-x="482" >
  <font-face 
    font-family="Fira Sans Condensed Book"
    font-weight="350"
    font-stretch="condensed"
    units-per-em="1000"
    panose-1="2 11 5 3 5 0 0 2 0 4"
    ascent="800"
    descent="-200"
    x-height="526"
    cap-height="688"
    bbox="-316 -355 1360 1265"
    underline-thickness="50"
    underline-position="-100"
    stemh="68"
    stemv="81"
    unicode-range="U+000D-FEFF"
  />
<missing-glyph horiz-adv-x="666" 
d="M543 1050v-1400h-420v1400h420zM489 998h-311v-1296h311v1296zM324 451c86 0 111 -55 111 -115c0 -70 -28 -108 -95 -118v-45c0 -15 -13 -24 -25 -24c-13 0 -25 9 -25 24v84c72 4 91 24 91 77c0 39 -11 69 -61 69c-21 0 -35 -3 -52 -11c-5 -2 -9 -3 -13 -3
c-15 0 -24 10 -24 23c0 27 54 39 93 39zM315 120c20 0 35 -15 35 -35c0 -21 -15 -37 -35 -37s-35 16 -35 37c0 20 15 35 35 35z" />
    <glyph glyph-name="fi" unicode="fi" horiz-adv-x="498" 
d="M238 748c54 0 95 -15 132 -37l-27 -54c-29 14 -62 24 -101 24c-56 0 -76 -22 -76 -74v-81h251v-526h-81v462h-170v-462h-81v462h-73v64h73v81c0 80 47 141 153 141z" />
    <glyph glyph-name="fl" unicode="fl" horiz-adv-x="516" 
d="M479 61l19 -56c-17 -10 -40 -17 -64 -17c-58 0 -95 38 -95 103v575c-34 11 -61 16 -97 16c-57 0 -76 -22 -76 -72v-84h108l-10 -64h-98v-462h-81v462h-73v64h73v84c0 80 49 138 149 138c41 0 72 -7 107 -20l79 9v-644c0 -23 9 -37 31 -37c11 0 21 2 28 5z" />
    <glyph glyph-name=".notdef" horiz-adv-x="666" 
d="M543 1050v-1400h-420v1400h420zM489 998h-311v-1296h311v1296zM324 451c86 0 111 -55 111 -115c0 -70 -28 -108 -95 -118v-45c0 -15 -13 -24 -25 -24c-13 0 -25 9 -25 24v84c72 4 91 24 91 77c0 39 -11 69 -61 69c-21 0 -35 -3 -52 -11c-5 -2 -9 -3 -13 -3
c-15 0 -24 10 -24 23c0 27 54 39 93 39zM315 120c20 0 35 -15 35 -35c0 -21 -15 -37 -35 -37s-35 16 -35 37c0 20 15 35 35 35z" />
    <glyph glyph-name="A" unicode="A" horiz-adv-x="504" 
d="M408 0l-45 178h-225l-45 -178h-83l190 688h104l190 -688h-86zM156 246h189l-94 372z" />
    <glyph glyph-name="Aacute" unicode="&#xc1;" horiz-adv-x="504" 
d="M355 834l-185 -78l-21 44l172 103zM408 0l-45 178h-225l-45 -178h-83l190 688h104l190 -688h-86zM156 246h189l-94 372z" />
    <glyph glyph-name="Abreve" unicode="&#x102;" horiz-adv-x="504" 
d="M251 760c-69 0 -120 47 -127 116l51 12c12 -39 36 -65 76 -65s67 26 78 65l51 -12c-7 -69 -58 -116 -129 -116zM408 0l-45 178h-225l-45 -178h-83l190 688h104l190 -688h-86zM156 246h189l-94 372z" />
    <glyph glyph-name="Acircumflex" unicode="&#xc2;" horiz-adv-x="504" 
d="M252 841l-109 -80l-33 37l116 109h52l116 -109l-34 -37zM408 0l-45 178h-225l-45 -178h-83l190 688h104l190 -688h-86zM156 246h189l-94 372z" />
    <glyph glyph-name="Adieresis" unicode="&#xc4;" horiz-adv-x="504" 
d="M168 783c-29 0 -50 22 -50 51s21 52 50 52s50 -23 50 -52s-21 -51 -50 -51zM347 783c-29 0 -50 22 -50 51s21 52 50 52s50 -23 50 -52s-21 -51 -50 -51zM408 0l-45 178h-225l-45 -178h-83l190 688h104l190 -688h-86zM156 246h189l-94 372z" />
    <glyph glyph-name="Agrave" unicode="&#xc0;" horiz-adv-x="504" 
d="M349 800l-21 -44l-185 78l34 69zM408 0l-45 178h-225l-45 -178h-83l190 688h104l190 -688h-86zM156 246h189l-94 372z" />
    <glyph glyph-name="Amacron" unicode="&#x100;" horiz-adv-x="504" 
d="M369 857v-60h-232v60h232zM408 0l-45 178h-225l-45 -178h-83l190 688h104l190 -688h-86zM156 246h189l-94 372z" />
    <glyph glyph-name="Aogonek" unicode="&#x104;" horiz-adv-x="504" 
d="M458 0c-84 -42 -104 -76 -104 -117c0 -30 14 -48 50 -48c17 0 30 2 51 7l-8 -62c-17 -4 -32 -7 -54 -7c-66 0 -107 40 -107 98c0 62 40 107 118 143l-41 164h-225l-45 -178h-83l190 688h104l190 -688h-36zM156 246h189l-94 372z" />
    <glyph glyph-name="Aring" unicode="&#xc5;" horiz-adv-x="504" 
d="M252 753c-58 0 -98 39 -98 102s40 102 98 102c59 0 98 -39 98 -102s-39 -102 -98 -102zM252 913c-28 0 -45 -16 -45 -58s17 -58 45 -58c27 0 46 16 46 58s-18 58 -46 58zM408 0l-45 178h-225l-45 -178h-83l190 688h104l190 -688h-86zM156 246h189l-94 372z" />
    <glyph glyph-name="Atilde" unicode="&#xc3;" horiz-adv-x="504" 
d="M203 833c-20 0 -32 -16 -47 -44l-46 22c20 48 51 81 91 81c46 0 70 -45 102 -45c17 0 30 14 46 44l47 -22c-22 -57 -55 -81 -91 -81c-46 0 -72 45 -102 45zM408 0l-45 178h-225l-45 -178h-83l190 688h104l190 -688h-86zM156 246h189l-94 372z" />
    <glyph glyph-name="AE" unicode="&#xc6;" horiz-adv-x="699" 
d="M461 68h196v-68h-264l-34 176h-228l-56 -176h-84l234 688h396l-10 -68h-263l48 -236h217v-67h-203zM153 244h193l-73 377z" />
    <glyph glyph-name="B" unicode="B" horiz-adv-x="523" 
d="M335 364c82 -16 150 -56 150 -170c0 -134 -95 -194 -240 -194h-161v688h136c153 0 239 -60 239 -173c0 -83 -51 -132 -124 -151zM229 621h-61v-228h76c83 0 129 42 129 116c0 83 -50 112 -144 112zM245 68c93 0 152 30 152 126s-54 134 -146 134h-83v-260h77z" />
    <glyph glyph-name="C" unicode="C" horiz-adv-x="484" 
d="M299 699c70 0 115 -24 163 -66l-45 -52c-37 33 -72 49 -115 49c-90 0 -164 -67 -164 -286c0 -209 70 -284 164 -284c55 0 90 27 121 53l45 -50c-35 -39 -91 -75 -169 -75c-144 0 -250 115 -250 356c0 244 112 355 250 355z" />
    <glyph glyph-name="Cacute" unicode="&#x106;" horiz-adv-x="484" 
d="M370 903l34 -69l-185 -78l-21 44zM299 699c70 0 115 -24 163 -66l-45 -52c-37 33 -72 49 -115 49c-90 0 -164 -67 -164 -286c0 -209 70 -284 164 -284c55 0 90 27 121 53l45 -50c-35 -39 -91 -75 -169 -75c-144 0 -250 115 -250 356c0 244 112 355 250 355z" />
    <glyph glyph-name="Cacute.loclPLK" horiz-adv-x="484" 
d="M344 920l63 -42l-112 -145l-39 26zM299 699c70 0 115 -24 163 -66l-45 -52c-37 33 -72 49 -115 49c-90 0 -164 -67 -164 -286c0 -209 70 -284 164 -284c55 0 90 27 121 53l45 -50c-35 -39 -91 -75 -169 -75c-144 0 -250 115 -250 356c0 244 112 355 250 355z" />
    <glyph glyph-name="Ccaron" unicode="&#x10c;" horiz-adv-x="484" 
d="M410 900l33 -36l-116 -109h-52l-116 109l34 36l108 -80zM299 699c70 0 115 -24 163 -66l-45 -52c-37 33 -72 49 -115 49c-90 0 -164 -67 -164 -286c0 -209 70 -284 164 -284c55 0 90 27 121 53l45 -50c-35 -39 -91 -75 -169 -75c-144 0 -250 115 -250 356
c0 244 112 355 250 355z" />
    <glyph glyph-name="Ccedilla" unicode="&#xc7;" horiz-adv-x="484" 
d="M468 63c-31 -35 -79 -67 -144 -73v-51c56 -7 80 -38 80 -82c0 -61 -46 -93 -105 -93c-33 0 -60 9 -79 22l24 44c15 -7 29 -13 51 -13c25 0 44 12 44 40c0 30 -22 45 -77 45l8 88c-129 14 -221 129 -221 354c0 244 112 355 250 355c70 0 115 -24 163 -66l-45 -52
c-37 33 -72 49 -115 49c-90 0 -164 -67 -164 -286c0 -209 70 -284 164 -284c55 0 90 27 121 53z" />
    <glyph glyph-name="Cdotaccent" unicode="&#x10a;" horiz-adv-x="484" 
d="M300 897c34 0 56 -24 56 -56c0 -31 -22 -55 -56 -55c-32 0 -55 24 -55 55c0 32 23 56 55 56zM299 699c70 0 115 -24 163 -66l-45 -52c-37 33 -72 49 -115 49c-90 0 -164 -67 -164 -286c0 -209 70 -284 164 -284c55 0 90 27 121 53l45 -50c-35 -39 -91 -75 -169 -75
c-144 0 -250 115 -250 356c0 244 112 355 250 355z" />
    <glyph glyph-name="D" unicode="D" horiz-adv-x="556" 
d="M214 688c150 0 292 -52 292 -340c0 -285 -146 -348 -278 -348h-144v688h130zM229 620h-61v-553h66c94 0 184 45 184 281c0 242 -94 272 -189 272z" />
    <glyph glyph-name="Eth" unicode="&#xd0;" horiz-adv-x="568" 
d="M226 688c150 0 293 -52 293 -340c0 -285 -146 -348 -278 -348h-145v321h-76v64h76v303h130zM246 67c95 0 185 45 185 281c0 242 -95 272 -190 272h-61v-235h128v-64h-128v-254h66z" />
    <glyph glyph-name="Dcaron" unicode="&#x10e;" horiz-adv-x="556" 
d="M369 900l33 -36l-116 -109h-52l-116 109l34 36l108 -80zM214 688c150 0 292 -52 292 -340c0 -285 -146 -348 -278 -348h-144v688h130zM229 620h-61v-553h66c94 0 184 45 184 281c0 242 -94 272 -189 272z" />
    <glyph glyph-name="Dcroat" unicode="&#x110;" horiz-adv-x="568" 
d="M226 688c150 0 293 -52 293 -340c0 -285 -146 -348 -278 -348h-145v321h-76v64h76v303h130zM246 67c95 0 185 45 185 281c0 242 -95 272 -190 272h-61v-235h128v-64h-128v-254h66z" />
    <glyph glyph-name="E" unicode="E" horiz-adv-x="454" 
d="M407 688l-10 -68h-229v-235h199v-67h-199v-250h244v-68h-328v688h323z" />
    <glyph glyph-name="Eacute" unicode="&#xc9;" horiz-adv-x="454" 
d="M317 903l34 -69l-185 -78l-21 44zM407 688l-10 -68h-229v-235h199v-67h-199v-250h244v-68h-328v688h323z" />
    <glyph glyph-name="Ecaron" unicode="&#x11a;" horiz-adv-x="454" 
d="M357 900l33 -36l-116 -109h-52l-116 109l34 36l108 -80zM407 688l-10 -68h-229v-235h199v-67h-199v-250h244v-68h-328v688h323z" />
    <glyph glyph-name="Ecircumflex" unicode="&#xca;" horiz-adv-x="454" 
d="M138 761l-33 37l116 109h52l116 -109l-34 -37l-108 80zM407 688l-10 -68h-229v-235h199v-67h-199v-250h244v-68h-328v688h323z" />
    <glyph glyph-name="Edieresis" unicode="&#xcb;" horiz-adv-x="454" 
d="M164 886c29 0 50 -23 50 -52s-21 -51 -50 -51s-50 22 -50 51s21 52 50 52zM343 886c29 0 50 -23 50 -52s-21 -51 -50 -51s-50 22 -50 51s21 52 50 52zM407 688l-10 -68h-229v-235h199v-67h-199v-250h244v-68h-328v688h323z" />
    <glyph glyph-name="Edotaccent" unicode="&#x116;" horiz-adv-x="454" 
d="M247 897c34 0 56 -24 56 -56c0 -31 -22 -55 -56 -55c-32 0 -55 24 -55 55c0 32 23 56 55 56zM407 688l-10 -68h-229v-235h199v-67h-199v-250h244v-68h-328v688h323z" />
    <glyph glyph-name="Egrave" unicode="&#xc8;" horiz-adv-x="454" 
d="M173 903l172 -103l-21 -44l-185 78zM407 688l-10 -68h-229v-235h199v-67h-199v-250h244v-68h-328v688h323z" />
    <glyph glyph-name="Emacron" unicode="&#x112;" horiz-adv-x="454" 
d="M364 797h-232v60h232v-60zM407 688l-10 -68h-229v-235h199v-67h-199v-250h244v-68h-328v688h323z" />
    <glyph glyph-name="Eogonek" unicode="&#x118;" horiz-adv-x="454" 
d="M168 68h244v-68h-33c-84 -42 -104 -76 -104 -117c0 -30 14 -48 50 -48c17 0 30 2 51 7l-8 -62c-17 -4 -32 -7 -54 -7c-66 0 -107 40 -107 98c0 54 31 96 91 129h-214v688h323l-10 -68h-229v-235h199v-67h-199v-250z" />
    <glyph glyph-name="F" unicode="F" horiz-adv-x="420" 
d="M84 0v688h316l-9 -68h-223v-245h193v-67h-193v-308h-84z" />
    <glyph glyph-name="G" unicode="G" horiz-adv-x="547" 
d="M309 699c76 0 126 -25 177 -73l-47 -49c-43 37 -77 53 -130 53c-87 0 -171 -73 -171 -285c0 -207 59 -287 163 -287c41 0 77 10 110 31v221h-103l-10 68h194v-330c-53 -36 -118 -60 -193 -60c-155 0 -250 119 -250 357c0 234 123 354 260 354z" />
    <glyph glyph-name="Gbreve" unicode="&#x11e;" horiz-adv-x="547" 
d="M305 760c-69 0 -120 47 -127 116l51 12c12 -39 36 -65 76 -65s67 26 78 65l51 -12c-7 -69 -58 -116 -129 -116zM309 699c76 0 126 -25 177 -73l-47 -49c-43 37 -77 53 -130 53c-87 0 -171 -73 -171 -285c0 -207 59 -287 163 -287c41 0 77 10 110 31v221h-103l-10 68h194
v-330c-53 -36 -118 -60 -193 -60c-155 0 -250 119 -250 357c0 234 123 354 260 354z" />
    <glyph glyph-name="Gcommaaccent" unicode="&#x122;" horiz-adv-x="547" 
d="M309 699c76 0 126 -25 177 -73l-47 -49c-43 37 -77 53 -130 53c-87 0 -171 -73 -171 -285c0 -207 59 -287 163 -287c41 0 77 10 110 31v221h-103l-10 68h194v-330c-53 -36 -118 -60 -193 -60c-155 0 -250 119 -250 357c0 234 123 354 260 354zM298 -80
c29 0 50 -21 50 -51c0 -17 -5 -32 -22 -74l-36 -86h-45l28 116c-16 10 -25 26 -25 44c0 29 21 51 50 51z" />
    <glyph glyph-name="Gdotaccent" unicode="&#x120;" horiz-adv-x="547" 
d="M305 897c34 0 56 -24 56 -56c0 -31 -22 -55 -56 -55c-32 0 -55 24 -55 55c0 32 23 56 55 56zM309 699c76 0 126 -25 177 -73l-47 -49c-43 37 -77 53 -130 53c-87 0 -171 -73 -171 -285c0 -207 59 -287 163 -287c41 0 77 10 110 31v221h-103l-10 68h194v-330
c-53 -36 -118 -60 -193 -60c-155 0 -250 119 -250 357c0 234 123 354 260 354z" />
    <glyph glyph-name="H" unicode="H" horiz-adv-x="582" 
d="M414 0v327h-246v-327h-84v688h84v-292h246v292h84v-688h-84z" />
    <glyph glyph-name="Hbar" unicode="&#x126;" horiz-adv-x="587" 
d="M557 571v-61h-56v-510h-83v327h-246v-327h-84v510h-58v61h58v117h84v-117h246v117h83v-117h56zM418 396v114h-246v-114h246z" />
    <glyph glyph-name="I" unicode="I" horiz-adv-x="252" 
d="M168 688v-688h-84v688h84z" />
    <glyph glyph-name="Iacute" unicode="&#xcd;" horiz-adv-x="252" 
d="M194 903l34 -69l-185 -78l-21 44zM168 688v-688h-84v688h84z" />
    <glyph glyph-name="Icircumflex" unicode="&#xce;" horiz-adv-x="252" 
d="M16 761l-33 37l116 109h52l116 -109l-34 -37l-108 80zM168 688v-688h-84v688h84z" />
    <glyph glyph-name="Idieresis" unicode="&#xcf;" horiz-adv-x="252" 
d="M41 886c29 0 50 -23 50 -52s-21 -51 -50 -51s-50 22 -50 51s21 52 50 52zM220 886c29 0 50 -23 50 -52s-21 -51 -50 -51s-50 22 -50 51s21 52 50 52zM168 688v-688h-84v688h84z" />
    <glyph glyph-name="Idotaccent" unicode="&#x130;" horiz-adv-x="252" 
d="M124 897c34 0 56 -24 56 -56c0 -31 -22 -55 -56 -55c-32 0 -55 24 -55 55c0 32 23 56 55 56zM168 688v-688h-84v688h84z" />
    <glyph glyph-name="Igrave" unicode="&#xcc;" horiz-adv-x="252" 
d="M50 903l172 -103l-21 -44l-185 78zM168 688v-688h-84v688h84z" />
    <glyph glyph-name="Imacron" unicode="&#x12a;" horiz-adv-x="252" 
d="M242 797h-232v60h232v-60zM168 688v-688h-84v688h84z" />
    <glyph glyph-name="Iogonek" unicode="&#x12e;" horiz-adv-x="252" 
d="M84 688h84v-688h-12c-84 -42 -104 -76 -104 -117c0 -30 14 -48 50 -48c17 0 30 2 51 7l-8 -62c-17 -4 -32 -7 -54 -7c-66 0 -107 40 -107 98c0 57 34 100 100 134v683z" />
    <glyph glyph-name="J" unicode="J" horiz-adv-x="261" 
d="M181 688v-594c0 -136 -59 -188 -156 -225l-22 59c78 39 94 75 94 170v590h84z" />
    <glyph glyph-name="K" unicode="K" horiz-adv-x="507" 
d="M168 688v-688h-84v688h84zM490 688l-226 -315l242 -373h-97l-237 368l228 320h90z" />
    <glyph glyph-name="Kcommaaccent" unicode="&#x136;" horiz-adv-x="507" 
d="M168 688v-688h-84v688h84zM490 688l-226 -315l242 -373h-97l-237 368l228 320h90zM272 -80c29 0 50 -21 50 -51c0 -17 -5 -32 -22 -74l-36 -86h-45l28 116c-16 10 -25 26 -25 44c0 29 21 51 50 51z" />
    <glyph glyph-name="L" unicode="L" horiz-adv-x="423" 
d="M168 688v-614h242l-10 -74h-316v688h84z" />
    <glyph glyph-name="Lacute" unicode="&#x139;" horiz-adv-x="423" 
d="M195 903l34 -69l-185 -78l-21 44zM168 688v-614h242l-10 -74h-316v688h84z" />
    <glyph glyph-name="Lcaron" unicode="&#x13d;" horiz-adv-x="423" 
d="M233 696l47 -48l-18 -138l-23 47zM168 688v-614h242l-10 -74h-316v688h84z" />
    <glyph glyph-name="Lcommaaccent" unicode="&#x13b;" horiz-adv-x="423" 
d="M168 688v-614h242l-10 -74h-316v688h84zM244 -80c29 0 50 -21 50 -51c0 -17 -5 -32 -22 -74l-36 -86h-45l28 116c-16 10 -25 26 -25 44c0 29 21 51 50 51z" />
    <glyph glyph-name="Ldot" unicode="&#x13f;" horiz-adv-x="423" 
d="M168 688v-614h242l-10 -74h-316v688h84zM332 437c34 0 56 -24 56 -56c0 -31 -22 -55 -56 -55c-32 0 -55 24 -55 55c0 32 23 56 55 56z" />
    <glyph glyph-name="Lslash" unicode="&#x141;" horiz-adv-x="439" 
d="M184 74h242l-9 -74h-316v263l-50 -35l-31 54l79 56l2 1v349h83v-290l137 96l32 -53l-169 -119v-248z" />
    <glyph glyph-name="M" unicode="M" horiz-adv-x="682" 
d="M575 688l50 -688h-80l-21 317c-8 108 -14 227 -14 286l-129 -524h-79l-135 525c1 -77 -4 -190 -11 -292l-19 -312h-79l50 688h110l125 -512l119 512h113z" />
    <glyph glyph-name="N" unicode="N" horiz-adv-x="584" 
d="M499 688v-688h-111l-237 595c4 -54 12 -131 12 -257v-338h-79v688h111l238 -595c-3 20 -12 120 -12 206v389h78z" />
    <glyph glyph-name="Nacute" unicode="&#x143;" horiz-adv-x="584" 
d="M369 903l34 -69l-185 -78l-21 44zM499 688v-688h-111l-237 595c4 -54 12 -131 12 -257v-338h-79v688h111l238 -595c-3 20 -12 120 -12 206v389h78z" />
    <glyph glyph-name="Nacute.loclPLK" horiz-adv-x="584" 
d="M342 920l63 -42l-112 -145l-39 26zM499 688v-688h-111l-237 595c4 -54 12 -131 12 -257v-338h-79v688h111l238 -595c-3 20 -12 120 -12 206v389h78z" />
    <glyph glyph-name="Ncaron" unicode="&#x147;" horiz-adv-x="584" 
d="M409 900l33 -36l-116 -109h-52l-116 109l34 36l108 -80zM499 688v-688h-111l-237 595c4 -54 12 -131 12 -257v-338h-79v688h111l238 -595c-3 20 -12 120 -12 206v389h78z" />
    <glyph glyph-name="Ncommaaccent" unicode="&#x145;" horiz-adv-x="584" 
d="M499 688v-688h-111l-237 595c4 -54 12 -131 12 -257v-338h-79v688h111l238 -595c-3 20 -12 120 -12 206v389h78zM294 -80c29 0 50 -21 50 -51c0 -17 -5 -32 -22 -74l-36 -86h-45l28 116c-16 10 -25 26 -25 44c0 29 21 51 50 51z" />
    <glyph glyph-name="Eng" unicode="&#x14a;" horiz-adv-x="584" 
d="M499 688v-688v-62c0 -99 -52 -148 -131 -148c-46 0 -78 18 -100 36l31 54c19 -14 35 -23 63 -23c33 0 53 23 53 77v66h-27l-237 595c4 -54 12 -131 12 -257v-338h-79v688h111l238 -595c-3 20 -12 120 -12 206v389h78z" />
    <glyph glyph-name="Ntilde" unicode="&#xd1;" horiz-adv-x="584" 
d="M352 788c-46 0 -72 45 -102 45c-20 0 -32 -16 -47 -44l-46 22c20 48 51 81 91 81c46 0 70 -45 102 -45c17 0 30 14 46 44l47 -22c-22 -57 -55 -81 -91 -81zM499 688v-688h-111l-237 595c4 -54 12 -131 12 -257v-338h-79v688h111l238 -595c-3 20 -12 120 -12 206v389h78z
" />
    <glyph glyph-name="O" unicode="O" horiz-adv-x="600" 
d="M300 699c150 0 251 -113 251 -356c0 -238 -99 -355 -251 -355c-150 0 -251 113 -251 354c0 238 101 357 251 357zM300 630c-99 0 -162 -78 -162 -288c0 -208 65 -284 162 -284c101 0 162 76 162 285s-61 287 -162 287z" />
    <glyph glyph-name="Oacute" unicode="&#xd3;" horiz-adv-x="600" 
d="M369 903l34 -69l-185 -78l-21 44zM300 699c150 0 251 -113 251 -356c0 -238 -99 -355 -251 -355c-150 0 -251 113 -251 354c0 238 101 357 251 357zM300 630c-99 0 -162 -78 -162 -288c0 -208 65 -284 162 -284c101 0 162 76 162 285s-61 287 -162 287z" />
    <glyph glyph-name="Oacute.loclPLK" horiz-adv-x="600" 
d="M343 920l63 -42l-112 -145l-39 26zM300 699c150 0 251 -113 251 -356c0 -238 -99 -355 -251 -355c-150 0 -251 113 -251 354c0 238 101 357 251 357zM300 630c-99 0 -162 -78 -162 -288c0 -208 65 -284 162 -284c101 0 162 76 162 285s-61 287 -162 287z" />
    <glyph glyph-name="Ocircumflex" unicode="&#xd4;" horiz-adv-x="600" 
d="M190 761l-33 37l116 109h52l116 -109l-34 -37l-108 80zM300 699c150 0 251 -113 251 -356c0 -238 -99 -355 -251 -355c-150 0 -251 113 -251 354c0 238 101 357 251 357zM300 630c-99 0 -162 -78 -162 -288c0 -208 65 -284 162 -284c101 0 162 76 162 285
s-61 287 -162 287z" />
    <glyph glyph-name="Odieresis" unicode="&#xd6;" horiz-adv-x="600" 
d="M216 886c29 0 50 -23 50 -52s-21 -51 -50 -51s-50 22 -50 51s21 52 50 52zM395 886c29 0 50 -23 50 -52s-21 -51 -50 -51s-50 22 -50 51s21 52 50 52zM300 699c150 0 251 -113 251 -356c0 -238 -99 -355 -251 -355c-150 0 -251 113 -251 354c0 238 101 357 251 357z
M300 630c-99 0 -162 -78 -162 -288c0 -208 65 -284 162 -284c101 0 162 76 162 285s-61 287 -162 287z" />
    <glyph glyph-name="Ograve" unicode="&#xd2;" horiz-adv-x="600" 
d="M225 903l172 -103l-21 -44l-185 78zM300 699c150 0 251 -113 251 -356c0 -238 -99 -355 -251 -355c-150 0 -251 113 -251 354c0 238 101 357 251 357zM300 630c-99 0 -162 -78 -162 -288c0 -208 65 -284 162 -284c101 0 162 76 162 285s-61 287 -162 287z" />
    <glyph glyph-name="Ohungarumlaut" unicode="&#x150;" horiz-adv-x="600" 
d="M400 950l65 -35l-90 -152l-47 21zM272 949l65 -34l-83 -147l-47 20zM300 699c150 0 251 -113 251 -356c0 -238 -99 -355 -251 -355c-150 0 -251 113 -251 354c0 238 101 357 251 357zM300 630c-99 0 -162 -78 -162 -288c0 -208 65 -284 162 -284c101 0 162 76 162 285
s-61 287 -162 287z" />
    <glyph glyph-name="Omacron" unicode="&#x14c;" horiz-adv-x="600" 
d="M416 797h-232v60h232v-60zM300 699c150 0 251 -113 251 -356c0 -238 -99 -355 -251 -355c-150 0 -251 113 -251 354c0 238 101 357 251 357zM300 630c-99 0 -162 -78 -162 -288c0 -208 65 -284 162 -284c101 0 162 76 162 285s-61 287 -162 287z" />
    <glyph glyph-name="Oslash" unicode="&#xd8;" horiz-adv-x="600" 
d="M420 668c81 -48 131 -154 131 -325c0 -238 -99 -355 -251 -355c-20 0 -39 2 -57 6l-30 -119l-69 18l35 127c-81 48 -130 154 -130 322c0 238 101 357 251 357c20 0 38 -2 56 -6l32 123l68 -18zM136 342c0 -140 27 -217 73 -255l135 538c-14 4 -28 5 -44 5
c-100 0 -164 -78 -164 -288zM300 58c102 0 161 76 162 285c1 143 -25 222 -71 259l-135 -539c14 -4 29 -5 44 -5z" />
    <glyph glyph-name="Otilde" unicode="&#xd5;" horiz-adv-x="600" 
d="M353 788c-46 0 -72 45 -102 45c-20 0 -32 -16 -47 -44l-46 22c20 48 51 81 91 81c46 0 70 -45 102 -45c17 0 30 14 46 44l47 -22c-22 -57 -55 -81 -91 -81zM300 699c150 0 251 -113 251 -356c0 -238 -99 -355 -251 -355c-150 0 -251 113 -251 354c0 238 101 357 251 357z
M300 630c-99 0 -162 -78 -162 -288c0 -208 65 -284 162 -284c101 0 162 76 162 285s-61 287 -162 287z" />
    <glyph glyph-name="OE" unicode="&#x152;" horiz-adv-x="771" 
d="M727 68v-68h-373c-20 -8 -43 -12 -65 -12c-139 0 -240 121 -240 354c0 232 101 357 240 357c23 0 45 -4 65 -11h367l-9 -68h-264c50 -50 79 -129 85 -234h149v-69h-149c-4 -110 -35 -193 -89 -249h283zM138 342c0 -204 65 -284 153 -284c93 0 154 80 154 287
c0 203 -61 285 -154 285c-90 0 -153 -81 -153 -288z" />
    <glyph glyph-name="P" unicode="P" horiz-adv-x="497" 
d="M223 688c162 0 249 -70 249 -211c0 -154 -97 -219 -248 -219h-56v-258h-84v688h139zM223 325c103 0 161 33 161 151c0 105 -55 145 -160 145h-56v-296h55z" />
    <glyph glyph-name="Thorn" unicode="&#xde;" horiz-adv-x="497" 
d="M225 568c160 0 247 -69 247 -214c0 -158 -97 -224 -244 -224h-60v-130h-84v688h84v-120h57zM224 197c102 0 160 35 160 156c0 107 -55 149 -159 149h-57v-305h56z" />
    <glyph glyph-name="Q" unicode="Q" horiz-adv-x="600" 
d="M408 35c70 -1 125 -28 171 -68l-56 -67c-64 69 -118 91 -226 91c-145 0 -248 113 -248 351s101 357 251 357s251 -115 251 -356c0 -181 -58 -262 -143 -308zM138 342c0 -208 65 -284 162 -284c101 0 162 76 162 285s-61 287 -162 287c-99 0 -162 -78 -162 -288z" />
    <glyph glyph-name="R" unicode="R" horiz-adv-x="521" 
d="M406 0l-144 297h-94v-297h-84v688h144c164 0 240 -70 240 -192c0 -94 -43 -152 -128 -181l160 -315h-94zM168 362h67c98 0 144 41 144 134c0 85 -41 125 -152 125h-59v-259z" />
    <glyph glyph-name="Racute" unicode="&#x154;" horiz-adv-x="521" 
d="M361 834l-185 -78l-21 44l172 103zM406 0l-144 297h-94v-297h-84v688h144c164 0 240 -70 240 -192c0 -94 -43 -152 -128 -181l160 -315h-94zM168 362h67c98 0 144 41 144 134c0 85 -41 125 -152 125h-59v-259z" />
    <glyph glyph-name="Rcaron" unicode="&#x158;" horiz-adv-x="521" 
d="M284 755h-52l-116 109l34 36l108 -80l109 80l33 -36zM406 0l-144 297h-94v-297h-84v688h144c164 0 240 -70 240 -192c0 -94 -43 -152 -128 -181l160 -315h-94zM168 362h67c98 0 144 41 144 134c0 85 -41 125 -152 125h-59v-259z" />
    <glyph glyph-name="Rcommaaccent" unicode="&#x156;" horiz-adv-x="521" 
d="M340 315l160 -315h-94l-144 297h-94v-297h-84v688h144c164 0 240 -70 240 -192c0 -94 -43 -152 -128 -181zM168 362h67c98 0 144 41 144 134c0 85 -41 125 -152 125h-59v-259zM267 -80c29 0 50 -21 50 -51c0 -17 -5 -32 -22 -74l-36 -86h-45l28 116c-16 10 -25 26 -25 44
c0 29 21 51 50 51z" />
    <glyph glyph-name="S" unicode="S" horiz-adv-x="470" 
d="M235 699c78 0 132 -28 181 -78l-45 -49c-44 40 -84 58 -135 58c-62 0 -106 -40 -106 -103c0 -59 26 -93 130 -130c102 -37 174 -85 174 -207c0 -111 -81 -202 -212 -202c-87 0 -151 34 -202 88l46 49c44 -40 90 -67 155 -67c74 0 126 49 126 130c0 68 -28 104 -128 140
c-119 42 -175 98 -175 195c0 99 79 176 191 176z" />
    <glyph glyph-name="Sacute" unicode="&#x15a;" horiz-adv-x="470" 
d="M306 903l34 -69l-185 -78l-21 44zM235 699c78 0 132 -28 181 -78l-45 -49c-44 40 -84 58 -135 58c-62 0 -106 -40 -106 -103c0 -59 26 -93 130 -130c102 -37 174 -85 174 -207c0 -111 -81 -202 -212 -202c-87 0 -151 34 -202 88l46 49c44 -40 90 -67 155 -67
c74 0 126 49 126 130c0 68 -28 104 -128 140c-119 42 -175 98 -175 195c0 99 79 176 191 176z" />
    <glyph glyph-name="Sacute.loclPLK" horiz-adv-x="470" 
d="M279 920l63 -42l-112 -145l-39 26zM235 699c78 0 132 -28 181 -78l-45 -49c-44 40 -84 58 -135 58c-62 0 -106 -40 -106 -103c0 -59 26 -93 130 -130c102 -37 174 -85 174 -207c0 -111 -81 -202 -212 -202c-87 0 -151 34 -202 88l46 49c44 -40 90 -67 155 -67
c74 0 126 49 126 130c0 68 -28 104 -128 140c-119 42 -175 98 -175 195c0 99 79 176 191 176z" />
    <glyph glyph-name="Scaron" unicode="&#x160;" horiz-adv-x="470" 
d="M346 900l33 -36l-116 -109h-52l-116 109l34 36l108 -80zM235 699c78 0 132 -28 181 -78l-45 -49c-44 40 -84 58 -135 58c-62 0 -106 -40 -106 -103c0 -59 26 -93 130 -130c102 -37 174 -85 174 -207c0 -111 -81 -202 -212 -202c-87 0 -151 34 -202 88l46 49
c44 -40 90 -67 155 -67c74 0 126 49 126 130c0 68 -28 104 -128 140c-119 42 -175 98 -175 195c0 99 79 176 191 176z" />
    <glyph glyph-name="Scedilla" unicode="&#x15e;" horiz-adv-x="470" 
d="M434 190c0 -102 -68 -186 -180 -200v-51c56 -7 80 -38 80 -82c0 -61 -46 -93 -105 -93c-33 0 -60 9 -79 22l24 44c15 -7 29 -13 51 -13c25 0 44 12 44 40c0 30 -22 45 -77 45l8 87c-76 5 -133 38 -180 87l46 49c44 -40 90 -67 155 -67c74 0 126 49 126 130
c0 68 -28 104 -128 140c-119 42 -175 98 -175 195c0 99 79 176 191 176c78 0 132 -28 181 -78l-45 -49c-44 40 -84 58 -135 58c-62 0 -106 -40 -106 -103c0 -59 26 -93 130 -130c102 -37 174 -85 174 -207z" />
    <glyph glyph-name="Scommaaccent" unicode="&#x218;" horiz-adv-x="470" 
d="M235 699c78 0 132 -28 181 -78l-45 -49c-44 40 -84 58 -135 58c-62 0 -106 -40 -106 -103c0 -59 26 -93 130 -130c102 -37 174 -85 174 -207c0 -111 -81 -202 -212 -202c-87 0 -151 34 -202 88l46 49c44 -40 90 -67 155 -67c74 0 126 49 126 130c0 68 -28 104 -128 140
c-119 42 -175 98 -175 195c0 99 79 176 191 176zM230 -80c29 0 50 -21 50 -51c0 -17 -5 -32 -22 -74l-36 -86h-45l28 116c-16 10 -25 26 -25 44c0 29 21 51 50 51z" />
    <glyph glyph-name="T" unicode="T" horiz-adv-x="443" 
d="M436 688l-9 -71h-164v-617h-84v617h-167v71h424z" />
    <glyph glyph-name="Tbar" unicode="&#x166;" horiz-adv-x="443" 
d="M427 616h-164v-230h105v-63h-105v-325h-84v325h-104v63h104v230h-167v70h424z" />
    <glyph glyph-name="Tcaron" unicode="&#x164;" horiz-adv-x="443" 
d="M331 900l33 -36l-116 -109h-52l-116 109l34 36l108 -80zM436 688l-9 -71h-164v-617h-84v617h-167v71h424z" />
    <glyph glyph-name="uni0162" unicode="&#x162;" horiz-adv-x="443" 
d="M427 617h-164v-601h1v-75c58 -5 83 -41 83 -82c0 -63 -48 -95 -109 -95c-32 0 -59 9 -76 22l22 47c15 -9 30 -16 50 -16c27 0 47 13 47 42c0 28 -22 43 -77 43l10 98h-35v617h-167v71h424z" />
    <glyph glyph-name="uni021A" unicode="&#x21a;" horiz-adv-x="443" 
d="M436 688l-9 -71h-164v-617h-84v617h-167v71h424zM222 -80c29 0 50 -21 50 -51c0 -17 -5 -32 -22 -74l-36 -86h-45l28 116c-16 10 -25 26 -25 44c0 29 21 51 50 51z" />
    <glyph glyph-name="U" unicode="U" horiz-adv-x="564" 
d="M490 688v-493c0 -118 -72 -207 -208 -207c-138 0 -208 89 -208 207v493h84v-486c0 -93 39 -143 124 -143s124 51 124 143v486h84z" />
    <glyph glyph-name="Uacute" unicode="&#xda;" horiz-adv-x="564" 
d="M351 903l34 -69l-185 -78l-21 44zM490 688v-493c0 -118 -72 -207 -208 -207c-138 0 -208 89 -208 207v493h84v-486c0 -93 39 -143 124 -143s124 51 124 143v486h84z" />
    <glyph glyph-name="Ucircumflex" unicode="&#xdb;" horiz-adv-x="564" 
d="M172 761l-33 37l116 109h52l116 -109l-34 -37l-108 80zM490 688v-493c0 -118 -72 -207 -208 -207c-138 0 -208 89 -208 207v493h84v-486c0 -93 39 -143 124 -143s124 51 124 143v486h84z" />
    <glyph glyph-name="Udieresis" unicode="&#xdc;" horiz-adv-x="564" 
d="M198 886c29 0 50 -23 50 -52s-21 -51 -50 -51s-50 22 -50 51s21 52 50 52zM377 886c29 0 50 -23 50 -52s-21 -51 -50 -51s-50 22 -50 51s21 52 50 52zM490 688v-493c0 -118 -72 -207 -208 -207c-138 0 -208 89 -208 207v493h84v-486c0 -93 39 -143 124 -143
s124 51 124 143v486h84z" />
    <glyph glyph-name="Ugrave" unicode="&#xd9;" horiz-adv-x="564" 
d="M207 903l172 -103l-21 -44l-185 78zM490 688v-493c0 -118 -72 -207 -208 -207c-138 0 -208 89 -208 207v493h84v-486c0 -93 39 -143 124 -143s124 51 124 143v486h84z" />
    <glyph glyph-name="Uhungarumlaut" unicode="&#x170;" horiz-adv-x="564" 
d="M382 950l65 -35l-90 -152l-47 21zM254 949l65 -34l-83 -147l-47 20zM490 688v-493c0 -118 -72 -207 -208 -207c-138 0 -208 89 -208 207v493h84v-486c0 -93 39 -143 124 -143s124 51 124 143v486h84z" />
    <glyph glyph-name="Umacron" unicode="&#x16a;" horiz-adv-x="564" 
d="M398 797h-232v60h232v-60zM490 688v-493c0 -118 -72 -207 -208 -207c-138 0 -208 89 -208 207v493h84v-486c0 -93 39 -143 124 -143s124 51 124 143v486h84z" />
    <glyph glyph-name="Uogonek" unicode="&#x172;" horiz-adv-x="564" 
d="M406 688h84v-493c0 -94 -46 -170 -134 -196c-81 -42 -102 -75 -102 -114c0 -31 15 -50 50 -50c18 0 31 2 52 7l-8 -62c-17 -4 -33 -7 -54 -7c-66 0 -107 41 -107 98c0 49 30 89 85 117c-132 5 -198 92 -198 207v493h84v-486c0 -93 39 -143 124 -143s124 51 124 143v486z
" />
    <glyph glyph-name="Uring" unicode="&#x16e;" horiz-adv-x="564" 
d="M282 957c59 0 98 -39 98 -102s-39 -102 -98 -102c-58 0 -98 39 -98 102s40 102 98 102zM282 913c-28 0 -45 -16 -45 -58s17 -58 45 -58c27 0 46 16 46 58s-18 58 -46 58zM490 688v-493c0 -118 -72 -207 -208 -207c-138 0 -208 89 -208 207v493h84v-486
c0 -93 39 -143 124 -143s124 51 124 143v486h84z" />
    <glyph glyph-name="V" unicode="V" horiz-adv-x="487" 
d="M478 688l-186 -688h-95l-188 688h86l151 -598l149 598h83z" />
    <glyph glyph-name="W" unicode="W" horiz-adv-x="717" 
d="M693 688l-120 -688h-108l-108 589l-108 -589h-106l-119 688h81l94 -614l113 614h92l114 -614l97 614h78z" />
    <glyph glyph-name="Wacute" unicode="&#x1e82;" horiz-adv-x="717" 
d="M427 903l34 -69l-185 -78l-21 44zM693 688l-120 -688h-108l-108 589l-108 -589h-106l-119 688h81l94 -614l113 614h92l114 -614l97 614h78z" />
    <glyph glyph-name="Wcircumflex" unicode="&#x174;" horiz-adv-x="717" 
d="M249 761l-33 37l116 109h52l116 -109l-34 -37l-108 80zM693 688l-120 -688h-108l-108 589l-108 -589h-106l-119 688h81l94 -614l113 614h92l114 -614l97 614h78z" />
    <glyph glyph-name="Wdieresis" unicode="&#x1e84;" horiz-adv-x="717" 
d="M274 886c29 0 50 -23 50 -52s-21 -51 -50 -51s-50 22 -50 51s21 52 50 52zM453 886c29 0 50 -23 50 -52s-21 -51 -50 -51s-50 22 -50 51s21 52 50 52zM693 688l-120 -688h-108l-108 589l-108 -589h-106l-119 688h81l94 -614l113 614h92l114 -614l97 614h78z" />
    <glyph glyph-name="Wgrave" unicode="&#x1e80;" horiz-adv-x="717" 
d="M283 903l172 -103l-21 -44l-185 78zM693 688l-120 -688h-108l-108 589l-108 -589h-106l-119 688h81l94 -614l113 614h92l114 -614l97 614h78z" />
    <glyph glyph-name="X" unicode="X" horiz-adv-x="464" 
d="M280 372l180 -372h-90l-141 315l-139 -315h-86l176 367l-161 321h90l122 -268l123 268h86z" />
    <glyph glyph-name="Y" unicode="Y" horiz-adv-x="473" 
d="M469 688l-190 -422v-266h-84v265l-191 423h91l144 -349l144 349h86z" />
    <glyph glyph-name="Yacute" unicode="&#xdd;" horiz-adv-x="473" 
d="M305 903l34 -69l-185 -78l-21 44zM469 688l-190 -422v-266h-84v265l-191 423h91l144 -349l144 349h86z" />
    <glyph glyph-name="Ycircumflex" unicode="&#x176;" horiz-adv-x="473" 
d="M126 761l-33 37l116 109h52l116 -109l-34 -37l-108 80zM469 688l-190 -422v-266h-84v265l-191 423h91l144 -349l144 349h86z" />
    <glyph glyph-name="Ydieresis" unicode="&#x178;" horiz-adv-x="473" 
d="M152 886c29 0 50 -23 50 -52s-21 -51 -50 -51s-50 22 -50 51s21 52 50 52zM331 886c29 0 50 -23 50 -52s-21 -51 -50 -51s-50 22 -50 51s21 52 50 52zM469 688l-190 -422v-266h-84v265l-191 423h91l144 -349l144 349h86z" />
    <glyph glyph-name="Ygrave" unicode="&#x1ef2;" horiz-adv-x="473" 
d="M161 903l172 -103l-21 -44l-185 78zM469 688l-190 -422v-266h-84v265l-191 423h91l144 -349l144 349h86z" />
    <glyph glyph-name="Z" unicode="Z" horiz-adv-x="447" 
d="M414 688v-68l-300 -548h299l-10 -72h-378v68l300 549h-270v71h359z" />
    <glyph glyph-name="Zacute" unicode="&#x179;" horiz-adv-x="447" 
d="M301 903l34 -69l-185 -78l-21 44zM414 688v-68l-300 -548h299l-10 -72h-378v68l300 549h-270v71h359z" />
    <glyph glyph-name="Zacute.loclPLK" horiz-adv-x="447" 
d="M275 920l63 -42l-112 -145l-39 26zM414 688v-68l-300 -548h299l-10 -72h-378v68l300 549h-270v71h359z" />
    <glyph glyph-name="Zcaron" unicode="&#x17d;" horiz-adv-x="447" 
d="M341 900l33 -36l-116 -109h-52l-116 109l34 36l108 -80zM414 688v-68l-300 -548h299l-10 -72h-378v68l300 549h-270v71h359z" />
    <glyph glyph-name="Zdotaccent" unicode="&#x17b;" horiz-adv-x="447" 
d="M231 897c34 0 56 -24 56 -56c0 -31 -22 -55 -56 -55c-32 0 -55 24 -55 55c0 32 23 56 55 56zM414 688v-68l-300 -548h299l-10 -72h-378v68l300 549h-270v71h359z" />
    <glyph glyph-name="a" unicode="a" horiz-adv-x="470" 
d="M389 111c0 -41 13 -56 36 -67l-17 -56c-48 8 -77 29 -88 79c-32 -55 -79 -79 -134 -79c-91 0 -146 64 -146 159c0 111 73 172 206 172h63v49c0 73 -30 104 -92 104c-40 0 -79 -10 -125 -28l-20 58c55 23 106 35 156 35c111 0 161 -63 161 -165v-261zM202 50
c48 0 82 29 107 86v128h-54c-89 0 -131 -38 -131 -114c0 -67 29 -100 78 -100z" />
    <glyph glyph-name="aacute" unicode="&#xe1;" horiz-adv-x="470" 
d="M327 726l-182 -86l-24 42l170 110zM389 111c0 -41 13 -56 36 -67l-17 -56c-48 8 -77 29 -88 79c-32 -55 -79 -79 -134 -79c-91 0 -146 64 -146 159c0 111 73 172 206 172h63v49c0 73 -30 104 -92 104c-40 0 -79 -10 -125 -28l-20 58c55 23 106 35 156 35
c111 0 161 -63 161 -165v-261zM202 50c48 0 82 29 107 86v128h-54c-89 0 -131 -38 -131 -114c0 -67 29 -100 78 -100z" />
    <glyph glyph-name="abreve" unicode="&#x103;" horiz-adv-x="470" 
d="M225 646c-69 0 -120 43 -127 126l51 12c12 -51 36 -76 76 -76s67 25 78 76l51 -12c-7 -83 -58 -126 -129 -126zM389 111c0 -41 13 -56 36 -67l-17 -56c-48 8 -77 29 -88 79c-32 -55 -79 -79 -134 -79c-91 0 -146 64 -146 159c0 111 73 172 206 172h63v49
c0 73 -30 104 -92 104c-40 0 -79 -10 -125 -28l-20 58c55 23 106 35 156 35c111 0 161 -63 161 -165v-261zM202 50c48 0 82 29 107 86v128h-54c-89 0 -131 -38 -131 -114c0 -67 29 -100 78 -100z" />
    <glyph glyph-name="acircumflex" unicode="&#xe2;" horiz-adv-x="470" 
d="M227 723l-109 -84l-33 36l116 113h52l116 -113l-34 -36zM389 111c0 -41 13 -56 36 -67l-17 -56c-48 8 -77 29 -88 79c-32 -55 -79 -79 -134 -79c-91 0 -146 64 -146 159c0 111 73 172 206 172h63v49c0 73 -30 104 -92 104c-40 0 -79 -10 -125 -28l-20 58
c55 23 106 35 156 35c111 0 161 -63 161 -165v-261zM202 50c48 0 82 29 107 86v128h-54c-89 0 -131 -38 -131 -114c0 -67 29 -100 78 -100z" />
    <glyph glyph-name="adieresis" unicode="&#xe4;" horiz-adv-x="470" 
d="M137 657c-29 0 -50 22 -50 51s21 52 50 52s50 -23 50 -52s-21 -51 -50 -51zM316 657c-29 0 -50 22 -50 51s21 52 50 52s50 -23 50 -52s-21 -51 -50 -51zM389 111c0 -41 13 -56 36 -67l-17 -56c-48 8 -77 29 -88 79c-32 -55 -79 -79 -134 -79c-91 0 -146 64 -146 159
c0 111 73 172 206 172h63v49c0 73 -30 104 -92 104c-40 0 -79 -10 -125 -28l-20 58c55 23 106 35 156 35c111 0 161 -63 161 -165v-261zM202 50c48 0 82 29 107 86v128h-54c-89 0 -131 -38 -131 -114c0 -67 29 -100 78 -100z" />
    <glyph glyph-name="agrave" unicode="&#xe0;" horiz-adv-x="470" 
d="M338 682l-25 -42l-182 86l37 66zM389 111c0 -41 13 -56 36 -67l-17 -56c-48 8 -77 29 -88 79c-32 -55 -79 -79 -134 -79c-91 0 -146 64 -146 159c0 111 73 172 206 172h63v49c0 73 -30 104 -92 104c-40 0 -79 -10 -125 -28l-20 58c55 23 106 35 156 35
c111 0 161 -63 161 -165v-261zM202 50c48 0 82 29 107 86v128h-54c-89 0 -131 -38 -131 -114c0 -67 29 -100 78 -100z" />
    <glyph glyph-name="amacron" unicode="&#x101;" horiz-adv-x="470" 
d="M343 731v-60h-232v60h232zM389 111c0 -41 13 -56 36 -67l-17 -56c-48 8 -77 29 -88 79c-32 -55 -79 -79 -134 -79c-91 0 -146 64 -146 159c0 111 73 172 206 172h63v49c0 73 -30 104 -92 104c-40 0 -79 -10 -125 -28l-20 58c55 23 106 35 156 35c111 0 161 -63 161 -165
v-261zM202 50c48 0 82 29 107 86v128h-54c-89 0 -131 -38 -131 -114c0 -67 29 -100 78 -100z" />
    <glyph glyph-name="aogonek" unicode="&#x105;" horiz-adv-x="470" 
d="M425 44l-17 -56h-1c-84 -42 -104 -76 -104 -117c0 -30 14 -48 50 -48c17 0 30 2 51 7l-8 -62c-17 -4 -32 -7 -54 -7c-66 0 -107 40 -107 98c0 64 42 110 125 146c-20 12 -33 31 -40 62c-32 -55 -79 -79 -134 -79c-91 0 -146 64 -146 159c0 111 73 172 206 172h63v49
c0 73 -30 104 -92 104c-40 0 -79 -10 -125 -28l-20 58c55 23 106 35 156 35c111 0 161 -63 161 -165v-261c0 -41 13 -56 36 -67zM202 50c48 0 82 29 107 86v128h-54c-89 0 -131 -38 -131 -114c0 -67 29 -100 78 -100z" />
    <glyph glyph-name="aring" unicode="&#xe5;" horiz-adv-x="470" 
d="M226 627c-58 0 -98 39 -98 102s40 102 98 102c59 0 98 -39 98 -102s-39 -102 -98 -102zM226 787c-28 0 -45 -16 -45 -58s17 -58 45 -58c27 0 46 16 46 58s-18 58 -46 58zM389 111c0 -41 13 -56 36 -67l-17 -56c-48 8 -77 29 -88 79c-32 -55 -79 -79 -134 -79
c-91 0 -146 64 -146 159c0 111 73 172 206 172h63v49c0 73 -30 104 -92 104c-40 0 -79 -10 -125 -28l-20 58c55 23 106 35 156 35c111 0 161 -63 161 -165v-261zM202 50c48 0 82 29 107 86v128h-54c-89 0 -131 -38 -131 -114c0 -67 29 -100 78 -100z" />
    <glyph glyph-name="atilde" unicode="&#xe3;" horiz-adv-x="470" 
d="M177 707c-20 0 -32 -16 -47 -44l-46 22c20 48 51 81 91 81c46 0 70 -45 102 -45c17 0 30 14 46 44l47 -22c-22 -57 -55 -81 -91 -81c-46 0 -72 45 -102 45zM389 111c0 -41 13 -56 36 -67l-17 -56c-48 8 -77 29 -88 79c-32 -55 -79 -79 -134 -79c-91 0 -146 64 -146 159
c0 111 73 172 206 172h63v49c0 73 -30 104 -92 104c-40 0 -79 -10 -125 -28l-20 58c55 23 106 35 156 35c111 0 161 -63 161 -165v-261zM202 50c48 0 82 29 107 86v128h-54c-89 0 -131 -38 -131 -114c0 -67 29 -100 78 -100z" />
    <glyph glyph-name="ae" unicode="&#xe6;" horiz-adv-x="735" 
d="M689 280c0 -18 -1 -34 -2 -46h-292c7 -128 57 -179 125 -179c44 0 78 15 116 46l36 -47c-44 -41 -95 -66 -158 -66c-75 0 -132 35 -166 99c-44 -72 -94 -99 -159 -99c-92 0 -149 65 -149 159c0 111 77 172 208 172h63v43c0 77 -29 110 -94 110c-34 0 -76 -11 -122 -29
l-20 59c54 23 105 35 155 35c75 0 115 -32 136 -85c32 54 77 85 142 85c115 0 181 -91 181 -257zM609 295v9c0 114 -34 169 -102 169c-65 0 -106 -53 -112 -178h214zM206 50c48 0 84 30 118 98c-8 32 -13 68 -13 109v3v4h-54c-87 0 -131 -38 -131 -114
c0 -65 29 -100 80 -100z" />
    <glyph glyph-name="b" unicode="b" horiz-adv-x="509" 
d="M291 537c103 0 167 -90 167 -273c0 -173 -69 -276 -177 -276c-50 0 -92 27 -122 70l-7 -58h-71v738l81 8v-286c30 47 73 77 129 77zM264 53c65 0 108 57 108 211c0 160 -40 208 -101 208c-49 0 -84 -39 -109 -83v-264c24 -41 60 -72 102 -72z" />
    <glyph glyph-name="c" unicode="c" horiz-adv-x="408" 
d="M251 537c53 0 95 -16 137 -55l-38 -49c-30 24 -58 38 -96 38c-72 0 -118 -62 -118 -211s46 -203 117 -203c39 0 66 14 98 39l38 -50c-39 -36 -85 -58 -137 -58c-125 0 -203 95 -203 271s79 278 202 278z" />
    <glyph glyph-name="cacute" unicode="&#x107;" horiz-adv-x="408" 
d="M315 792l36 -66l-182 -86l-24 42zM251 537c53 0 95 -16 137 -55l-38 -49c-30 24 -58 38 -96 38c-72 0 -118 -62 -118 -211s46 -203 117 -203c39 0 66 14 98 39l38 -50c-39 -36 -85 -58 -137 -58c-125 0 -203 95 -203 271s79 278 202 278z" />
    <glyph glyph-name="cacute.loclPLK" horiz-adv-x="408" 
d="M293 772l63 -42l-112 -153l-39 25zM251 537c53 0 95 -16 137 -55l-38 -49c-30 24 -58 38 -96 38c-72 0 -118 -62 -118 -211s46 -203 117 -203c39 0 66 14 98 39l38 -50c-39 -36 -85 -58 -137 -58c-125 0 -203 95 -203 271s79 278 202 278z" />
    <glyph glyph-name="ccaron" unicode="&#x10d;" horiz-adv-x="408" 
d="M359 779l33 -37l-116 -113h-52l-116 113l33 37l109 -87zM251 537c53 0 95 -16 137 -55l-38 -49c-30 24 -58 38 -96 38c-72 0 -118 -62 -118 -211s46 -203 117 -203c39 0 66 14 98 39l38 -50c-39 -36 -85 -58 -137 -58c-125 0 -203 95 -203 271s79 278 202 278z" />
    <glyph glyph-name="ccedilla" unicode="&#xe7;" horiz-adv-x="408" 
d="M268 -61c56 -7 80 -38 80 -82c0 -61 -46 -93 -105 -93c-33 0 -60 9 -79 22l24 44c15 -7 29 -13 51 -13c25 0 44 12 44 40c0 30 -22 45 -77 45l9 89c-103 18 -166 110 -166 268c0 176 79 278 202 278c53 0 95 -16 137 -55l-38 -49c-30 24 -58 38 -96 38
c-72 0 -118 -62 -118 -211s46 -203 117 -203c39 0 66 14 98 39l38 -50c-35 -33 -75 -53 -121 -57v-50z" />
    <glyph glyph-name="cdotaccent" unicode="&#x10b;" horiz-adv-x="408" 
d="M249 771c34 0 56 -24 56 -56c0 -31 -22 -55 -56 -55c-32 0 -55 24 -55 55c0 32 23 56 55 56zM251 537c53 0 95 -16 137 -55l-38 -49c-30 24 -58 38 -96 38c-72 0 -118 -62 -118 -211s46 -203 117 -203c39 0 66 14 98 39l38 -50c-39 -36 -85 -58 -137 -58
c-125 0 -203 95 -203 271s79 278 202 278z" />
    <glyph glyph-name="d" unicode="d" horiz-adv-x="512" 
d="M350 748l81 -10v-738h-71l-7 70c-29 -50 -72 -82 -128 -82c-113 0 -175 104 -175 273c0 167 72 276 180 276c55 0 93 -28 120 -63v274zM240 53c49 0 82 31 110 81v267c-27 42 -59 71 -104 71c-66 0 -110 -64 -110 -210c0 -145 39 -209 104 -209z" />
    <glyph glyph-name="eth" unicode="&#xf0;" horiz-adv-x="493" 
d="M294 663c106 -89 145 -213 145 -393c0 -182 -79 -282 -198 -282c-110 0 -192 84 -192 246c0 131 62 239 173 239c55 0 94 -24 127 -64c-14 87 -43 151 -102 206l-65 -74l-55 28l70 80c-34 19 -65 30 -98 38l16 61c46 -11 86 -26 128 -50l61 73l49 -37zM241 53
c70 0 116 68 116 218c0 21 -1 39 -2 57c-29 52 -67 81 -118 81c-76 0 -105 -69 -105 -172c0 -126 42 -184 109 -184z" />
    <glyph glyph-name="dcaron" unicode="&#x10f;" horiz-adv-x="512" 
d="M350 474v274l81 -10v-738h-71l-7 70c-29 -50 -72 -82 -128 -82c-113 0 -175 104 -175 273c0 167 72 276 180 276c55 0 93 -28 120 -63zM489 746l47 -48l-18 -138l-23 47zM240 53c49 0 82 31 110 81v267c-27 42 -59 71 -104 71c-66 0 -110 -64 -110 -210
c0 -145 39 -209 104 -209z" />
    <glyph glyph-name="dcroat" unicode="&#x111;" horiz-adv-x="517" 
d="M431 671h66v-62h-66v-609h-71l-7 70c-29 -50 -72 -82 -128 -82c-113 0 -175 104 -175 273c0 167 72 276 180 276c55 0 93 -28 120 -63v135h-132v62h132v77l81 -10v-67zM240 53c49 0 82 31 110 81v267c-27 42 -59 71 -104 71c-66 0 -110 -64 -110 -210
c0 -145 39 -209 104 -209z" />
    <glyph glyph-name="e" unicode="e" horiz-adv-x="472" 
d="M427 280c0 -18 -1 -34 -2 -46h-292c6 -135 54 -179 122 -179c48 0 81 15 119 46l37 -47c-44 -41 -95 -66 -159 -66c-126 0 -203 95 -203 270c0 172 72 279 193 279c120 0 185 -90 185 -257zM348 295v9c0 115 -34 169 -105 169c-62 0 -104 -47 -110 -178h215z" />
    <glyph glyph-name="eacute" unicode="&#xe9;" horiz-adv-x="472" 
d="M343 726l-182 -86l-24 42l170 110zM427 280c0 -18 -1 -34 -2 -46h-292c6 -135 54 -179 122 -179c48 0 81 15 119 46l37 -47c-44 -41 -95 -66 -159 -66c-126 0 -203 95 -203 270c0 172 72 279 193 279c120 0 185 -90 185 -257zM348 295v9c0 115 -34 169 -105 169
c-62 0 -104 -47 -110 -178h215z" />
    <glyph glyph-name="ecaron" unicode="&#x11b;" horiz-adv-x="472" 
d="M268 629h-52l-116 113l33 37l109 -87l109 87l33 -37zM427 280c0 -18 -1 -34 -2 -46h-292c6 -135 54 -179 122 -179c48 0 81 15 119 46l37 -47c-44 -41 -95 -66 -159 -66c-126 0 -203 95 -203 270c0 172 72 279 193 279c120 0 185 -90 185 -257zM348 295v9
c0 115 -34 169 -105 169c-62 0 -104 -47 -110 -178h215z" />
    <glyph glyph-name="ecircumflex" unicode="&#xea;" horiz-adv-x="472" 
d="M242 723l-109 -84l-33 36l116 113h52l116 -113l-34 -36zM427 280c0 -18 -1 -34 -2 -46h-292c6 -135 54 -179 122 -179c48 0 81 15 119 46l37 -47c-44 -41 -95 -66 -159 -66c-126 0 -203 95 -203 270c0 172 72 279 193 279c120 0 185 -90 185 -257zM348 295v9
c0 115 -34 169 -105 169c-62 0 -104 -47 -110 -178h215z" />
    <glyph glyph-name="edieresis" unicode="&#xeb;" horiz-adv-x="472" 
d="M152 657c-29 0 -50 22 -50 51s21 52 50 52s50 -23 50 -52s-21 -51 -50 -51zM331 657c-29 0 -50 22 -50 51s21 52 50 52s50 -23 50 -52s-21 -51 -50 -51zM427 280c0 -18 -1 -34 -2 -46h-292c6 -135 54 -179 122 -179c48 0 81 15 119 46l37 -47c-44 -41 -95 -66 -159 -66
c-126 0 -203 95 -203 270c0 172 72 279 193 279c120 0 185 -90 185 -257zM348 295v9c0 115 -34 169 -105 169c-62 0 -104 -47 -110 -178h215z" />
    <glyph glyph-name="edotaccent" unicode="&#x117;" horiz-adv-x="472" 
d="M241 660c-32 0 -55 24 -55 55c0 32 23 56 55 56c34 0 56 -24 56 -56c0 -31 -22 -55 -56 -55zM427 280c0 -18 -1 -34 -2 -46h-292c6 -135 54 -179 122 -179c48 0 81 15 119 46l37 -47c-44 -41 -95 -66 -159 -66c-126 0 -203 95 -203 270c0 172 72 279 193 279
c120 0 185 -90 185 -257zM348 295v9c0 115 -34 169 -105 169c-62 0 -104 -47 -110 -178h215z" />
    <glyph glyph-name="egrave" unicode="&#xe8;" horiz-adv-x="472" 
d="M353 682l-25 -42l-182 86l37 66zM427 280c0 -18 -1 -34 -2 -46h-292c6 -135 54 -179 122 -179c48 0 81 15 119 46l37 -47c-44 -41 -95 -66 -159 -66c-126 0 -203 95 -203 270c0 172 72 279 193 279c120 0 185 -90 185 -257zM348 295v9c0 115 -34 169 -105 169
c-62 0 -104 -47 -110 -178h215z" />
    <glyph glyph-name="emacron" unicode="&#x113;" horiz-adv-x="472" 
d="M358 731v-60h-232v60h232zM427 280c0 -18 -1 -34 -2 -46h-292c6 -135 54 -179 122 -179c48 0 81 15 119 46l37 -47c-44 -41 -95 -66 -159 -66c-126 0 -203 95 -203 270c0 172 72 279 193 279c120 0 185 -90 185 -257zM348 295v9c0 115 -34 169 -105 169
c-62 0 -104 -47 -110 -178h215z" />
    <glyph glyph-name="eogonek" unicode="&#x119;" horiz-adv-x="472" 
d="M427 280c0 -18 -1 -34 -2 -46h-292c6 -135 54 -179 122 -179c48 0 81 15 119 46l37 -47c-23 -21 -48 -38 -75 -49c-81 -42 -102 -75 -102 -114c0 -31 15 -50 50 -50c18 0 31 2 52 7l-8 -62c-17 -4 -33 -7 -54 -7c-66 0 -107 41 -107 98c0 46 26 84 74 112
c-120 5 -192 99 -192 269c0 172 72 279 193 279c120 0 185 -90 185 -257zM348 295v9c0 115 -34 169 -105 169c-62 0 -104 -47 -110 -178h215z" />
    <glyph glyph-name="f" unicode="f" horiz-adv-x="291" 
d="M239 682c-48 0 -69 -22 -69 -72v-84h113l-9 -64h-104v-462h-81v462h-77v64h77v84c0 80 51 138 144 138c42 0 75 -10 110 -28l-25 -57c-29 14 -55 19 -79 19z" />
    <glyph glyph-name="g" unicode="g" horiz-adv-x="449" 
d="M422 579l24 -73c-34 -13 -76 -16 -129 -16c52 -27 80 -71 80 -136c0 -106 -65 -176 -174 -176c-20 0 -38 3 -56 10c-16 -12 -25 -32 -25 -53c0 -28 13 -48 62 -48h63c102 0 163 -62 163 -140c0 -94 -71 -157 -212 -157c-149 0 -197 57 -197 156h73c0 -64 25 -92 124 -92
c97 0 131 33 131 87s-34 80 -98 80h-49c-97 0 -134 42 -134 97c0 34 21 65 53 90c-54 32 -79 79 -79 148c0 109 73 181 179 181c110 -1 152 18 201 42zM220 478c-64 0 -97 -42 -97 -122c0 -74 35 -123 97 -123s96 36 96 123c0 79 -31 122 -96 122z" />
    <glyph glyph-name="gbreve" unicode="&#x11f;" horiz-adv-x="449" 
d="M223 646c-69 0 -120 43 -127 126l51 12c12 -51 36 -76 76 -76s67 25 78 76l51 -12c-7 -83 -58 -126 -129 -126zM422 579l24 -73c-34 -13 -76 -16 -129 -16c52 -27 80 -71 80 -136c0 -106 -65 -176 -174 -176c-20 0 -38 3 -56 10c-16 -12 -25 -32 -25 -53
c0 -28 13 -48 62 -48h63c102 0 163 -62 163 -140c0 -94 -71 -157 -212 -157c-149 0 -197 57 -197 156h73c0 -64 25 -92 124 -92c97 0 131 33 131 87s-34 80 -98 80h-49c-97 0 -134 42 -134 97c0 34 21 65 53 90c-54 32 -79 79 -79 148c0 109 73 181 179 181
c110 -1 152 18 201 42zM220 478c-64 0 -97 -42 -97 -122c0 -74 35 -123 97 -123s96 36 96 123c0 79 -31 122 -96 122z" />
    <glyph glyph-name="gcommaaccent" unicode="&#x123;" horiz-adv-x="449" 
d="M221 585c-29 0 -50 21 -50 51c0 17 5 32 22 74l36 86h45l-28 -116c16 -10 25 -26 25 -44c0 -29 -21 -51 -50 -51zM422 579l24 -73c-34 -13 -76 -16 -129 -16c52 -27 80 -71 80 -136c0 -106 -65 -176 -174 -176c-20 0 -38 3 -56 10c-16 -12 -25 -32 -25 -53
c0 -28 13 -48 62 -48h63c102 0 163 -62 163 -140c0 -94 -71 -157 -212 -157c-149 0 -197 57 -197 156h73c0 -64 25 -92 124 -92c97 0 131 33 131 87s-34 80 -98 80h-49c-97 0 -134 42 -134 97c0 34 21 65 53 90c-54 32 -79 79 -79 148c0 109 73 181 179 181
c110 -1 152 18 201 42zM220 478c-64 0 -97 -42 -97 -122c0 -74 35 -123 97 -123s96 36 96 123c0 79 -31 122 -96 122z" />
    <glyph glyph-name="gdotaccent" unicode="&#x121;" horiz-adv-x="449" 
d="M223 771c34 0 56 -24 56 -56c0 -31 -22 -55 -56 -55c-32 0 -55 24 -55 55c0 32 23 56 55 56zM422 579l24 -73c-34 -13 -76 -16 -129 -16c52 -27 80 -71 80 -136c0 -106 -65 -176 -174 -176c-20 0 -38 3 -56 10c-16 -12 -25 -32 -25 -53c0 -28 13 -48 62 -48h63
c102 0 163 -62 163 -140c0 -94 -71 -157 -212 -157c-149 0 -197 57 -197 156h73c0 -64 25 -92 124 -92c97 0 131 33 131 87s-34 80 -98 80h-49c-97 0 -134 42 -134 97c0 34 21 65 53 90c-54 32 -79 79 -79 148c0 109 73 181 179 181c110 -1 152 18 201 42zM220 478
c-64 0 -97 -42 -97 -122c0 -74 35 -123 97 -123s96 36 96 123c0 79 -31 122 -96 122z" />
    <glyph glyph-name="h" unicode="h" horiz-adv-x="505" 
d="M298 537c82 0 130 -60 130 -161v-376h-81v365c0 82 -25 108 -68 108c-47 0 -85 -39 -117 -100v-373h-81v737l81 9v-297c33 54 74 88 136 88z" />
    <glyph glyph-name="hbar" unicode="&#x127;" horiz-adv-x="509" 
d="M303 537c81 0 130 -60 130 -161v-376h-81v365c0 82 -25 108 -68 108c-48 0 -86 -39 -118 -100v-373h-81v609h-65v62h65v66l81 9v-75h129v-62h-129v-159c33 53 75 87 137 87z" />
    <glyph glyph-name="i" unicode="i" horiz-adv-x="242" 
d="M120 771c34 0 56 -24 56 -56c0 -31 -22 -55 -56 -55c-32 0 -55 24 -55 55c0 32 23 56 55 56zM162 526v-526h-81v526h81z" />
    <glyph glyph-name="iacute" unicode="&#xed;" horiz-adv-x="242" 
d="M186 792l36 -66l-182 -86l-24 42zM162 526v-526h-81v526h81z" />
    <glyph glyph-name="icircumflex" unicode="&#xee;" horiz-adv-x="242" 
d="M12 639l-33 36l116 113h52l116 -113l-34 -36l-108 84zM162 526v-526h-81v526h81z" />
    <glyph glyph-name="idieresis" unicode="&#xef;" horiz-adv-x="242" 
d="M31 760c29 0 50 -23 50 -52s-21 -51 -50 -51s-50 22 -50 51s21 52 50 52zM210 760c29 0 50 -23 50 -52s-21 -51 -50 -51s-50 22 -50 51s21 52 50 52zM162 526v-526h-81v526h81z" />
    <glyph glyph-name="i.loclTRK" horiz-adv-x="242" 
d="M120 771c34 0 56 -24 56 -56c0 -31 -22 -55 -56 -55c-32 0 -55 24 -55 55c0 32 23 56 55 56zM162 526v-526h-81v526h81z" />
    <glyph glyph-name="igrave" unicode="&#xec;" horiz-adv-x="242" 
d="M62 792l170 -110l-25 -42l-182 86zM162 526v-526h-81v526h81z" />
    <glyph glyph-name="imacron" unicode="&#x12b;" horiz-adv-x="242" 
d="M237 671h-232v60h232v-60zM162 526v-526h-81v526h81z" />
    <glyph glyph-name="iogonek" unicode="&#x12f;" horiz-adv-x="242" 
d="M120 660c-32 0 -55 24 -55 55c0 32 23 56 55 56c34 0 56 -24 56 -56c0 -31 -22 -55 -56 -55zM81 2v524h81v-526h-5c-84 -42 -104 -76 -104 -117c0 -30 14 -48 50 -48c17 0 30 2 51 7l-8 -62c-17 -4 -32 -7 -54 -7c-66 0 -107 40 -107 98c0 56 32 98 96 131z" />
    <glyph glyph-name="j" unicode="j" horiz-adv-x="242" 
d="M119 771c34 0 56 -24 56 -56c0 -31 -22 -55 -56 -55c-32 0 -55 24 -55 55c0 32 23 56 55 56zM161 526v-499c0 -145 -51 -188 -144 -236l-25 59c59 32 88 60 88 173v503h81z" />
    <glyph glyph-name="k" unicode="k" horiz-adv-x="441" 
d="M162 748v-748h-81v738zM424 526l-171 -234l189 -292h-92l-183 287l172 239h85z" />
    <glyph glyph-name="kcommaaccent" unicode="&#x137;" horiz-adv-x="441" 
d="M162 748v-748h-81v738zM424 526l-171 -234l189 -292h-92l-183 287l172 239h85zM227 -80c29 0 50 -21 50 -51c0 -17 -5 -32 -22 -74l-36 -86h-45l28 116c-16 10 -25 26 -25 44c0 29 21 51 50 51z" />
    <glyph glyph-name="l" unicode="l" horiz-adv-x="253" 
d="M171 -12c-57 0 -95 39 -95 103v647l81 10v-655c0 -23 9 -37 30 -37c11 0 21 2 28 5l19 -56c-16 -9 -38 -17 -63 -17z" />
    <glyph glyph-name="lacute" unicode="&#x13a;" horiz-adv-x="253" 
d="M185 953l34 -69l-185 -78l-21 44zM171 -12c-57 0 -95 39 -95 103v647l81 10v-655c0 -23 9 -37 30 -37c11 0 21 2 28 5l19 -56c-16 -9 -38 -17 -63 -17z" />
    <glyph glyph-name="lcaron" unicode="&#x13e;" horiz-adv-x="253" 
d="M171 -12c-57 0 -95 39 -95 103v647l81 10v-655c0 -23 9 -37 30 -37c11 0 21 2 28 5l19 -56c-16 -9 -38 -17 -63 -17zM215 746l47 -48l-18 -138l-23 47z" />
    <glyph glyph-name="lcommaaccent" unicode="&#x13c;" horiz-adv-x="253" 
d="M171 -12c-57 0 -95 39 -95 103v647l81 10v-655c0 -23 9 -37 30 -37c11 0 21 2 28 5l19 -56c-16 -9 -38 -17 -63 -17zM156 -80c29 0 50 -21 50 -51c0 -17 -5 -32 -22 -74l-36 -86h-45l28 116c-16 10 -25 26 -25 44c0 29 21 51 50 51z" />
    <glyph glyph-name="ldot" unicode="&#x140;" horiz-adv-x="290" 
d="M171 -12c-57 0 -95 39 -95 103v647l81 10v-655c0 -23 9 -37 30 -37c11 0 21 2 28 5l19 -56c-16 -9 -38 -17 -63 -17zM260 433c34 0 56 -24 56 -56c0 -31 -22 -55 -56 -55c-32 0 -55 24 -55 55c0 32 23 56 55 56z" />
    <glyph glyph-name="lslash" unicode="&#x142;" horiz-adv-x="273" 
d="M196 56c11 0 21 2 28 5l20 -56c-17 -9 -39 -17 -63 -17c-58 0 -96 39 -96 103v216l-44 -30l-30 50l74 53v358l81 10v-314l76 51l29 -51l-105 -72v-269c0 -23 9 -37 30 -37z" />
    <glyph glyph-name="m" unicode="m" horiz-adv-x="736" 
d="M538 537c75 0 122 -61 122 -161v-376h-80v366c0 81 -24 108 -61 108c-44 0 -78 -40 -108 -97v-377h-80v366c0 81 -26 108 -62 108c-45 0 -79 -40 -109 -97v-377h-79v526h69l6 -79c32 53 74 90 133 90c56 0 96 -35 113 -96c32 56 75 96 136 96z" />
    <glyph glyph-name="n" unicode="n" horiz-adv-x="505" 
d="M298 537c82 0 130 -60 130 -161v-376h-81v365c0 82 -24 108 -67 108c-48 0 -86 -39 -118 -100v-373h-81v526h69l7 -81c34 55 76 92 141 92z" />
    <glyph glyph-name="nacute" unicode="&#x144;" horiz-adv-x="505" 
d="M357 726l-182 -86l-24 42l170 110zM298 537c82 0 130 -60 130 -161v-376h-81v365c0 82 -24 108 -67 108c-48 0 -86 -39 -118 -100v-373h-81v526h69l7 -81c34 55 76 92 141 92z" />
    <glyph glyph-name="nacute.loclPLK" horiz-adv-x="505" 
d="M362 730l-112 -153l-39 25l88 170zM298 537c82 0 130 -60 130 -161v-376h-81v365c0 82 -24 108 -67 108c-48 0 -86 -39 -118 -100v-373h-81v526h69l7 -81c34 55 76 92 141 92z" />
    <glyph glyph-name="napostrophe" unicode="&#x149;" horiz-adv-x="599" 
d="M91 750c29 0 50 -22 50 -51c0 -16 -6 -32 -22 -74l-32 -86h-45l24 116c-16 10 -25 25 -25 44c0 29 21 51 50 51zM392 537c82 0 130 -60 130 -161v-376h-81v365c0 82 -24 108 -67 108c-48 0 -86 -39 -118 -100v-373h-81v526h69l8 -81c33 55 75 92 140 92z" />
    <glyph glyph-name="ncaron" unicode="&#x148;" horiz-adv-x="505" 
d="M283 629h-52l-116 113l33 37l109 -87l109 87l33 -37zM298 537c82 0 130 -60 130 -161v-376h-81v365c0 82 -24 108 -67 108c-48 0 -86 -39 -118 -100v-373h-81v526h69l7 -81c34 55 76 92 141 92z" />
    <glyph glyph-name="ncommaaccent" unicode="&#x146;" horiz-adv-x="505" 
d="M298 537c82 0 130 -60 130 -161v-376h-81v365c0 82 -24 108 -67 108c-48 0 -86 -39 -118 -100v-373h-81v526h69l7 -81c34 55 76 92 141 92zM254 -80c29 0 50 -21 50 -51c0 -17 -5 -32 -22 -74l-36 -86h-45l28 116c-16 10 -25 26 -25 44c0 29 21 51 50 51z" />
    <glyph glyph-name="eng" unicode="&#x14b;" horiz-adv-x="505" 
d="M428 376v-376v-62c0 -98 -53 -148 -131 -148c-46 0 -78 18 -100 36l33 49c19 -11 33 -20 61 -20c34 0 56 21 56 75v71v364c0 82 -24 108 -67 108c-48 0 -86 -39 -118 -100v-373h-81v526h69l7 -81c34 55 76 92 141 92c82 0 130 -60 130 -161z" />
    <glyph glyph-name="ntilde" unicode="&#xf1;" horiz-adv-x="505" 
d="M207 707c-20 0 -32 -16 -47 -44l-46 22c20 48 51 81 91 81c46 0 70 -45 102 -45c17 0 30 14 46 44l47 -22c-22 -57 -55 -81 -91 -81c-46 0 -72 45 -102 45zM298 537c82 0 130 -60 130 -161v-376h-81v365c0 82 -24 108 -67 108c-48 0 -86 -39 -118 -100v-373h-81v526h69
l7 -81c34 55 76 92 141 92z" />
    <glyph glyph-name="o" unicode="o" horiz-adv-x="504" 
d="M252 537c128 0 203 -94 203 -273c0 -170 -76 -276 -204 -276c-127 0 -202 103 -202 274c0 176 76 275 203 275zM252 471c-75 0 -117 -59 -117 -209c0 -147 42 -208 116 -208c76 0 118 60 118 210c0 148 -42 207 -117 207z" />
    <glyph glyph-name="oacute" unicode="&#xf3;" horiz-adv-x="504" 
d="M316 792l36 -66l-182 -86l-24 42zM252 537c128 0 203 -94 203 -273c0 -170 -76 -276 -204 -276c-127 0 -202 103 -202 274c0 176 76 275 203 275zM252 471c-75 0 -117 -59 -117 -209c0 -147 42 -208 116 -208c76 0 118 60 118 210c0 148 -42 207 -117 207z" />
    <glyph glyph-name="oacute.loclPLK" horiz-adv-x="504" 
d="M294 772l63 -42l-112 -153l-39 25zM252 537c128 0 203 -94 203 -273c0 -170 -76 -276 -204 -276c-127 0 -202 103 -202 274c0 176 76 275 203 275zM252 471c-75 0 -117 -59 -117 -209c0 -147 42 -208 116 -208c76 0 118 60 118 210c0 148 -42 207 -117 207z" />
    <glyph glyph-name="ocircumflex" unicode="&#xf4;" horiz-adv-x="504" 
d="M143 639l-33 36l116 113h52l116 -113l-34 -36l-108 84zM252 537c128 0 203 -94 203 -273c0 -170 -76 -276 -204 -276c-127 0 -202 103 -202 274c0 176 76 275 203 275zM252 471c-75 0 -117 -59 -117 -209c0 -147 42 -208 116 -208c76 0 118 60 118 210
c0 148 -42 207 -117 207z" />
    <glyph glyph-name="odieresis" unicode="&#xf6;" horiz-adv-x="504" 
d="M162 760c29 0 50 -23 50 -52s-21 -51 -50 -51s-50 22 -50 51s21 52 50 52zM341 760c29 0 50 -23 50 -52s-21 -51 -50 -51s-50 22 -50 51s21 52 50 52zM252 537c128 0 203 -94 203 -273c0 -170 -76 -276 -204 -276c-127 0 -202 103 -202 274c0 176 76 275 203 275z
M252 471c-75 0 -117 -59 -117 -209c0 -147 42 -208 116 -208c76 0 118 60 118 210c0 148 -42 207 -117 207z" />
    <glyph glyph-name="ograve" unicode="&#xf2;" horiz-adv-x="504" 
d="M193 792l170 -110l-25 -42l-182 86zM252 537c128 0 203 -94 203 -273c0 -170 -76 -276 -204 -276c-127 0 -202 103 -202 274c0 176 76 275 203 275zM252 471c-75 0 -117 -59 -117 -209c0 -147 42 -208 116 -208c76 0 118 60 118 210c0 148 -42 207 -117 207z" />
    <glyph glyph-name="ohungarumlaut" unicode="&#x151;" horiz-adv-x="504" 
d="M355 824l65 -35l-90 -152l-47 21zM227 823l65 -34l-83 -147l-47 20zM252 537c128 0 203 -94 203 -273c0 -170 -76 -276 -204 -276c-127 0 -202 103 -202 274c0 176 76 275 203 275zM252 471c-75 0 -117 -59 -117 -209c0 -147 42 -208 116 -208c76 0 118 60 118 210
c0 148 -42 207 -117 207z" />
    <glyph glyph-name="omacron" unicode="&#x14d;" horiz-adv-x="504" 
d="M368 671h-232v60h232v-60zM252 537c128 0 203 -94 203 -273c0 -170 -76 -276 -204 -276c-127 0 -202 103 -202 274c0 176 76 275 203 275zM252 471c-75 0 -117 -59 -117 -209c0 -147 42 -208 116 -208c76 0 118 60 118 210c0 148 -42 207 -117 207z" />
    <glyph glyph-name="oslash" unicode="&#xf8;" horiz-adv-x="504" 
d="M357 509c63 -40 98 -123 98 -245c0 -170 -76 -276 -204 -276c-15 0 -30 2 -43 5l-34 -121l-64 18l38 128c-64 42 -99 127 -99 244c0 176 76 275 203 275c16 0 31 -1 45 -4l34 120l63 -18zM252 472c-76 0 -119 -59 -119 -210c0 -96 15 -152 44 -181l107 388
c-10 2 -20 3 -32 3zM251 53c78 0 120 61 120 211c0 96 -15 152 -44 181l-105 -389c9 -2 19 -3 29 -3z" />
    <glyph glyph-name="otilde" unicode="&#xf5;" horiz-adv-x="504" 
d="M304 662c-46 0 -72 45 -102 45c-20 0 -32 -16 -47 -44l-46 22c20 48 51 81 91 81c46 0 70 -45 102 -45c17 0 30 14 46 44l47 -22c-22 -57 -55 -81 -91 -81zM252 537c128 0 203 -94 203 -273c0 -170 -76 -276 -204 -276c-127 0 -202 103 -202 274c0 176 76 275 203 275z
M252 471c-75 0 -117 -59 -117 -209c0 -147 42 -208 116 -208c76 0 118 60 118 210c0 148 -42 207 -117 207z" />
    <glyph glyph-name="oe" unicode="&#x153;" horiz-adv-x="786" 
d="M744 280c0 -18 -1 -34 -2 -46h-292c7 -128 57 -179 122 -179c47 0 81 15 119 46l36 -47c-43 -41 -94 -66 -158 -66c-77 0 -129 43 -162 111c-33 -67 -85 -111 -158 -111c-128 0 -202 100 -202 274c0 172 75 275 203 275c74 0 126 -40 159 -107c32 66 82 107 153 107
c116 0 182 -94 182 -257zM665 295v9c0 111 -35 168 -103 168c-65 0 -106 -53 -112 -177h215zM249 54c75 0 116 68 116 210c0 140 -41 207 -115 207c-75 0 -118 -59 -118 -209c0 -147 42 -208 117 -208z" />
    <glyph glyph-name="p" unicode="p" horiz-adv-x="509" 
d="M293 537c111 0 165 -98 165 -273c0 -169 -62 -276 -177 -276c-50 0 -90 23 -119 62v-250l-81 -10v736h70l6 -71c33 52 78 82 136 82zM264 55c69 0 108 61 108 209s-33 208 -99 208c-50 0 -86 -38 -111 -81v-271c25 -40 59 -65 102 -65z" />
    <glyph glyph-name="thorn" unicode="&#xfe;" horiz-adv-x="509" 
d="M293 537c111 0 165 -98 165 -273c0 -169 -62 -276 -177 -276c-50 0 -90 23 -119 64v-249l-81 -13v948l81 10v-288c32 50 76 77 131 77zM264 55c69 0 108 61 108 209s-33 208 -99 208c-50 0 -86 -38 -111 -81v-271c25 -40 59 -65 102 -65z" />
    <glyph glyph-name="q" unicode="q" horiz-adv-x="512" 
d="M361 526h70v-736l-81 10v267c-27 -47 -70 -79 -126 -79c-109 0 -174 101 -174 273c0 168 71 276 180 276c58 0 98 -32 126 -71zM240 53c49 0 81 30 110 82v266c-27 43 -60 71 -105 71c-63 0 -109 -62 -109 -210s40 -209 104 -209z" />
    <glyph glyph-name="r" unicode="r" horiz-adv-x="334" 
d="M282 537c16 0 30 -2 43 -6l-14 -78c-13 3 -23 5 -39 5c-57 0 -91 -48 -110 -146v-312h-81v526h69l7 -102c26 76 67 113 125 113z" />
    <glyph glyph-name="racute" unicode="&#x155;" horiz-adv-x="334" 
d="M305 726l-182 -86l-24 42l170 110zM282 537c16 0 30 -2 43 -6l-14 -78c-13 3 -23 5 -39 5c-57 0 -91 -48 -110 -146v-312h-81v526h69l7 -102c26 76 67 113 125 113z" />
    <glyph glyph-name="rcaron" unicode="&#x159;" horiz-adv-x="334" 
d="M230 629h-52l-116 113l33 37l109 -87l109 87l33 -37zM157 424c26 76 67 113 125 113c16 0 30 -2 43 -6l-14 -78c-13 3 -23 5 -39 5c-57 0 -91 -48 -110 -146v-312h-81v526h69z" />
    <glyph glyph-name="rcommaaccent" unicode="&#x157;" horiz-adv-x="334" 
d="M282 537c16 0 30 -2 43 -6l-14 -78c-13 3 -23 5 -39 5c-57 0 -91 -48 -110 -146v-312h-81v526h69l7 -102c26 76 67 113 125 113zM122 -80c29 0 50 -21 50 -51c0 -17 -5 -32 -22 -74l-36 -86h-45l28 116c-16 10 -25 26 -25 44c0 29 21 51 50 51z" />
    <glyph glyph-name="s" unicode="s" horiz-adv-x="408" 
d="M208 537c62 0 111 -21 153 -59l-35 -48c-39 28 -73 44 -116 44c-52 0 -85 -29 -85 -77c0 -45 24 -66 102 -92c96 -33 147 -74 147 -160c0 -104 -83 -157 -179 -157c-76 0 -131 29 -171 69l43 46c36 -31 77 -50 126 -50c59 0 98 31 98 87c0 55 -24 77 -112 107
c-98 34 -136 78 -136 148c0 81 69 142 165 142z" />
    <glyph glyph-name="sacute" unicode="&#x15b;" horiz-adv-x="408" 
d="M276 792l36 -66l-182 -86l-24 42zM208 537c62 0 111 -21 153 -59l-35 -48c-39 28 -73 44 -116 44c-52 0 -85 -29 -85 -77c0 -45 24 -66 102 -92c96 -33 147 -74 147 -160c0 -104 -83 -157 -179 -157c-76 0 -131 29 -171 69l43 46c36 -31 77 -50 126 -50c59 0 98 31 98 87
c0 55 -24 77 -112 107c-98 34 -136 78 -136 148c0 81 69 142 165 142z" />
    <glyph glyph-name="sacute.loclPLK" horiz-adv-x="408" 
d="M254 772l63 -42l-112 -153l-39 25zM208 537c62 0 111 -21 153 -59l-35 -48c-39 28 -73 44 -116 44c-52 0 -85 -29 -85 -77c0 -45 24 -66 102 -92c96 -33 147 -74 147 -160c0 -104 -83 -157 -179 -157c-76 0 -131 29 -171 69l43 46c36 -31 77 -50 126 -50
c59 0 98 31 98 87c0 55 -24 77 -112 107c-98 34 -136 78 -136 148c0 81 69 142 165 142z" />
    <glyph glyph-name="scaron" unicode="&#x161;" horiz-adv-x="408" 
d="M321 779l33 -37l-116 -113h-52l-116 113l33 37l109 -87zM208 537c62 0 111 -21 153 -59l-35 -48c-39 28 -73 44 -116 44c-52 0 -85 -29 -85 -77c0 -45 24 -66 102 -92c96 -33 147 -74 147 -160c0 -104 -83 -157 -179 -157c-76 0 -131 29 -171 69l43 46
c36 -31 77 -50 126 -50c59 0 98 31 98 87c0 55 -24 77 -112 107c-98 34 -136 78 -136 148c0 81 69 142 165 142z" />
    <glyph glyph-name="scedilla" unicode="&#x15f;" horiz-adv-x="408" 
d="M374 145c0 -92 -65 -144 -147 -155v-51c56 -7 80 -38 80 -82c0 -61 -46 -93 -105 -93c-33 0 -60 9 -79 22l24 44c15 -7 29 -13 51 -13c25 0 44 12 44 40c0 30 -22 45 -77 45l8 87c-64 5 -113 32 -149 68l43 46c36 -31 77 -50 126 -50c59 0 98 31 98 87
c0 55 -24 77 -112 107c-98 34 -136 78 -136 148c0 81 69 142 165 142c62 0 111 -21 153 -59l-35 -48c-39 28 -73 44 -116 44c-52 0 -85 -29 -85 -77c0 -45 24 -66 102 -92c96 -33 147 -74 147 -160z" />
    <glyph glyph-name="scommaaccent" unicode="&#x219;" horiz-adv-x="408" 
d="M208 537c62 0 111 -21 153 -59l-35 -48c-39 28 -73 44 -116 44c-52 0 -85 -29 -85 -77c0 -45 24 -66 102 -92c96 -33 147 -74 147 -160c0 -104 -83 -157 -179 -157c-76 0 -131 29 -171 69l43 46c36 -31 77 -50 126 -50c59 0 98 31 98 87c0 55 -24 77 -112 107
c-98 34 -136 78 -136 148c0 81 69 142 165 142zM206 -80c29 0 50 -21 50 -51c0 -17 -5 -32 -22 -74l-36 -86h-45l28 116c-16 10 -25 26 -25 44c0 29 21 51 50 51z" />
    <glyph glyph-name="germandbls" unicode="&#xdf;" horiz-adv-x="510" 
d="M256 748c95 0 154 -62 154 -139c0 -109 -95 -121 -95 -183c0 -81 163 -98 163 -266c0 -106 -70 -172 -153 -172c-40 0 -67 9 -89 23l25 55c13 -6 29 -12 55 -12c46 0 79 36 79 107c0 138 -154 149 -154 260c0 82 93 92 93 185c0 51 -34 78 -79 78c-59 0 -93 -43 -93 -122
v-562h-81v563c0 111 67 185 175 185z" />
    <glyph glyph-name="t" unicode="t" horiz-adv-x="313" 
d="M282 75l32 -52c-31 -23 -65 -35 -103 -35c-79 0 -124 50 -124 131v343h-76v64h76v121l81 9v-130h109l-9 -64h-100v-342c0 -41 15 -64 55 -64c21 0 38 7 59 19z" />
    <glyph glyph-name="tbar" unicode="&#x167;" horiz-adv-x="313" 
d="M282 75l32 -52c-31 -23 -65 -35 -103 -35c-79 0 -124 50 -124 131v173h-71v63h71v107h-76v64h76v121l81 9v-130h109l-9 -64h-100v-107h94v-63h-94v-172c0 -41 15 -64 55 -64c21 0 38 7 59 19z" />
    <glyph glyph-name="tcaron" unicode="&#x165;" horiz-adv-x="313" 
d="M242 568l-23 47l-6 139l47 -48zM282 75l32 -52c-31 -23 -65 -35 -103 -35c-79 0 -124 50 -124 131v343h-76v64h76v121l81 9v-130h109l-9 -64h-100v-342c0 -41 15 -64 55 -64c21 0 38 7 59 19z" />
    <glyph glyph-name="uni0163" unicode="&#x163;" horiz-adv-x="313" 
d="M224 -61c56 -7 80 -38 80 -82c0 -61 -46 -93 -105 -93c-33 0 -60 9 -79 22l24 44c15 -7 29 -13 51 -13c25 0 44 12 44 40c0 30 -22 45 -77 45l9 91c-54 15 -84 60 -84 126v343h-76v64h76v121l81 9v-130h109l-9 -64h-100v-342c0 -41 15 -64 55 -64c21 0 38 7 59 19l32 -52
c-27 -20 -57 -32 -90 -34v-50z" />
    <glyph glyph-name="uni021B" unicode="&#x21b;" horiz-adv-x="313" 
d="M314 23c-31 -23 -65 -35 -103 -35c-79 0 -124 50 -124 131v343h-76v64h76v121l81 9v-130h109l-9 -64h-100v-342c0 -41 15 -64 55 -64c21 0 38 7 59 19zM203 -80c29 0 50 -21 50 -51c0 -17 -5 -32 -22 -74l-36 -86h-45l28 116c-16 10 -25 26 -25 44c0 29 21 51 50 51z" />
    <glyph glyph-name="u" unicode="u" horiz-adv-x="501" 
d="M421 526v-526h-70l-6 79c-33 -57 -76 -91 -139 -91c-80 0 -130 58 -130 146v392h81v-383c0 -61 23 -91 68 -91c51 0 87 41 115 94v380h81z" />
    <glyph glyph-name="uacute" unicode="&#xfa;" horiz-adv-x="501" 
d="M313 792l36 -66l-182 -86l-24 42zM421 526v-526h-70l-6 79c-33 -57 -76 -91 -139 -91c-80 0 -130 58 -130 146v392h81v-383c0 -61 23 -91 68 -91c51 0 87 41 115 94v380h81z" />
    <glyph glyph-name="ucircumflex" unicode="&#xfb;" horiz-adv-x="501" 
d="M140 639l-33 36l116 113h52l116 -113l-34 -36l-108 84zM421 526v-526h-70l-6 79c-33 -57 -76 -91 -139 -91c-80 0 -130 58 -130 146v392h81v-383c0 -61 23 -91 68 -91c51 0 87 41 115 94v380h81z" />
    <glyph glyph-name="udieresis" unicode="&#xfc;" horiz-adv-x="501" 
d="M159 760c29 0 50 -23 50 -52s-21 -51 -50 -51s-50 22 -50 51s21 52 50 52zM338 760c29 0 50 -23 50 -52s-21 -51 -50 -51s-50 22 -50 51s21 52 50 52zM421 526v-526h-70l-6 79c-33 -57 -76 -91 -139 -91c-80 0 -130 58 -130 146v392h81v-383c0 -61 23 -91 68 -91
c51 0 87 41 115 94v380h81z" />
    <glyph glyph-name="ugrave" unicode="&#xf9;" horiz-adv-x="501" 
d="M190 792l170 -110l-25 -42l-182 86zM421 526v-526h-70l-6 79c-33 -57 -76 -91 -139 -91c-80 0 -130 58 -130 146v392h81v-383c0 -61 23 -91 68 -91c51 0 87 41 115 94v380h81z" />
    <glyph glyph-name="uhungarumlaut" unicode="&#x171;" horiz-adv-x="501" 
d="M353 824l65 -35l-90 -152l-47 21zM225 823l65 -34l-83 -147l-47 20zM421 526v-526h-70l-6 79c-33 -57 -76 -91 -139 -91c-80 0 -130 58 -130 146v392h81v-383c0 -61 23 -91 68 -91c51 0 87 41 115 94v380h81z" />
    <glyph glyph-name="umacron" unicode="&#x16b;" horiz-adv-x="501" 
d="M365 671h-232v60h232v-60zM421 526v-526h-70l-6 79c-33 -57 -76 -91 -139 -91c-80 0 -130 58 -130 146v392h81v-383c0 -61 23 -91 68 -91c51 0 87 41 115 94v380h81z" />
    <glyph glyph-name="uogonek" unicode="&#x173;" horiz-adv-x="501" 
d="M340 526h81v-526h-1c-84 -42 -104 -76 -104 -117c0 -30 14 -48 50 -48c17 0 30 2 51 7l-8 -62c-17 -4 -32 -7 -54 -7c-66 0 -107 40 -107 98s35 101 102 135l-5 73c-33 -57 -76 -91 -139 -91c-80 0 -130 58 -130 146v392h81v-383c0 -61 23 -91 68 -91c51 0 87 41 115 94
v380z" />
    <glyph glyph-name="uring" unicode="&#x16f;" horiz-adv-x="501" 
d="M249 831c59 0 98 -39 98 -102s-39 -102 -98 -102c-58 0 -98 39 -98 102s40 102 98 102zM249 787c-28 0 -45 -16 -45 -58s17 -58 45 -58c27 0 46 16 46 58s-18 58 -46 58zM421 526v-526h-70l-6 79c-33 -57 -76 -91 -139 -91c-80 0 -130 58 -130 146v392h81v-383
c0 -61 23 -91 68 -91c51 0 87 41 115 94v380h81z" />
    <glyph glyph-name="v" unicode="v" horiz-adv-x="428" 
d="M417 526l-152 -526h-97l-157 526h85l120 -454l119 454h82z" />
    <glyph glyph-name="w" unicode="w" horiz-adv-x="627" 
d="M606 526l-103 -526h-109l-80 451l-81 -451h-106l-106 526h80l81 -466l87 466h94l84 -466l83 466h76z" />
    <glyph glyph-name="wacute" unicode="&#x1e83;" horiz-adv-x="627" 
d="M380 792l36 -66l-182 -86l-24 42zM606 526l-103 -526h-109l-80 451l-81 -451h-106l-106 526h80l81 -466l87 466h94l84 -466l83 466h76z" />
    <glyph glyph-name="wcircumflex" unicode="&#x175;" horiz-adv-x="627" 
d="M206 639l-33 36l116 113h52l116 -113l-34 -36l-108 84zM606 526l-103 -526h-109l-80 451l-81 -451h-106l-106 526h80l81 -466l87 466h94l84 -466l83 466h76z" />
    <glyph glyph-name="wdieresis" unicode="&#x1e85;" horiz-adv-x="627" 
d="M225 760c29 0 50 -23 50 -52s-21 -51 -50 -51s-50 22 -50 51s21 52 50 52zM404 760c29 0 50 -23 50 -52s-21 -51 -50 -51s-50 22 -50 51s21 52 50 52zM606 526l-103 -526h-109l-80 451l-81 -451h-106l-106 526h80l81 -466l87 466h94l84 -466l83 466h76z" />
    <glyph glyph-name="wgrave" unicode="&#x1e81;" horiz-adv-x="627" 
d="M257 792l170 -110l-25 -42l-182 86zM606 526l-103 -526h-109l-80 451l-81 -451h-106l-106 526h80l81 -466l87 466h94l84 -466l83 466h76z" />
    <glyph glyph-name="x" unicode="x" horiz-adv-x="421" 
d="M258 282l157 -282h-91l-115 231l-117 -231h-86l157 278l-139 248h88l99 -200l99 200h85z" />
    <glyph glyph-name="y" unicode="y" horiz-adv-x="429" 
d="M418 526l-152 -529c-32 -112 -87 -188 -211 -207l-9 62c91 20 119 62 146 148h-30l-151 526h84l121 -467l119 467h83z" />
    <glyph glyph-name="yacute" unicode="&#xfd;" horiz-adv-x="429" 
d="M279 792l36 -66l-182 -86l-24 42zM418 526l-152 -529c-32 -112 -87 -188 -211 -207l-9 62c91 20 119 62 146 148h-30l-151 526h84l121 -467l119 467h83z" />
    <glyph glyph-name="ycircumflex" unicode="&#x177;" horiz-adv-x="429" 
d="M106 639l-33 36l116 113h52l116 -113l-34 -36l-108 84zM418 526l-152 -529c-32 -112 -87 -188 -211 -207l-9 62c91 20 119 62 146 148h-30l-151 526h84l121 -467l119 467h83z" />
    <glyph glyph-name="ydieresis" unicode="&#xff;" horiz-adv-x="429" 
d="M125 760c29 0 50 -23 50 -52s-21 -51 -50 -51s-50 22 -50 51s21 52 50 52zM304 760c29 0 50 -23 50 -52s-21 -51 -50 -51s-50 22 -50 51s21 52 50 52zM418 526l-152 -529c-32 -112 -87 -188 -211 -207l-9 62c91 20 119 62 146 148h-30l-151 526h84l121 -467l119 467h83z
" />
    <glyph glyph-name="ygrave" unicode="&#x1ef3;" horiz-adv-x="429" 
d="M156 792l170 -110l-25 -42l-182 86zM418 526l-152 -529c-32 -112 -87 -188 -211 -207l-9 62c91 20 119 62 146 148h-30l-151 526h84l121 -467l119 467h83z" />
    <glyph glyph-name="z" unicode="z" horiz-adv-x="376" 
d="M349 526v-63l-241 -395h242l-8 -68h-322v61l241 396h-221v69h309z" />
    <glyph glyph-name="zacute" unicode="&#x17a;" horiz-adv-x="376" 
d="M255 792l36 -66l-182 -86l-24 42zM349 526v-63l-241 -395h242l-8 -68h-322v61l241 396h-221v69h309z" />
    <glyph glyph-name="zacute.loclPLK" horiz-adv-x="376" 
d="M232 772l63 -42l-112 -153l-39 25zM349 526v-63l-241 -395h242l-8 -68h-322v61l241 396h-221v69h309z" />
    <glyph glyph-name="zcaron" unicode="&#x17e;" horiz-adv-x="376" 
d="M299 779l33 -37l-116 -113h-52l-116 113l33 37l109 -87zM349 526v-63l-241 -395h242l-8 -68h-322v61l241 396h-221v69h309z" />
    <glyph glyph-name="zdotaccent" unicode="&#x17c;" horiz-adv-x="376" 
d="M189 771c34 0 56 -24 56 -56c0 -31 -22 -55 -56 -55c-32 0 -55 24 -55 55c0 32 23 56 55 56zM349 526v-63l-241 -395h242l-8 -68h-322v61l241 396h-221v69h309z" />
    <glyph glyph-name="f_i" horiz-adv-x="498" 
d="M238 748c54 0 95 -15 132 -37l-27 -54c-29 14 -62 24 -101 24c-56 0 -76 -22 -76 -74v-81h251v-526h-81v462h-170v-462h-81v462h-73v64h73v81c0 80 47 141 153 141z" />
    <glyph glyph-name="f_l" horiz-adv-x="516" 
d="M479 61l19 -56c-17 -10 -40 -17 -64 -17c-58 0 -95 38 -95 103v575c-34 11 -61 16 -97 16c-57 0 -76 -22 -76 -72v-84h108l-10 -64h-98v-462h-81v462h-73v64h73v84c0 80 49 138 149 138c41 0 72 -7 107 -20l79 9v-644c0 -23 9 -37 31 -37c11 0 21 2 28 5z" />
    <glyph glyph-name="a.sc" horiz-adv-x="445" 
d="M352 0l-37 142h-187l-38 -142h-80l163 563h99l163 -563h-83zM145 206h153l-77 292z" />
    <glyph glyph-name="aacute.sc" horiz-adv-x="445" 
d="M329 756l-182 -86l-24 42l170 110zM352 0l-37 142h-187l-38 -142h-80l163 563h99l163 -563h-83zM145 206h153l-77 292z" />
    <glyph glyph-name="abreve.sc" horiz-adv-x="445" 
d="M225 676c-69 0 -120 43 -127 126l51 12c12 -51 36 -76 76 -76s67 25 78 76l51 -12c-7 -83 -58 -126 -129 -126zM352 0l-37 142h-187l-38 -142h-80l163 563h99l163 -563h-83zM145 206h153l-77 292z" />
    <glyph glyph-name="acircumflex.sc" horiz-adv-x="445" 
d="M227 753l-109 -84l-33 36l116 113h52l116 -113l-34 -36zM352 0l-37 142h-187l-38 -142h-80l163 563h99l163 -563h-83zM145 206h153l-77 292z" />
    <glyph glyph-name="adieresis.sc" horiz-adv-x="445" 
d="M138 687c-29 0 -50 22 -50 51s21 52 50 52s50 -23 50 -52s-21 -51 -50 -51zM317 687c-29 0 -50 22 -50 51s21 52 50 52s50 -23 50 -52s-21 -51 -50 -51zM352 0l-37 142h-187l-38 -142h-80l163 563h99l163 -563h-83zM145 206h153l-77 292z" />
    <glyph glyph-name="agrave.sc" horiz-adv-x="445" 
d="M332 712l-25 -42l-182 86l37 66zM352 0l-37 142h-187l-38 -142h-80l163 563h99l163 -563h-83zM145 206h153l-77 292z" />
    <glyph glyph-name="amacron.sc" horiz-adv-x="445" 
d="M343 761v-60h-232v60h232zM352 0l-37 142h-187l-38 -142h-80l163 563h99l163 -563h-83zM145 206h153l-77 292z" />
    <glyph glyph-name="aogonek.sc" horiz-adv-x="445" 
d="M336 -117c0 -30 14 -48 50 -48c17 0 30 2 51 7l-8 -62c-17 -4 -32 -7 -54 -7c-66 0 -107 40 -107 98c0 54 31 96 91 129h-7l-37 142h-187l-38 -142h-80l163 563h99l154 -533h1l13 -30c-84 -42 -104 -76 -104 -117zM145 206h153l-77 292z" />
    <glyph glyph-name="aring.sc" horiz-adv-x="445" 
d="M226 657c-58 0 -98 39 -98 102s40 102 98 102c59 0 98 -39 98 -102s-39 -102 -98 -102zM226 817c-28 0 -45 -16 -45 -58s17 -58 45 -58c27 0 46 16 46 58s-18 58 -46 58zM352 0l-37 142h-187l-38 -142h-80l163 563h99l163 -563h-83zM145 206h153l-77 292z" />
    <glyph glyph-name="atilde.sc" horiz-adv-x="445" 
d="M177 737c-20 0 -32 -16 -47 -44l-46 22c20 48 51 81 91 81c46 0 70 -45 102 -45c17 0 30 14 46 44l47 -22c-22 -57 -55 -81 -91 -81c-46 0 -72 45 -102 45zM352 0l-37 142h-187l-38 -142h-80l163 563h99l163 -563h-83zM145 206h153l-77 292z" />
    <glyph glyph-name="ae.sc" horiz-adv-x="617" 
d="M400 63h175v-63h-236l-28 140h-190l-47 -140h-83l204 563h349l-9 -63h-222l36 -181h189v-63h-176zM142 204h156l-58 296z" />
    <glyph glyph-name="b.sc" horiz-adv-x="477" 
d="M315 299c64 -13 124 -45 124 -136c0 -120 -84 -163 -204 -163h-151v563h128c128 0 204 -46 204 -144c0 -73 -45 -105 -101 -120zM220 500h-55v-174h74c56 0 95 30 95 89c0 65 -42 85 -114 85zM235 63c70 0 119 21 119 102c0 74 -45 100 -108 100h-81v-202h70z" />
    <glyph glyph-name="c.sc" horiz-adv-x="434" 
d="M267 573c64 0 104 -21 145 -57l-41 -48c-32 27 -61 40 -99 40c-76 0 -138 -55 -138 -225c0 -167 59 -227 136 -227c48 0 78 21 108 47l40 -50c-33 -34 -82 -64 -151 -64c-127 0 -218 95 -218 294c0 195 97 290 218 290z" />
    <glyph glyph-name="cacute.sc" horiz-adv-x="434" 
d="M342 822l36 -66l-182 -86l-24 42zM267 573c64 0 104 -21 145 -57l-41 -48c-32 27 -61 40 -99 40c-76 0 -138 -55 -138 -225c0 -167 59 -227 136 -227c48 0 78 21 108 47l40 -50c-33 -34 -82 -64 -151 -64c-127 0 -218 95 -218 294c0 195 97 290 218 290z" />
    <glyph glyph-name="cacute.sc.loclPLK" horiz-adv-x="434" 
d="M314 814l63 -42l-112 -153l-39 25zM267 573c64 0 104 -21 145 -57l-41 -48c-32 27 -61 40 -99 40c-76 0 -138 -55 -138 -225c0 -167 59 -227 136 -227c48 0 78 21 108 47l40 -50c-33 -34 -82 -64 -151 -64c-127 0 -218 95 -218 294c0 195 97 290 218 290z" />
    <glyph glyph-name="ccaron.sc" horiz-adv-x="434" 
d="M384 809l33 -37l-116 -113h-52l-116 113l33 37l109 -87zM267 573c64 0 104 -21 145 -57l-41 -48c-32 27 -61 40 -99 40c-76 0 -138 -55 -138 -225c0 -167 59 -227 136 -227c48 0 78 21 108 47l40 -50c-33 -34 -82 -64 -151 -64c-127 0 -218 95 -218 294
c0 195 97 290 218 290z" />
    <glyph glyph-name="ccedilla.sc" horiz-adv-x="434" 
d="M418 53c-29 -29 -69 -56 -125 -62v-52c56 -7 80 -38 80 -82c0 -61 -46 -93 -105 -93c-33 0 -60 9 -79 22l24 44c15 -7 29 -13 51 -13c25 0 44 12 44 40c0 30 -22 45 -77 45l9 89c-112 13 -191 108 -191 292c0 195 97 290 218 290c64 0 104 -21 145 -57l-41 -48
c-32 27 -61 40 -99 40c-76 0 -138 -55 -138 -225c0 -167 59 -227 136 -227c48 0 78 21 108 47z" />
    <glyph glyph-name="cdotaccent.sc" horiz-adv-x="434" 
d="M275 801c34 0 56 -24 56 -56c0 -31 -22 -55 -56 -55c-32 0 -55 24 -55 55c0 32 23 56 55 56zM267 573c64 0 104 -21 145 -57l-41 -48c-32 27 -61 40 -99 40c-76 0 -138 -55 -138 -225c0 -167 59 -227 136 -227c48 0 78 21 108 47l40 -50c-33 -34 -82 -64 -151 -64
c-127 0 -218 95 -218 294c0 195 97 290 218 290z" />
    <glyph glyph-name="d.sc" horiz-adv-x="507" 
d="M198 563c137 0 259 -46 259 -277s-127 -286 -251 -286h-122v563h114zM208 500h-43v-438h48c87 0 160 40 160 224c0 185 -76 214 -165 214z" />
    <glyph glyph-name="eth.sc" horiz-adv-x="509" 
d="M200 563c137 0 259 -46 259 -277s-127 -286 -251 -286h-122v260h-50v62h50v241h114zM215 62c87 0 159 40 159 224c0 185 -75 214 -164 214h-43v-178h96v-62h-96v-198h48z" />
    <glyph glyph-name="dcaron.sc" horiz-adv-x="507" 
d="M352 809l33 -37l-116 -113h-52l-116 113l33 37l109 -87zM198 563c137 0 259 -46 259 -277s-127 -286 -251 -286h-122v563h114zM208 500h-43v-438h48c87 0 160 40 160 224c0 185 -76 214 -165 214z" />
    <glyph glyph-name="dcroat.sc" horiz-adv-x="509" 
d="M200 563c137 0 259 -46 259 -277s-127 -286 -251 -286h-122v260h-50v62h50v241h114zM215 62c87 0 159 40 159 224c0 185 -75 214 -164 214h-43v-178h96v-62h-96v-198h48z" />
    <glyph glyph-name="e.sc" horiz-adv-x="415" 
d="M370 563l-9 -63h-196v-180h171v-63h-171v-194h208v-63h-289v563h286z" />
    <glyph glyph-name="eacute.sc" horiz-adv-x="415" 
d="M299 822l36 -66l-182 -86l-24 42zM370 563l-9 -63h-196v-180h171v-63h-171v-194h208v-63h-289v563h286z" />
    <glyph glyph-name="ecaron.sc" horiz-adv-x="415" 
d="M342 809l33 -37l-116 -113h-52l-116 113l33 37l109 -87zM370 563l-9 -63h-196v-180h171v-63h-171v-194h208v-63h-289v563h286z" />
    <glyph glyph-name="ecircumflex.sc" horiz-adv-x="415" 
d="M124 669l-33 36l116 113h52l116 -113l-34 -36l-108 84zM370 563l-9 -63h-196v-180h171v-63h-171v-194h208v-63h-289v563h286z" />
    <glyph glyph-name="edieresis.sc" horiz-adv-x="415" 
d="M144 790c29 0 50 -23 50 -52s-21 -51 -50 -51s-50 22 -50 51s21 52 50 52zM323 790c29 0 50 -23 50 -52s-21 -51 -50 -51s-50 22 -50 51s21 52 50 52zM370 563l-9 -63h-196v-180h171v-63h-171v-194h208v-63h-289v563h286z" />
    <glyph glyph-name="edotaccent.sc" horiz-adv-x="415" 
d="M233 801c34 0 56 -24 56 -56c0 -31 -22 -55 -56 -55c-32 0 -55 24 -55 55c0 32 23 56 55 56zM370 563l-9 -63h-196v-180h171v-63h-171v-194h208v-63h-289v563h286z" />
    <glyph glyph-name="egrave.sc" horiz-adv-x="415" 
d="M169 822l170 -110l-25 -42l-182 86zM370 563l-9 -63h-196v-180h171v-63h-171v-194h208v-63h-289v563h286z" />
    <glyph glyph-name="emacron.sc" horiz-adv-x="415" 
d="M349 701h-232v60h232v-60zM370 563l-9 -63h-196v-180h171v-63h-171v-194h208v-63h-289v563h286z" />
    <glyph glyph-name="eogonek.sc" horiz-adv-x="415" 
d="M165 63h208v-63h-26c-84 -42 -105 -76 -105 -115c0 -31 15 -50 50 -50c18 0 31 2 52 7l-8 -62c-17 -4 -33 -7 -54 -7c-66 0 -107 41 -107 98s40 101 110 129h-201v563h286l-9 -63h-196v-180h171v-63h-171v-194z" />
    <glyph glyph-name="f.sc" horiz-adv-x="384" 
d="M364 563l-9 -63h-190v-190h164v-62h-164v-248h-81v563h280z" />
    <glyph glyph-name="f_i.sc" horiz-adv-x="633" 
d="M364 563l-9 -63h-190v-190h164v-62h-164v-248h-81v563h280zM549 563v-563h-81v563h81z" />
    <glyph glyph-name="f_l.sc" horiz-adv-x="770" 
d="M364 563l-9 -63h-190v-190h164v-62h-164v-248h-81v563h280zM549 563v-494h209l-10 -69h-280v563h81z" />
    <glyph glyph-name="fi.sc" horiz-adv-x="633" 
d="M364 563l-9 -63h-190v-190h164v-62h-164v-248h-81v563h280zM549 563v-563h-81v563h81z" />
    <glyph glyph-name="fl.sc" horiz-adv-x="770" 
d="M364 563l-9 -63h-190v-190h164v-62h-164v-248h-81v563h280zM549 563v-494h209l-10 -69h-280v563h81z" />
    <glyph glyph-name="g.sc" horiz-adv-x="494" 
d="M277 573c68 0 114 -23 157 -62l-45 -47c-35 30 -65 44 -111 44c-76 0 -144 -55 -144 -225s49 -229 135 -229c34 0 64 8 92 24v172h-86l-8 64h172v-273c-48 -32 -105 -52 -171 -52c-137 0 -219 91 -219 294c0 194 107 290 228 290z" />
    <glyph glyph-name="gbreve.sc" horiz-adv-x="494" 
d="M277 676c-69 0 -120 43 -127 126l51 12c12 -51 36 -76 76 -76s67 25 78 76l51 -12c-7 -83 -58 -126 -129 -126zM277 573c68 0 114 -23 157 -62l-45 -47c-35 30 -65 44 -111 44c-76 0 -144 -55 -144 -225s49 -229 135 -229c34 0 64 8 92 24v172h-86l-8 64h172v-273
c-48 -32 -105 -52 -171 -52c-137 0 -219 91 -219 294c0 194 107 290 228 290z" />
    <glyph glyph-name="gcommaaccent.sc" horiz-adv-x="494" 
d="M277 573c68 0 114 -23 157 -62l-45 -47c-35 30 -65 44 -111 44c-76 0 -144 -55 -144 -225s49 -229 135 -229c34 0 64 8 92 24v172h-86l-8 64h172v-273c-48 -32 -105 -52 -171 -52c-137 0 -219 91 -219 294c0 194 107 290 228 290zM273 -80c29 0 50 -21 50 -51
c0 -17 -5 -32 -22 -74l-36 -86h-45l28 116c-16 10 -25 26 -25 44c0 29 21 51 50 51z" />
    <glyph glyph-name="gdotaccent.sc" horiz-adv-x="494" 
d="M278 801c34 0 56 -24 56 -56c0 -31 -22 -55 -56 -55c-32 0 -55 24 -55 55c0 32 23 56 55 56zM277 573c68 0 114 -23 157 -62l-45 -47c-35 30 -65 44 -111 44c-76 0 -144 -55 -144 -225s49 -229 135 -229c34 0 64 8 92 24v172h-86l-8 64h172v-273
c-48 -32 -105 -52 -171 -52c-137 0 -219 91 -219 294c0 194 107 290 228 290z" />
    <glyph glyph-name="h.sc" horiz-adv-x="534" 
d="M450 563v-563h-81v263h-204v-263h-81v563h81v-234h204v234h81z" />
    <glyph glyph-name="hbar.sc" horiz-adv-x="535" 
d="M499 483v-60h-48v-423h-81v263h-204v-263h-81v423h-50v60h50v80h81v-80h204v80h81v-80h48zM370 329v94h-204v-94h204z" />
    <glyph glyph-name="i.sc" horiz-adv-x="249" 
d="M165 563v-563h-81v563h81z" />
    <glyph glyph-name="iacute.sc" horiz-adv-x="249" 
d="M195 822l36 -66l-182 -86l-24 42zM165 563v-563h-81v563h81z" />
    <glyph glyph-name="icircumflex.sc" horiz-adv-x="249" 
d="M20 669l-33 36l116 113h52l116 -113l-34 -36l-108 84zM165 563v-563h-81v563h81z" />
    <glyph glyph-name="idieresis.sc" horiz-adv-x="249" 
d="M40 790c29 0 50 -23 50 -52s-21 -51 -50 -51s-50 22 -50 51s21 52 50 52zM219 790c29 0 50 -23 50 -52s-21 -51 -50 -51s-50 22 -50 51s21 52 50 52zM165 563v-563h-81v563h81z" />
    <glyph glyph-name="i.sc.loclTRK" horiz-adv-x="249" 
d="M128 801c34 0 56 -24 56 -56c0 -31 -22 -55 -56 -55c-32 0 -55 24 -55 55c0 32 23 56 55 56zM165 563v-563h-81v563h81z" />
    <glyph glyph-name="igrave.sc" horiz-adv-x="249" 
d="M64 822l170 -110l-25 -42l-182 86zM165 563v-563h-81v563h81z" />
    <glyph glyph-name="imacron.sc" horiz-adv-x="249" 
d="M245 701h-232v60h232v-60zM165 563v-563h-81v563h81z" />
    <glyph glyph-name="iogonek.sc" horiz-adv-x="249" 
d="M85 -117c0 -30 14 -48 50 -48c17 0 30 2 51 7l-8 -62c-17 -4 -32 -7 -54 -7c-66 0 -107 40 -107 98c0 54 31 96 91 129h-24v563h81v-537c4 1 7 3 11 4l13 -30c-84 -42 -104 -76 -104 -117z" />
    <glyph glyph-name="j.sc" horiz-adv-x="244" 
d="M164 563v-488c0 -116 -54 -157 -139 -188l-22 56c68 31 81 62 81 136v484h80z" />
    <glyph glyph-name="k.sc" horiz-adv-x="461" 
d="M165 563v-563h-81v563h81zM446 563l-191 -256l205 -307h-92l-200 302l193 261h85z" />
    <glyph glyph-name="kcommaaccent.sc" horiz-adv-x="461" 
d="M165 563v-563h-81v563h81zM446 563l-191 -256l205 -307h-92l-200 302l193 261h85zM258 -80c29 0 50 -21 50 -51c0 -17 -5 -32 -22 -74l-36 -86h-45l28 116c-16 10 -25 26 -25 44c0 29 21 51 50 51z" />
    <glyph glyph-name="l.sc" horiz-adv-x="387" 
d="M165 563v-494h209l-10 -69h-280v563h81z" />
    <glyph glyph-name="lacute.sc" horiz-adv-x="387" 
d="M195 822l36 -66l-182 -86l-24 42zM165 563v-494h209l-10 -69h-280v563h81z" />
    <glyph glyph-name="lcaron.sc" horiz-adv-x="387" 
d="M231 571l47 -48l-18 -138l-23 47zM165 563v-494h209l-10 -69h-280v563h81z" />
    <glyph glyph-name="lcommaaccent.sc" horiz-adv-x="387" 
d="M165 563v-494h209l-10 -69h-280v563h81zM230 -80c29 0 50 -21 50 -51c0 -17 -5 -32 -22 -74l-36 -86h-45l28 116c-16 10 -25 26 -25 44c0 29 21 51 50 51z" />
    <glyph glyph-name="ldot.sc" horiz-adv-x="390" 
d="M165 563v-494h209l-10 -69h-280v563h81zM317 371c34 0 56 -24 56 -56c0 -31 -22 -55 -56 -55c-32 0 -55 24 -55 55c0 32 23 56 55 56z" />
    <glyph glyph-name="lslash.sc" horiz-adv-x="396" 
d="M173 69h208l-10 -69h-279v197l-39 -28l-33 47l72 52v295h81v-239l121 85l32 -47l-153 -108v-185z" />
    <glyph glyph-name="m.sc" horiz-adv-x="618" 
d="M514 563l43 -563h-77l-16 253c-7 94 -11 168 -12 240l-107 -429h-77l-110 429c0 -73 -2 -150 -8 -243l-16 -250h-76l43 563h105l102 -417l100 417h106z" />
    <glyph glyph-name="n.sc" horiz-adv-x="534" 
d="M450 563v-563h-105l-198 483c5 -52 11 -115 11 -221v-262h-74v563h104l199 -483c-5 32 -11 109 -11 184v299h74z" />
    <glyph glyph-name="nacute.sc" horiz-adv-x="534" 
d="M343 822l36 -66l-182 -86l-24 42zM450 563v-563h-105l-198 483c5 -52 11 -115 11 -221v-262h-74v563h104l199 -483c-5 32 -11 109 -11 184v299h74z" />
    <glyph glyph-name="nacute.sc.loclPLK" horiz-adv-x="534" 
d="M316 814l63 -42l-112 -153l-39 25zM450 563v-563h-105l-198 483c5 -52 11 -115 11 -221v-262h-74v563h104l199 -483c-5 32 -11 109 -11 184v299h74z" />
    <glyph glyph-name="napostrophe.sc" horiz-adv-x="534" 
d="M450 563v-563h-105l-198 483c5 -52 11 -115 11 -221v-262h-74v563h104l199 -483c-5 32 -11 109 -11 184v299h74z" />
    <glyph glyph-name="ncaron.sc" horiz-adv-x="534" 
d="M386 809l33 -37l-116 -113h-52l-116 113l33 37l109 -87zM450 563v-563h-105l-198 483c5 -52 11 -115 11 -221v-262h-74v563h104l199 -483c-5 32 -11 109 -11 184v299h74z" />
    <glyph glyph-name="ncommaaccent.sc" horiz-adv-x="534" 
d="M450 563v-563h-105l-198 483c5 -52 11 -115 11 -221v-262h-74v563h104l199 -483c-5 32 -11 109 -11 184v299h74zM273 -80c29 0 50 -21 50 -51c0 -17 -5 -32 -22 -74l-36 -86h-45l28 116c-16 10 -25 26 -25 44c0 29 21 51 50 51z" />
    <glyph glyph-name="eng.sc" horiz-adv-x="534" 
d="M450 -62c0 -98 -53 -148 -131 -148c-46 0 -78 18 -100 36l33 49c19 -11 33 -20 61 -20c34 0 56 21 56 75v70h-24l-198 483c5 -52 11 -115 11 -221v-262h-74v563h104l199 -483c-5 32 -11 109 -11 184v299h74v-625z" />
    <glyph glyph-name="ntilde.sc" horiz-adv-x="534" 
d="M329 692c-46 0 -72 45 -102 45c-20 0 -32 -16 -47 -44l-46 22c20 48 51 81 91 81c46 0 70 -45 102 -45c17 0 30 14 46 44l47 -22c-22 -57 -55 -81 -91 -81zM450 563v-563h-105l-198 483c5 -52 11 -115 11 -221v-262h-74v563h104l199 -483c-5 32 -11 109 -11 184v299h74z
" />
    <glyph glyph-name="o.sc" horiz-adv-x="537" 
d="M269 573c132 0 219 -91 219 -291c0 -198 -86 -293 -219 -293c-132 0 -220 92 -220 292c0 196 88 292 220 292zM269 509c-83 0 -135 -57 -135 -228c0 -172 54 -227 135 -227c84 0 134 55 134 228c0 170 -50 227 -134 227z" />
    <glyph glyph-name="oacute.sc" horiz-adv-x="537" 
d="M339 822l36 -66l-182 -86l-24 42zM269 573c132 0 219 -91 219 -291c0 -198 -86 -293 -219 -293c-132 0 -220 92 -220 292c0 196 88 292 220 292zM269 509c-83 0 -135 -57 -135 -228c0 -172 54 -227 135 -227c84 0 134 55 134 228c0 170 -50 227 -134 227z" />
    <glyph glyph-name="oacute.sc.loclPLK" horiz-adv-x="537" 
d="M312 814l63 -42l-112 -153l-39 25zM269 573c132 0 219 -91 219 -291c0 -198 -86 -293 -219 -293c-132 0 -220 92 -220 292c0 196 88 292 220 292zM269 509c-83 0 -135 -57 -135 -228c0 -172 54 -227 135 -227c84 0 134 55 134 228c0 170 -50 227 -134 227z" />
    <glyph glyph-name="ocircumflex.sc" horiz-adv-x="537" 
d="M164 669l-33 36l116 113h52l116 -113l-34 -36l-108 84zM269 573c132 0 219 -91 219 -291c0 -198 -86 -293 -219 -293c-132 0 -220 92 -220 292c0 196 88 292 220 292zM269 509c-83 0 -135 -57 -135 -228c0 -172 54 -227 135 -227c84 0 134 55 134 228
c0 170 -50 227 -134 227z" />
    <glyph glyph-name="odieresis.sc" horiz-adv-x="537" 
d="M184 790c29 0 50 -23 50 -52s-21 -51 -50 -51s-50 22 -50 51s21 52 50 52zM363 790c29 0 50 -23 50 -52s-21 -51 -50 -51s-50 22 -50 51s21 52 50 52zM269 573c132 0 219 -91 219 -291c0 -198 -86 -293 -219 -293c-132 0 -220 92 -220 292c0 196 88 292 220 292zM269 509
c-83 0 -135 -57 -135 -228c0 -172 54 -227 135 -227c84 0 134 55 134 228c0 170 -50 227 -134 227z" />
    <glyph glyph-name="ograve.sc" horiz-adv-x="537" 
d="M209 822l170 -110l-25 -42l-182 86zM269 573c132 0 219 -91 219 -291c0 -198 -86 -293 -219 -293c-132 0 -220 92 -220 292c0 196 88 292 220 292zM269 509c-83 0 -135 -57 -135 -228c0 -172 54 -227 135 -227c84 0 134 55 134 228c0 170 -50 227 -134 227z" />
    <glyph glyph-name="ohungarumlaut.sc" horiz-adv-x="537" 
d="M376 854l65 -35l-90 -152l-47 21zM248 853l65 -34l-83 -147l-47 20zM269 573c132 0 219 -91 219 -291c0 -198 -86 -293 -219 -293c-132 0 -220 92 -220 292c0 196 88 292 220 292zM269 509c-83 0 -135 -57 -135 -228c0 -172 54 -227 135 -227c84 0 134 55 134 228
c0 170 -50 227 -134 227z" />
    <glyph glyph-name="omacron.sc" horiz-adv-x="537" 
d="M389 701h-232v60h232v-60zM269 573c132 0 219 -91 219 -291c0 -198 -86 -293 -219 -293c-132 0 -220 92 -220 292c0 196 88 292 220 292zM269 509c-83 0 -135 -57 -135 -228c0 -172 54 -227 135 -227c84 0 134 55 134 228c0 170 -50 227 -134 227z" />
    <glyph glyph-name="oslash.sc" horiz-adv-x="537" 
d="M375 548c71 -39 113 -126 113 -266c0 -198 -86 -293 -219 -293c-16 0 -32 2 -47 5l-26 -98l-64 16l31 103c-71 40 -114 128 -114 266c0 198 88 292 220 292c16 0 31 -1 46 -4l27 102l64 -16zM269 507c-84 0 -137 -53 -137 -226c0 -113 22 -174 58 -203l114 426
c-11 3 -23 3 -35 3zM269 54c85 0 136 55 136 228c0 116 -21 176 -58 204l-113 -428c11 -3 23 -4 35 -4z" />
    <glyph glyph-name="otilde.sc" horiz-adv-x="537" 
d="M325 692c-46 0 -72 45 -102 45c-20 0 -32 -16 -47 -44l-46 22c20 48 51 81 91 81c46 0 70 -45 102 -45c17 0 30 14 46 44l47 -22c-22 -57 -55 -81 -91 -81zM269 573c132 0 219 -91 219 -291c0 -198 -86 -293 -219 -293c-132 0 -220 92 -220 292c0 196 88 292 220 292z
M269 509c-83 0 -135 -57 -135 -228c0 -172 54 -227 135 -227c84 0 134 55 134 228c0 170 -50 227 -134 227z" />
    <glyph glyph-name="oe.sc" horiz-adv-x="682" 
d="M641 63v-63h-323c-18 -7 -38 -11 -58 -11c-123 0 -211 92 -211 292c0 198 88 294 211 294c21 0 41 -3 59 -10h319l-9 -64h-222c37 -41 60 -104 66 -181h130v-63h-129c-4 -82 -29 -149 -71 -194h238zM134 281c0 -172 54 -227 127 -227c77 0 128 59 128 229
c0 167 -51 227 -128 227c-75 0 -127 -56 -127 -229z" />
    <glyph glyph-name="p.sc" horiz-adv-x="453" 
d="M218 563c134 0 210 -57 210 -175c0 -127 -84 -181 -206 -181h-57v-207h-81v563h134zM217 270c79 0 127 24 127 118c0 82 -45 112 -127 112h-52v-230h52z" />
    <glyph glyph-name="thorn.sc" horiz-adv-x="454" 
d="M218 468c134 0 210 -57 210 -175c0 -127 -84 -181 -206 -181h-57v-112h-81v563h81v-95h53zM217 175c79 0 127 24 127 118c0 82 -45 112 -127 112l-52 1v-231h52z" />
    <glyph glyph-name="q.sc" horiz-adv-x="537" 
d="M365 30c62 -1 109 -22 151 -57l-52 -62c-57 56 -105 80 -198 80c-129 0 -217 90 -217 290c0 196 88 292 220 292s219 -91 219 -291c0 -155 -52 -214 -123 -252zM134 281c0 -172 54 -227 135 -227c84 0 134 55 134 228c0 170 -50 226 -134 226c-83 0 -135 -56 -135 -227z
" />
    <glyph glyph-name="r.sc" horiz-adv-x="475" 
d="M363 0l-121 239h-77v-239h-81v563h136c138 0 204 -57 204 -160c0 -79 -35 -124 -108 -149l138 -254h-91zM165 299h68c69 0 109 29 109 104c0 68 -36 98 -122 98h-55v-202z" />
    <glyph glyph-name="racute.sc" horiz-adv-x="475" 
d="M349 756l-182 -86l-24 42l170 110zM363 0l-121 239h-77v-239h-81v563h136c138 0 204 -57 204 -160c0 -79 -35 -124 -108 -149l138 -254h-91zM165 299h68c69 0 109 29 109 104c0 68 -36 98 -122 98h-55v-202z" />
    <glyph glyph-name="rcaron.sc" horiz-adv-x="475" 
d="M272 659h-52l-116 113l33 37l109 -87l109 87l33 -37zM363 0l-121 239h-77v-239h-81v563h136c138 0 204 -57 204 -160c0 -79 -35 -124 -108 -149l138 -254h-91zM165 299h68c69 0 109 29 109 104c0 68 -36 98 -122 98h-55v-202z" />
    <glyph glyph-name="rcommaaccent.sc" horiz-adv-x="475" 
d="M316 254l138 -254h-91l-121 239h-77v-239h-81v563h136c138 0 204 -57 204 -160c0 -79 -35 -124 -108 -149zM165 299h68c69 0 109 29 109 104c0 68 -36 98 -122 98h-55v-202zM255 -80c29 0 50 -21 50 -51c0 -17 -5 -32 -22 -74l-36 -86h-45l28 116c-16 10 -25 26 -25 44
c0 29 21 51 50 51z" />
    <glyph glyph-name="s.sc" horiz-adv-x="424" 
d="M212 573c73 0 121 -24 163 -67l-42 -48c-36 35 -72 50 -117 50c-54 0 -91 -27 -91 -79c0 -48 23 -72 110 -101c91 -30 153 -70 153 -171c0 -99 -71 -168 -188 -168c-77 0 -138 29 -180 75l44 48c36 -35 79 -58 136 -58c62 0 105 34 105 99c0 58 -24 83 -109 111
c-107 35 -152 77 -152 161c0 88 71 148 168 148z" />
    <glyph glyph-name="sacute.sc" horiz-adv-x="424" 
d="M288 822l36 -66l-182 -86l-24 42zM212 573c73 0 121 -24 163 -67l-42 -48c-36 35 -72 50 -117 50c-54 0 -91 -27 -91 -79c0 -48 23 -72 110 -101c91 -30 153 -70 153 -171c0 -99 -71 -168 -188 -168c-77 0 -138 29 -180 75l44 48c36 -35 79 -58 136 -58
c62 0 105 34 105 99c0 58 -24 83 -109 111c-107 35 -152 77 -152 161c0 88 71 148 168 148z" />
    <glyph glyph-name="sacute.sc.loclPLK" horiz-adv-x="424" 
d="M261 814l63 -42l-112 -153l-39 25zM212 573c73 0 121 -24 163 -67l-42 -48c-36 35 -72 50 -117 50c-54 0 -91 -27 -91 -79c0 -48 23 -72 110 -101c91 -30 153 -70 153 -171c0 -99 -71 -168 -188 -168c-77 0 -138 29 -180 75l44 48c36 -35 79 -58 136 -58
c62 0 105 34 105 99c0 58 -24 83 -109 111c-107 35 -152 77 -152 161c0 88 71 148 168 148z" />
    <glyph glyph-name="scaron.sc" horiz-adv-x="424" 
d="M331 809l33 -37l-116 -113h-52l-116 113l33 37l109 -87zM212 573c73 0 121 -24 163 -67l-42 -48c-36 35 -72 50 -117 50c-54 0 -91 -27 -91 -79c0 -48 23 -72 110 -101c91 -30 153 -70 153 -171c0 -99 -71 -168 -188 -168c-77 0 -138 29 -180 75l44 48
c36 -35 79 -58 136 -58c62 0 105 34 105 99c0 58 -24 83 -109 111c-107 35 -152 77 -152 161c0 88 71 148 168 148z" />
    <glyph glyph-name="scedilla.sc" horiz-adv-x="424" 
d="M388 157c0 -89 -57 -154 -155 -166v-52c56 -7 80 -38 80 -82c0 -61 -46 -93 -105 -93c-33 0 -60 9 -79 22l24 44c15 -7 29 -13 51 -13c25 0 44 12 44 40c0 30 -22 45 -77 45l9 88c-68 5 -121 32 -160 74l44 48c36 -35 79 -58 136 -58c62 0 105 34 105 99
c0 58 -24 83 -109 111c-107 35 -152 77 -152 161c0 88 71 148 168 148c73 0 121 -24 163 -67l-42 -48c-36 35 -72 50 -117 50c-54 0 -91 -27 -91 -79c0 -48 23 -72 110 -101c91 -30 153 -70 153 -171z" />
    <glyph glyph-name="scommaaccent.sc" horiz-adv-x="424" 
d="M212 573c73 0 121 -24 163 -67l-42 -48c-36 35 -72 50 -117 50c-54 0 -91 -27 -91 -79c0 -48 23 -72 110 -101c91 -30 153 -70 153 -171c0 -99 -71 -168 -188 -168c-77 0 -138 29 -180 75l44 48c36 -35 79 -58 136 -58c62 0 105 34 105 99c0 58 -24 83 -109 111
c-107 35 -152 77 -152 161c0 88 71 148 168 148zM214 -80c29 0 50 -21 50 -51c0 -17 -5 -32 -22 -74l-36 -86h-45l28 116c-16 10 -25 26 -25 44c0 29 21 51 50 51z" />
    <glyph glyph-name="germandbls.sc" horiz-adv-x="514" 
d="M255 573c71 0 133 -26 187 -55v-49l-128 -151c105 -18 163 -65 163 -162c0 -106 -71 -167 -169 -167c-38 0 -69 8 -89 20l24 58c15 -6 33 -11 58 -11c53 0 91 30 91 100c0 76 -52 107 -148 112v55l129 159c-39 15 -75 26 -116 26c-60 0 -93 -31 -93 -109v-399h-81v400
c0 110 63 173 172 173z" />
    <glyph glyph-name="t.sc" horiz-adv-x="390" 
d="M383 563l-8 -67h-139v-496h-81v496h-143v67h371z" />
    <glyph glyph-name="tbar.sc" horiz-adv-x="390" 
d="M375 496h-139v-152h98v-58h-98v-286h-81v286h-97v58h97v152h-143v67h371z" />
    <glyph glyph-name="tcaron.sc" horiz-adv-x="390" 
d="M309 809l33 -37l-116 -113h-52l-116 113l33 37l109 -87zM383 563l-8 -67h-139v-496h-81v496h-143v67h371z" />
    <glyph glyph-name="uni0163.sc" horiz-adv-x="390" 
d="M236 -59c58 -5 83 -41 83 -82c0 -63 -48 -95 -109 -95c-32 0 -59 9 -76 22l22 47c15 -9 30 -16 50 -16c27 0 47 13 47 42c0 28 -22 43 -77 43l10 98h-31v496h-143v67h371l-8 -67h-139v-555z" />
    <glyph glyph-name="uni021B.sc" horiz-adv-x="390" 
d="M383 563l-8 -67h-139v-496h-81v496h-143v67h371zM201 -80c29 0 50 -21 50 -51c0 -17 -5 -32 -22 -74l-36 -86h-45l28 116c-16 10 -25 26 -25 44c0 29 21 51 50 51z" />
    <glyph glyph-name="u.sc" horiz-adv-x="515" 
d="M441 563v-402c0 -95 -62 -172 -184 -172s-183 76 -183 172v402h81v-396c0 -70 33 -112 102 -112c72 0 103 42 103 112v396h81z" />
    <glyph glyph-name="uacute.sc" horiz-adv-x="515" 
d="M328 822l36 -66l-182 -86l-24 42zM441 563v-402c0 -95 -62 -172 -184 -172s-183 76 -183 172v402h81v-396c0 -70 33 -112 102 -112c72 0 103 42 103 112v396h81z" />
    <glyph glyph-name="ucircumflex.sc" horiz-adv-x="515" 
d="M153 669l-33 36l116 113h52l116 -113l-34 -36l-108 84zM441 563v-402c0 -95 -62 -172 -184 -172s-183 76 -183 172v402h81v-396c0 -70 33 -112 102 -112c72 0 103 42 103 112v396h81z" />
    <glyph glyph-name="udieresis.sc" horiz-adv-x="515" 
d="M173 790c29 0 50 -23 50 -52s-21 -51 -50 -51s-50 22 -50 51s21 52 50 52zM352 790c29 0 50 -23 50 -52s-21 -51 -50 -51s-50 22 -50 51s21 52 50 52zM441 563v-402c0 -95 -62 -172 -184 -172s-183 76 -183 172v402h81v-396c0 -70 33 -112 102 -112c72 0 103 42 103 112
v396h81z" />
    <glyph glyph-name="ugrave.sc" horiz-adv-x="515" 
d="M198 822l170 -110l-25 -42l-182 86zM441 563v-402c0 -95 -62 -172 -184 -172s-183 76 -183 172v402h81v-396c0 -70 33 -112 102 -112c72 0 103 42 103 112v396h81z" />
    <glyph glyph-name="uhungarumlaut.sc" horiz-adv-x="515" 
d="M365 854l65 -35l-90 -152l-47 21zM237 853l65 -34l-83 -147l-47 20zM441 563v-402c0 -95 -62 -172 -184 -172s-183 76 -183 172v402h81v-396c0 -70 33 -112 102 -112c72 0 103 42 103 112v396h81z" />
    <glyph glyph-name="umacron.sc" horiz-adv-x="515" 
d="M378 701h-232v60h232v-60zM441 563v-402c0 -95 -62 -172 -184 -172s-183 76 -183 172v402h81v-396c0 -70 33 -112 102 -112c72 0 103 42 103 112v396h81z" />
    <glyph glyph-name="uogonek.sc" horiz-adv-x="515" 
d="M360 563h81v-402c0 -75 -39 -139 -115 -162c-82 -41 -103 -75 -103 -114c0 -31 15 -50 50 -50c18 0 31 2 52 7l-8 -62c-17 -4 -33 -7 -54 -7c-66 0 -107 41 -107 98c0 50 31 91 87 119c-112 5 -169 78 -169 171v402h81v-396c0 -70 33 -112 102 -112c72 0 103 42 103 112
v396z" />
    <glyph glyph-name="uring.sc" horiz-adv-x="515" 
d="M262 861c59 0 98 -39 98 -102s-39 -102 -98 -102c-58 0 -98 39 -98 102s40 102 98 102zM262 817c-28 0 -45 -16 -45 -58s17 -58 45 -58c27 0 46 16 46 58s-18 58 -46 58zM441 563v-402c0 -95 -62 -172 -184 -172s-183 76 -183 172v402h81v-396c0 -70 33 -112 102 -112
c72 0 103 42 103 112v396h81z" />
    <glyph glyph-name="v.sc" horiz-adv-x="430" 
d="M421 563l-158 -563h-94l-160 563h83l125 -485l123 485h81z" />
    <glyph glyph-name="w.sc" horiz-adv-x="633" 
d="M609 563l-100 -563h-103l-90 468l-91 -468h-101l-100 563h78l77 -495l95 495h86l96 -497l78 497h75z" />
    <glyph glyph-name="wacute.sc" horiz-adv-x="633" 
d="M388 822l36 -66l-182 -86l-24 42zM609 563l-100 -563h-103l-90 468l-91 -468h-101l-100 563h78l77 -495l95 495h86l96 -497l78 497h75z" />
    <glyph glyph-name="wcircumflex.sc" horiz-adv-x="633" 
d="M213 669l-33 36l116 113h52l116 -113l-34 -36l-108 84zM609 563l-100 -563h-103l-90 468l-91 -468h-101l-100 563h78l77 -495l95 495h86l96 -497l78 497h75z" />
    <glyph glyph-name="wdieresis.sc" horiz-adv-x="633" 
d="M233 790c29 0 50 -23 50 -52s-21 -51 -50 -51s-50 22 -50 51s21 52 50 52zM412 790c29 0 50 -23 50 -52s-21 -51 -50 -51s-50 22 -50 51s21 52 50 52zM609 563l-100 -563h-103l-90 468l-91 -468h-101l-100 563h78l77 -495l95 495h86l96 -497l78 497h75z" />
    <glyph glyph-name="wgrave.sc" horiz-adv-x="633" 
d="M257 822l170 -110l-25 -42l-182 86zM609 563l-100 -563h-103l-90 468l-91 -468h-101l-100 563h78l77 -495l95 495h86l96 -497l78 497h75z" />
    <glyph glyph-name="x.sc" horiz-adv-x="410" 
d="M250 305l156 -305h-89l-114 245l-114 -245h-85l152 301l-139 262h88l99 -208l100 208h85z" />
    <glyph glyph-name="y.sc" horiz-adv-x="419" 
d="M415 563l-164 -346v-217h-82v216l-165 347h86l121 -282l120 282h84z" />
    <glyph glyph-name="yacute.sc" horiz-adv-x="419" 
d="M282 822l36 -66l-182 -86l-24 42zM415 563l-164 -346v-217h-82v216l-165 347h86l121 -282l120 282h84z" />
    <glyph glyph-name="ycircumflex.sc" horiz-adv-x="419" 
d="M106 669l-33 36l116 113h52l116 -113l-34 -36l-108 84zM415 563l-164 -346v-217h-82v216l-165 347h86l121 -282l120 282h84z" />
    <glyph glyph-name="ydieresis.sc" horiz-adv-x="419" 
d="M126 790c29 0 50 -23 50 -52s-21 -51 -50 -51s-50 22 -50 51s21 52 50 52zM305 790c29 0 50 -23 50 -52s-21 -51 -50 -51s-50 22 -50 51s21 52 50 52zM415 563l-164 -346v-217h-82v216l-165 347h86l121 -282l120 282h84z" />
    <glyph glyph-name="ygrave.sc" horiz-adv-x="419" 
d="M151 822l170 -110l-25 -42l-182 86zM415 563l-164 -346v-217h-82v216l-165 347h86l121 -282l120 282h84z" />
    <glyph glyph-name="z.sc" horiz-adv-x="401" 
d="M367 563v-64l-258 -430h258l-9 -69h-333v64l257 433h-231v66h316z" />
    <glyph glyph-name="zacute.sc" horiz-adv-x="401" 
d="M279 822l36 -66l-182 -86l-24 42zM367 563v-64l-258 -430h258l-9 -69h-333v64l257 433h-231v66h316z" />
    <glyph glyph-name="zacute.sc.loclPLK" horiz-adv-x="401" 
d="M252 814l63 -42l-112 -153l-39 25zM367 563v-64l-258 -430h258l-9 -69h-333v64l257 433h-231v66h316z" />
    <glyph glyph-name="zcaron.sc" horiz-adv-x="401" 
d="M322 809l33 -37l-116 -113h-52l-116 113l33 37l109 -87zM367 563v-64l-258 -430h258l-9 -69h-333v64l257 433h-231v66h316z" />
    <glyph glyph-name="zdotaccent.sc" horiz-adv-x="401" 
d="M213 801c34 0 56 -24 56 -56c0 -31 -22 -55 -56 -55c-32 0 -55 24 -55 55c0 32 23 56 55 56zM367 563v-64l-258 -430h258l-9 -69h-333v64l257 433h-231v66h316z" />
    <glyph glyph-name="zero" unicode="0" horiz-adv-x="499" 
d="M250 678c128 0 193 -111 193 -345s-65 -345 -193 -345c-129 0 -194 112 -194 346s65 344 194 344zM250 613c-73 0 -110 -72 -110 -279c0 -209 37 -281 110 -281c71 0 109 72 109 280c0 211 -37 280 -109 280z" />
    <glyph glyph-name="one" unicode="1" horiz-adv-x="371" 
d="M275 668v-668h-81v582l-133 -95l-37 54l179 127h72z" />
    <glyph glyph-name="two" unicode="2" horiz-adv-x="419" 
d="M190 678c109 0 174 -75 174 -176c0 -126 -66 -213 -249 -433h263l-9 -69h-342v65c205 251 253 321 253 433c0 74 -37 113 -95 113c-48 0 -80 -24 -117 -71l-53 39c47 66 103 99 175 99z" />
    <glyph glyph-name="three" unicode="3" horiz-adv-x="429" 
d="M194 678c108 0 172 -77 172 -168c0 -86 -48 -136 -125 -155c83 -9 142 -62 142 -164c0 -113 -75 -203 -196 -203c-73 0 -128 29 -176 89l51 41c39 -44 74 -64 124 -64c69 0 115 50 115 138c0 96 -47 127 -124 127h-40l9 61h27c64 0 115 41 115 125c0 70 -40 109 -101 109
c-44 0 -80 -18 -117 -57l-44 43c50 53 104 78 168 78z" />
    <glyph glyph-name="four" unicode="4" horiz-adv-x="459" 
d="M434 233v-65h-74v-168h-78v168h-248v59l172 451l68 -26l-157 -419h166l8 185h69v-185h74z" />
    <glyph glyph-name="five" unicode="5" horiz-adv-x="435" 
d="M375 668l-11 -65h-224v-206c29 18 57 27 92 27c98 0 164 -77 164 -210s-80 -226 -200 -226c-75 0 -126 32 -172 84l48 44c36 -40 72 -61 122 -61c73 0 118 55 118 161c0 110 -44 146 -105 146c-32 0 -55 -9 -84 -26h-60v332h312z" />
    <glyph glyph-name="six" unicode="6" horiz-adv-x="474" 
d="M276 438c84 0 158 -69 158 -212c0 -154 -78 -238 -183 -238c-141 0 -195 127 -195 321c0 232 83 369 220 369c48 0 86 -15 118 -40l-32 -53c-26 18 -53 28 -85 28c-84 0 -135 -96 -141 -262c36 58 84 87 140 87zM251 53c67 0 103 62 103 171c0 110 -39 150 -94 150
c-50 0 -93 -40 -123 -99c3 -153 36 -222 114 -222z" />
    <glyph glyph-name="seven" unicode="7" horiz-adv-x="384" 
d="M359 668v-62l-218 -615l-73 23l210 587h-257v67h338z" />
    <glyph glyph-name="eight" unicode="8" horiz-adv-x="476" 
d="M308 357c88 -39 129 -95 129 -180c0 -114 -80 -189 -201 -189c-120 0 -197 76 -197 187c0 87 43 142 122 178c-70 38 -98 86 -98 155c0 113 84 170 175 170c90 0 176 -53 176 -168c0 -69 -32 -114 -106 -153zM238 618c-58 0 -97 -32 -97 -111c0 -68 34 -94 101 -122
l17 -8c55 35 76 72 76 131c0 75 -35 110 -97 110zM238 52c73 0 117 40 117 124c0 75 -31 108 -121 145l-23 9c-63 -32 -90 -80 -90 -155c0 -85 46 -123 117 -123z" />
    <glyph glyph-name="nine" unicode="9" horiz-adv-x="460" 
d="M224 678c126 0 189 -96 189 -262c0 -273 -99 -367 -312 -437l-18 61c146 49 235 123 246 281c-28 -45 -72 -76 -129 -76c-87 0 -162 80 -162 213c0 146 83 220 186 220zM216 309c49 0 86 33 115 88c1 160 -32 217 -105 217c-67 0 -107 -50 -107 -158
c0 -99 39 -147 97 -147z" />
    <glyph glyph-name="zero.osf" horiz-adv-x="537" 
d="M269 573c133 0 225 -99 225 -292c0 -191 -93 -292 -225 -292s-226 100 -226 292s93 292 226 292zM269 507c-76 0 -146 -52 -146 -226s70 -228 146 -228s145 54 145 228c0 175 -69 226 -145 226z" />
    <glyph glyph-name="one.osf" horiz-adv-x="367" 
d="M280 563v-563h-81v477l-135 -94l-37 54l181 126h72z" />
    <glyph glyph-name="two.osf" horiz-adv-x="426" 
d="M195 573c107 0 175 -76 175 -171c0 -94 -36 -165 -245 -333h256l-10 -69h-345v65c229 195 262 249 262 335c0 66 -39 107 -99 107c-49 0 -85 -24 -124 -78l-51 39c48 69 103 105 181 105z" />
    <glyph glyph-name="three.osf" horiz-adv-x="423" 
d="M194 573c109 0 173 -77 173 -164c0 -84 -47 -135 -124 -153c84 -10 142 -62 142 -167c0 -116 -76 -205 -199 -205c-74 0 -129 28 -177 89l51 41c39 -45 74 -65 125 -65c71 0 118 50 118 142c0 96 -47 129 -126 129h-42l9 61h30c64 0 116 41 116 122
c0 67 -40 106 -103 106c-46 0 -82 -18 -118 -57l-45 43c50 52 104 78 170 78z" />
    <glyph glyph-name="four.osf" horiz-adv-x="427" 
d="M428 106v-64h-72v-148h-76v148h-263v57l172 474l70 -25l-160 -442h182l8 186h67v-186h72z" />
    <glyph glyph-name="five.osf" horiz-adv-x="426" 
d="M370 563l-11 -64h-225v-207c30 19 58 28 93 28c97 0 164 -77 164 -211c0 -133 -80 -225 -201 -225c-75 0 -125 31 -172 83l49 45c35 -40 71 -62 123 -62c73 0 118 56 118 161c0 110 -45 146 -105 146c-33 0 -57 -9 -85 -26h-61v332h313z" />
    <glyph glyph-name="six.osf" horiz-adv-x="470" 
d="M273 438c86 0 161 -69 161 -212c0 -152 -80 -238 -187 -238c-143 0 -198 128 -198 321c0 232 84 369 225 369c49 0 87 -15 120 -40l-32 -53c-28 18 -54 28 -87 28c-89 0 -140 -98 -145 -264c36 60 85 89 143 89zM248 53c69 0 105 63 105 171c0 110 -40 150 -96 150
c-53 0 -97 -41 -126 -101c3 -151 36 -220 117 -220z" />
    <glyph glyph-name="seven.osf" horiz-adv-x="388" 
d="M358 563v-61l-214 -620l-72 23l206 592h-265v66h345z" />
    <glyph glyph-name="eight.osf" horiz-adv-x="475" 
d="M308 357c87 -39 129 -95 129 -180c0 -114 -81 -189 -201 -189s-198 76 -198 187c0 87 44 142 122 178c-70 38 -97 86 -97 155c0 113 83 170 175 170c90 0 176 -53 176 -168c0 -69 -33 -114 -106 -153zM238 618c-58 0 -97 -32 -97 -111c0 -68 34 -94 101 -122l17 -8
c55 35 76 72 76 131c0 75 -35 110 -97 110zM237 52c74 0 118 40 118 124c0 75 -32 108 -121 145l-23 9c-64 -32 -90 -80 -90 -155c0 -85 45 -123 116 -123z" />
    <glyph glyph-name="nine.osf" horiz-adv-x="462" 
d="M226 573c126 0 188 -96 188 -261c0 -257 -99 -360 -313 -430l-18 60c147 50 236 128 247 274c-28 -42 -72 -73 -128 -73c-90 0 -164 80 -164 212c0 141 83 218 188 218zM217 207c49 0 87 32 115 85c2 159 -31 217 -105 217c-69 0 -109 -50 -109 -156
c0 -98 40 -146 99 -146z" />
    <glyph glyph-name="zero.tf" 
d="M241 699c127 0 193 -110 193 -355c0 -246 -66 -356 -193 -356c-128 0 -194 111 -194 356c0 246 66 355 194 355zM241 634c-72 0 -110 -68 -110 -290c0 -221 38 -291 110 -291c71 0 109 69 109 291c0 221 -38 290 -109 290z" />
    <glyph glyph-name="one.tf" 
d="M316 66h122v-66h-346v66h144v536l-134 -95l-36 54l179 127h71v-622z" />
    <glyph glyph-name="two.tf" 
d="M222 699c116 0 182 -79 182 -182c0 -127 -66 -224 -268 -448h282l-10 -69h-359v65c221 252 272 330 272 449c0 74 -40 118 -103 118c-55 0 -89 -25 -126 -72l-54 40c47 67 108 99 184 99z" />
    <glyph glyph-name="three.tf" 
d="M219 699c113 0 183 -77 183 -173c0 -87 -48 -139 -130 -159c87 -11 148 -65 148 -171c0 -117 -81 -208 -208 -208c-78 0 -135 29 -186 90l51 41c41 -45 78 -65 135 -65c75 0 126 50 126 143c0 102 -55 134 -136 134h-46l10 61h32c71 0 127 40 127 128
c0 76 -46 115 -113 115c-50 0 -86 -19 -125 -58l-45 44c53 53 108 78 177 78z" />
    <glyph glyph-name="four.tf" 
d="M440 233v-65h-72v-168h-78v168h-248v59l172 472l69 -25l-159 -441h167l8 196h69v-196h72z" />
    <glyph glyph-name="five.tf" 
d="M402 688l-12 -65h-232v-217c31 19 60 28 98 28c98 0 167 -77 167 -215s-82 -231 -205 -231c-77 0 -129 32 -176 84l48 44c37 -40 74 -61 127 -61c75 0 122 55 122 166c0 115 -46 151 -108 151c-34 0 -59 -9 -89 -26h-61v342h321z" />
    <glyph glyph-name="six.tf" 
d="M274 448c89 0 165 -70 165 -217c0 -159 -80 -243 -188 -243c-143 0 -198 128 -198 331c0 241 84 380 225 380c47 0 85 -15 117 -40l-31 -53c-26 18 -54 28 -87 28c-85 0 -138 -98 -142 -272c35 58 81 86 139 86zM252 53c69 0 105 62 105 175c0 116 -40 156 -98 156
c-52 0 -95 -40 -124 -99c2 -161 36 -232 117 -232z" />
    <glyph glyph-name="seven.tf" 
d="M419 688v-62l-234 -637l-72 24l226 608h-276v67h356z" />
    <glyph glyph-name="eight.tf" 
d="M315 366c82 -36 126 -91 126 -184c0 -121 -82 -194 -202 -194s-198 73 -198 191c0 90 43 145 120 184c-67 36 -96 84 -96 159c0 120 84 177 176 177c91 0 176 -53 176 -174c0 -71 -32 -117 -102 -159zM241 638c-59 0 -97 -34 -97 -117c0 -72 31 -102 105 -129l16 -6
c52 35 73 72 73 135c0 81 -37 117 -97 117zM240 53c72 0 118 42 118 126c0 82 -30 118 -121 152l-27 11c-59 -35 -86 -82 -86 -162c0 -90 45 -127 116 -127z" />
    <glyph glyph-name="nine.tf" 
d="M232 699c128 0 191 -97 191 -271c0 -285 -101 -379 -316 -449l-18 62c149 48 243 124 250 291c-27 -45 -71 -79 -130 -79c-93 0 -167 82 -167 219c0 152 85 227 190 227zM224 317c51 0 89 34 117 91c0 170 -33 227 -109 227c-68 0 -108 -50 -108 -165
c0 -106 40 -153 100 -153z" />
    <glyph glyph-name="zero.tosf" 
d="M241 573c131 0 214 -96 214 -292c0 -194 -84 -292 -214 -292s-214 97 -214 293c0 194 83 291 214 291zM241 507c-73 0 -134 -52 -134 -225c0 -175 61 -229 134 -229c74 0 134 54 134 228c0 175 -60 226 -134 226z" />
    <glyph glyph-name="one.tosf" 
d="M315 66h120v-66h-346v66h146v411l-136 -94l-36 54l180 126h72v-497z" />
    <glyph glyph-name="two.tosf" 
d="M225 573c110 0 179 -76 179 -171c0 -94 -37 -165 -253 -333h264l-10 -69h-353v65c236 195 269 249 269 335c0 66 -39 107 -102 107c-53 0 -89 -24 -128 -78l-52 39c48 69 103 105 186 105z" />
    <glyph glyph-name="three.tosf" 
d="M220 573c112 0 178 -78 178 -164c0 -83 -48 -134 -125 -153c84 -11 142 -63 142 -167c0 -117 -78 -205 -203 -205c-76 0 -131 28 -179 89l50 41c40 -45 74 -65 128 -65c75 0 122 49 122 142c0 96 -48 129 -126 129h-49l10 62h36c65 0 117 41 116 121
c-1 66 -41 106 -107 106c-48 0 -84 -18 -121 -57l-44 43c50 52 104 78 172 78z" />
    <glyph glyph-name="four.tosf" 
d="M460 106v-64h-79v-148h-76v148h-262v57l172 474l69 -26l-159 -441h180l8 186h68v-186h79z" />
    <glyph glyph-name="five.tosf" 
d="M402 563l-12 -64h-232v-207c30 19 58 28 96 28c101 0 169 -77 169 -211c0 -133 -81 -225 -206 -225c-77 0 -128 31 -175 83l48 45c36 -40 72 -62 126 -62c77 0 123 56 123 161c0 110 -46 146 -109 146c-35 0 -59 -9 -88 -26h-61v332h321z" />
    <glyph glyph-name="six.tosf" 
d="M277 438c90 0 164 -71 164 -212c0 -154 -80 -238 -188 -238c-145 0 -199 127 -199 321c0 232 83 369 225 369c51 0 89 -15 122 -40l-32 -53c-27 18 -54 28 -89 28c-89 0 -140 -96 -145 -263c36 59 83 88 142 88zM253 53c71 0 107 62 107 171s-40 150 -97 150
c-55 0 -98 -40 -128 -99c3 -153 37 -222 118 -222z" />
    <glyph glyph-name="seven.tosf" 
d="M404 563v-61l-218 -620l-73 23l210 592h-279v66h360z" />
    <glyph glyph-name="eight.tosf" 
d="M316 356c82 -37 125 -91 125 -179c0 -116 -81 -189 -201 -189c-121 0 -198 73 -198 186c0 86 43 140 120 179c-68 36 -96 84 -96 154c0 114 84 171 176 171c91 0 176 -52 176 -168c0 -67 -32 -112 -102 -154zM242 618c-59 0 -97 -35 -97 -112c0 -67 31 -97 103 -123
l18 -7c52 35 73 72 73 130c0 75 -37 112 -97 112zM241 53c72 0 118 42 118 122c0 76 -31 111 -120 146l-28 11c-59 -35 -86 -82 -86 -157c0 -85 45 -122 116 -122z" />
    <glyph glyph-name="nine.tosf" 
d="M236 573c128 0 191 -96 191 -261c0 -259 -99 -360 -318 -430l-18 60c154 50 245 128 253 276c-28 -43 -72 -75 -130 -75c-93 0 -168 80 -168 212c0 143 84 218 190 218zM228 207c52 0 89 33 118 86c1 158 -34 216 -109 216c-69 0 -110 -50 -110 -156
c0 -98 41 -146 101 -146z" />
    <glyph glyph-name="zero.zero" horiz-adv-x="499" 
d="M250 678c128 0 193 -111 193 -345s-65 -345 -193 -345c-129 0 -194 112 -194 346s65 344 194 344zM250 613c-73 0 -110 -72 -110 -279c0 -85 5 -145 15 -188l156 445c-16 16 -36 22 -61 22zM250 53c71 0 109 72 109 280c0 91 -6 154 -17 197l-158 -450
c17 -20 39 -27 66 -27z" />
    <glyph glyph-name="zero.osf.zero" horiz-adv-x="537" 
d="M269 573c133 0 225 -99 225 -292c0 -191 -93 -292 -225 -292s-226 100 -226 292s93 292 226 292zM269 507c-77 0 -148 -52 -148 -226c0 -91 16 -148 43 -182l168 396c-19 9 -40 12 -63 12zM269 53c77 0 147 54 147 228c0 92 -16 149 -43 182l-169 -397
c20 -9 42 -13 65 -13z" />
    <glyph glyph-name="zero.tf.zero" 
d="M241 699c127 0 193 -110 193 -355c0 -246 -66 -356 -193 -356c-128 0 -194 111 -194 356c0 246 66 355 194 355zM241 635c-74 0 -112 -69 -112 -291c0 -93 6 -158 17 -202l162 465c-18 21 -40 28 -67 28zM241 53c73 0 111 69 111 291c0 90 -5 154 -15 198l-161 -464
c17 -19 39 -25 65 -25z" />
    <glyph glyph-name="zero.tosf.zero" 
d="M241 573c131 0 214 -96 214 -292c0 -194 -84 -292 -214 -292s-214 97 -214 293c0 194 83 291 214 291zM241 507c-75 0 -135 -52 -135 -225c0 -80 11 -134 31 -170l164 383c-18 9 -38 12 -60 12zM241 53c75 0 135 54 135 228c0 89 -14 145 -37 180l-166 -389
c19 -13 42 -19 68 -19z" />
    <glyph glyph-name="fraction" unicode="&#x2044;" horiz-adv-x="115" 
d="M206 749l52 -23l-348 -802l-54 24z" />
    <glyph glyph-name="uni215F" unicode="&#x215f;" horiz-adv-x="459" 
d="M550 749l52 -23l-348 -802l-54 24zM236 688v-416h-66v347l-83 -57l-31 44l121 82h59z" />
    <glyph glyph-name="onehalf" unicode="&#xbd;" horiz-adv-x="803" 
d="M550 749l52 -23l-348 -802l-54 24zM236 688v-416h-66v347l-83 -57l-31 44l121 82h59zM628 422c72 0 119 -49 119 -117c0 -70 -39 -121 -158 -249h166l-7 -56h-231v53c130 144 162 185 162 249c0 41 -22 65 -57 65c-31 0 -52 -15 -76 -42l-40 31c34 44 72 66 122 66z" />
    <glyph glyph-name="uni2153" unicode="&#x2153;" horiz-adv-x="803" 
d="M550 749l52 -23l-348 -802l-54 24zM236 688v-416h-66v347l-83 -57l-31 44l121 82h59zM629 423c76 0 117 -47 117 -107c0 -52 -29 -84 -79 -95c52 -5 92 -37 92 -103c0 -70 -50 -127 -135 -127c-52 0 -91 22 -121 59l38 34c25 -27 49 -39 80 -39c42 0 69 29 69 76
c0 53 -27 72 -70 72h-29l7 50h20c36 0 63 22 63 67c0 39 -23 62 -58 62c-29 0 -52 -12 -78 -35l-33 35c34 34 72 51 117 51z" />
    <glyph glyph-name="uni2154" unicode="&#x2154;" horiz-adv-x="803" 
d="M550 749l52 -23l-348 -802l-54 24zM169 694c72 0 119 -49 119 -117c0 -70 -39 -121 -158 -249h166l-7 -56h-231v53c130 144 162 185 162 249c0 41 -22 65 -57 65c-31 0 -52 -15 -76 -42l-40 31c34 44 72 66 122 66zM629 423c76 0 117 -47 117 -107c0 -52 -29 -84 -79 -95
c52 -5 92 -37 92 -103c0 -70 -50 -127 -135 -127c-52 0 -91 22 -121 59l38 34c25 -27 49 -39 80 -39c42 0 69 29 69 76c0 53 -27 72 -70 72h-29l7 50h20c36 0 63 22 63 67c0 39 -23 62 -58 62c-29 0 -52 -12 -78 -35l-33 35c34 34 72 51 117 51z" />
    <glyph glyph-name="onequarter" unicode="&#xbc;" horiz-adv-x="803" 
d="M550 749l52 -23l-348 -802l-54 24zM236 272h-66v347l-83 -57l-31 44l121 82h59v-416zM766 152v-54h-46v-98h-64v98h-161v49l109 276l56 -22l-99 -249h96l8 109h55v-109h46z" />
    <glyph glyph-name="threequarters" unicode="&#xbe;" horiz-adv-x="803" 
d="M550 749l52 -23l-348 -802l-54 24zM300 390c0 -70 -50 -127 -135 -127c-52 0 -91 22 -121 59l38 34c25 -27 49 -39 80 -39c42 0 69 29 69 76c0 53 -27 72 -70 72h-29l7 50h20c36 0 63 22 63 67c0 39 -23 62 -58 62c-29 0 -52 -12 -78 -35l-33 35c34 34 72 51 117 51
c76 0 117 -47 117 -107c0 -52 -29 -84 -79 -95c52 -5 92 -37 92 -103zM766 152v-54h-46v-98h-64v98h-161v49l109 276l56 -22l-99 -249h96l8 109h55v-109h46z" />
    <glyph glyph-name="uni2155" unicode="&#x2155;" horiz-adv-x="803" 
d="M550 749l52 -23l-348 -802l-54 24zM236 688v-416h-66v347l-83 -57l-31 44l121 82h59zM744 416l-9 -52h-143v-111c18 9 38 15 59 15c62 0 108 -49 108 -132c0 -86 -54 -145 -138 -145c-53 0 -88 23 -118 57l38 36c23 -24 45 -38 78 -38c43 0 71 32 71 90
c0 60 -27 81 -60 81c-20 0 -35 -5 -54 -15h-47v214h215z" />
    <glyph glyph-name="uni2156" unicode="&#x2156;" horiz-adv-x="803" 
d="M550 749l52 -23l-348 -802l-54 24zM169 694c72 0 119 -49 119 -117c0 -70 -39 -121 -158 -249h166l-7 -56h-231v53c130 144 162 185 162 249c0 41 -22 65 -57 65c-31 0 -52 -15 -76 -42l-40 31c34 44 72 66 122 66zM744 416l-9 -52h-143v-111c18 9 38 15 59 15
c62 0 108 -49 108 -132c0 -86 -54 -145 -138 -145c-53 0 -88 23 -118 57l38 36c23 -24 45 -38 78 -38c43 0 71 32 71 90c0 60 -27 81 -60 81c-20 0 -35 -5 -54 -15h-47v214h215z" />
    <glyph glyph-name="uni2157" unicode="&#x2157;" horiz-adv-x="803" 
d="M550 749l52 -23l-348 -802l-54 24zM170 695c76 0 117 -47 117 -107c0 -52 -29 -84 -79 -95c52 -5 92 -37 92 -103c0 -70 -50 -127 -135 -127c-52 0 -91 22 -121 59l38 34c25 -27 49 -39 80 -39c42 0 69 29 69 76c0 53 -27 72 -70 72h-29l7 50h20c36 0 63 22 63 67
c0 39 -23 62 -58 62c-29 0 -52 -12 -78 -35l-33 35c34 34 72 51 117 51zM744 416l-9 -52h-143v-111c18 9 38 15 59 15c62 0 108 -49 108 -132c0 -86 -54 -145 -138 -145c-53 0 -88 23 -118 57l38 36c23 -24 45 -38 78 -38c43 0 71 32 71 90c0 60 -27 81 -60 81
c-20 0 -35 -5 -54 -15h-47v214h215z" />
    <glyph glyph-name="uni2158" unicode="&#x2158;" horiz-adv-x="803" 
d="M550 749l52 -23l-348 -802l-54 24zM261 272h-64v98h-161v49l109 276l56 -22l-99 -249h96l8 109h55v-109h46v-54h-46v-98zM651 268c62 0 108 -49 108 -132c0 -86 -54 -145 -138 -145c-53 0 -88 23 -118 57l38 36c23 -24 45 -38 78 -38c43 0 71 32 71 90
c0 60 -27 81 -60 81c-20 0 -35 -5 -54 -15h-47v214h215l-9 -52h-143v-111c18 9 38 15 59 15z" />
    <glyph glyph-name="uni2159" unicode="&#x2159;" horiz-adv-x="803" 
d="M550 749l52 -23l-348 -802l-54 24zM236 272h-66v347l-83 -57l-31 44l121 82h59v-416zM658 276c56 0 103 -43 103 -135c0 -94 -51 -150 -126 -150c-94 0 -134 78 -134 200c0 149 59 232 152 232c34 0 59 -10 81 -25l-24 -43c-18 11 -35 17 -55 17c-51 0 -80 -50 -85 -146
c25 34 54 50 88 50zM635 43c39 0 59 33 59 97s-21 85 -52 85c-29 0 -53 -18 -71 -49c1 -95 18 -133 64 -133z" />
    <glyph glyph-name="uni215A" unicode="&#x215a;" horiz-adv-x="803" 
d="M550 749l52 -23l-348 -802l-54 24zM300 408c0 -86 -54 -145 -138 -145c-53 0 -88 23 -118 57l38 36c23 -24 45 -38 78 -38c43 0 71 32 71 90c0 60 -27 81 -60 81c-20 0 -35 -5 -54 -15h-47v214h215l-9 -52h-143v-111c18 9 38 15 59 15c62 0 108 -49 108 -132zM658 276
c56 0 103 -43 103 -135c0 -94 -51 -150 -126 -150c-94 0 -134 78 -134 200c0 149 59 232 152 232c34 0 59 -10 81 -25l-24 -43c-18 11 -35 17 -55 17c-51 0 -80 -50 -85 -146c25 34 54 50 88 50zM635 43c39 0 59 33 59 97s-21 85 -52 85c-29 0 -53 -18 -71 -49
c1 -95 18 -133 64 -133z" />
    <glyph glyph-name="oneeighth" unicode="&#x215b;" horiz-adv-x="803" 
d="M550 749l52 -23l-348 -802l-54 24zM236 272h-66v347l-83 -57l-31 44l121 82h59v-416zM685 223c56 -26 82 -61 82 -112c0 -69 -53 -120 -137 -120c-82 0 -135 51 -135 118c0 52 27 86 78 109c-44 23 -62 54 -62 97c0 65 54 108 121 108c65 0 120 -37 120 -105
c0 -40 -20 -71 -67 -95zM632 374c-36 0 -57 -21 -57 -60c0 -36 17 -52 57 -68l12 -6c33 21 44 41 44 75c0 38 -20 59 -56 59zM631 44c44 0 70 25 70 67s-18 60 -69 80l-19 8c-36 -19 -51 -44 -51 -88s27 -67 69 -67z" />
    <glyph glyph-name="threeeighths" unicode="&#x215c;" horiz-adv-x="803" 
d="M550 749l52 -23l-348 -802l-54 24zM300 390c0 -70 -50 -127 -135 -127c-52 0 -91 22 -121 59l38 34c25 -27 49 -39 80 -39c42 0 69 29 69 76c0 53 -27 72 -70 72h-29l7 50h20c36 0 63 22 63 67c0 39 -23 62 -58 62c-29 0 -52 -12 -78 -35l-33 35c34 34 72 51 117 51
c76 0 117 -47 117 -107c0 -52 -29 -84 -79 -95c52 -5 92 -37 92 -103zM685 223c56 -26 82 -61 82 -112c0 -69 -53 -120 -137 -120c-82 0 -135 51 -135 118c0 52 27 86 78 109c-44 23 -62 54 -62 97c0 65 54 108 121 108c65 0 120 -37 120 -105c0 -40 -20 -71 -67 -95z
M632 374c-36 0 -57 -21 -57 -60c0 -36 17 -52 57 -68l12 -6c33 21 44 41 44 75c0 38 -20 59 -56 59zM631 44c44 0 70 25 70 67s-18 60 -69 80l-19 8c-36 -19 -51 -44 -51 -88s27 -67 69 -67z" />
    <glyph glyph-name="fiveeighths" unicode="&#x215d;" horiz-adv-x="803" 
d="M550 749l52 -23l-348 -802l-54 24zM300 408c0 -86 -54 -145 -138 -145c-53 0 -88 23 -118 57l38 36c23 -24 45 -38 78 -38c43 0 71 32 71 90c0 60 -27 81 -60 81c-20 0 -35 -5 -54 -15h-47v214h215l-9 -52h-143v-111c18 9 38 15 59 15c62 0 108 -49 108 -132zM685 223
c56 -26 82 -61 82 -112c0 -69 -53 -120 -137 -120c-82 0 -135 51 -135 118c0 52 27 86 78 109c-44 23 -62 54 -62 97c0 65 54 108 121 108c65 0 120 -37 120 -105c0 -40 -20 -71 -67 -95zM632 374c-36 0 -57 -21 -57 -60c0 -36 17 -52 57 -68l12 -6c33 21 44 41 44 75
c0 38 -20 59 -56 59zM631 44c44 0 70 25 70 67s-18 60 -69 80l-19 8c-36 -19 -51 -44 -51 -88s27 -67 69 -67z" />
    <glyph glyph-name="seveneighths" unicode="&#x215e;" horiz-adv-x="749" 
d="M496 749l53 -23l-349 -802l-53 24zM287 688v-49l-141 -374l-59 20l135 349h-165v54h230zM631 223c56 -26 82 -61 82 -112c0 -69 -53 -120 -137 -120c-82 0 -135 51 -135 118c0 52 27 86 78 109c-44 23 -62 54 -62 97c0 65 54 108 121 108c65 0 120 -37 120 -105
c0 -40 -20 -71 -67 -95zM578 374c-35 0 -57 -21 -57 -60c0 -36 17 -52 57 -68l12 -6c33 21 44 41 44 75c0 38 -19 59 -56 59zM577 44c44 0 70 25 70 67s-18 60 -69 80l-19 8c-36 -19 -51 -44 -51 -88s27 -67 69 -67z" />
    <glyph glyph-name="zero.dnom" horiz-adv-x="343" 
d="M172 423c87 0 132 -68 132 -216c0 -147 -46 -216 -132 -216s-132 70 -132 217s46 215 132 215zM172 370c-42 0 -63 -35 -63 -162c0 -128 21 -163 63 -163s64 34 64 162c0 129 -22 163 -64 163z" />
    <glyph glyph-name="one.dnom" horiz-adv-x="344" 
d="M236 416v-416h-66v347l-83 -57l-31 44l121 82h59z" />
    <glyph glyph-name="two.dnom" horiz-adv-x="344" 
d="M169 422c72 0 119 -49 119 -117c0 -70 -39 -121 -158 -249h166l-7 -56h-231v53c130 144 162 185 162 249c0 41 -22 65 -57 65c-31 0 -52 -15 -76 -42l-40 31c34 44 72 66 122 66z" />
    <glyph glyph-name="three.dnom" horiz-adv-x="344" 
d="M170 423c76 0 117 -47 117 -107c0 -52 -29 -84 -79 -95c52 -5 92 -37 92 -103c0 -70 -50 -127 -135 -127c-52 0 -91 22 -121 59l38 34c25 -27 49 -39 80 -39c42 0 69 29 69 76c0 53 -27 72 -70 72h-29l7 50h20c36 0 63 22 63 67c0 39 -23 62 -58 62
c-29 0 -52 -12 -78 -35l-33 35c34 34 72 51 117 51z" />
    <glyph glyph-name="four.dnom" horiz-adv-x="344" 
d="M307 152v-54h-46v-98h-64v98h-161v49l109 276l56 -22l-99 -249h96l8 109h55v-109h46z" />
    <glyph glyph-name="five.dnom" horiz-adv-x="344" 
d="M285 416l-9 -52h-143v-111c18 9 38 15 59 15c62 0 108 -49 108 -132c0 -86 -54 -145 -138 -145c-53 0 -88 23 -118 57l38 36c23 -24 45 -38 78 -38c43 0 71 32 71 90c0 60 -27 81 -60 81c-20 0 -35 -5 -54 -15h-47v214h215z" />
    <glyph glyph-name="six.dnom" horiz-adv-x="345" 
d="M199 276c56 0 103 -43 103 -135c0 -94 -51 -150 -126 -150c-94 0 -134 78 -134 200c0 149 59 232 152 232c34 0 59 -10 81 -25l-24 -43c-18 11 -35 17 -55 17c-51 0 -81 -50 -85 -146c25 34 53 50 88 50zM176 43c39 0 59 33 59 97s-21 85 -52 85c-29 0 -53 -19 -71 -50
c1 -94 18 -132 64 -132z" />
    <glyph glyph-name="seven.dnom" horiz-adv-x="344" 
d="M287 416v-49l-141 -374l-59 20l135 349h-165v54h230z" />
    <glyph glyph-name="eight.dnom" horiz-adv-x="344" 
d="M226 223c56 -26 82 -61 82 -112c0 -69 -53 -120 -137 -120c-82 0 -135 51 -135 118c0 51 28 85 78 108c-45 24 -62 55 -62 98c0 65 54 108 121 108c65 0 120 -37 120 -105c0 -40 -20 -71 -67 -95zM173 374c-36 0 -57 -21 -57 -60c0 -36 17 -52 57 -68l12 -6
c33 21 44 41 44 75c0 38 -20 59 -56 59zM172 44c44 0 70 25 70 67s-18 60 -69 80l-19 8c-36 -19 -51 -44 -51 -88s27 -67 69 -67z" />
    <glyph glyph-name="nine.dnom" horiz-adv-x="345" 
d="M172 423c86 0 130 -61 130 -162c0 -171 -70 -235 -216 -277l-15 49c96 30 153 70 161 163c-20 -28 -48 -47 -84 -47c-57 0 -105 47 -105 135c0 89 57 139 129 139zM165 200c28 0 51 18 68 49c1 90 -17 123 -61 123c-38 0 -63 -28 -63 -87c0 -64 24 -85 56 -85z" />
    <glyph glyph-name="zero.numr" horiz-adv-x="343" 
d="M172 696c87 0 132 -68 132 -216c0 -147 -46 -216 -132 -216s-132 70 -132 217s46 215 132 215zM172 643c-42 0 -63 -35 -63 -162c0 -128 21 -163 63 -163s64 34 64 162c0 129 -22 163 -64 163z" />
    <glyph glyph-name="one.numr" horiz-adv-x="344" 
d="M236 688v-416h-66v347l-83 -57l-31 44l121 82h59z" />
    <glyph glyph-name="two.numr" horiz-adv-x="344" 
d="M169 694c72 0 119 -49 119 -117c0 -70 -39 -121 -158 -249h166l-7 -56h-231v53c130 144 162 185 162 249c0 41 -22 65 -57 65c-31 0 -52 -15 -76 -42l-40 31c34 44 72 66 122 66z" />
    <glyph glyph-name="three.numr" horiz-adv-x="344" 
d="M170 695c76 0 117 -47 117 -107c0 -52 -29 -84 -79 -95c52 -5 92 -37 92 -103c0 -70 -50 -127 -135 -127c-52 0 -91 22 -121 59l38 34c25 -27 49 -39 80 -39c42 0 69 29 69 76c0 53 -27 72 -70 72h-29l7 50h20c36 0 63 22 63 67c0 39 -23 62 -58 62
c-29 0 -52 -12 -78 -35l-33 35c34 34 72 51 117 51z" />
    <glyph glyph-name="four.numr" horiz-adv-x="344" 
d="M307 424v-54h-46v-98h-64v98h-161v49l109 276l56 -22l-99 -249h96l8 109h55v-109h46z" />
    <glyph glyph-name="five.numr" horiz-adv-x="344" 
d="M285 688l-9 -52h-143v-111c18 9 38 15 59 15c62 0 108 -49 108 -132c0 -86 -54 -145 -138 -145c-53 0 -88 23 -118 57l38 36c23 -24 45 -38 78 -38c43 0 71 32 71 90c0 60 -27 81 -60 81c-20 0 -35 -5 -54 -15h-47v214h215z" />
    <glyph glyph-name="six.numr" horiz-adv-x="345" 
d="M199 548c56 0 103 -43 103 -135c0 -94 -51 -150 -126 -150c-94 0 -134 78 -134 200c0 149 59 232 152 232c34 0 59 -10 81 -25l-24 -43c-18 11 -35 17 -55 17c-51 0 -80 -50 -85 -146c25 34 54 50 88 50zM176 315c39 0 59 33 59 97s-21 85 -52 85c-29 0 -53 -18 -71 -49
c1 -95 18 -133 64 -133z" />
    <glyph glyph-name="seven.numr" horiz-adv-x="344" 
d="M287 688v-49l-141 -374l-59 20l135 349h-165v54h230z" />
    <glyph glyph-name="eight.numr" horiz-adv-x="344" 
d="M226 495c56 -26 82 -61 82 -112c0 -69 -53 -120 -137 -120c-82 0 -135 51 -135 118c0 52 27 86 78 109c-44 23 -62 54 -62 97c0 65 54 108 121 108c65 0 120 -37 120 -105c0 -40 -20 -71 -67 -95zM173 646c-36 0 -57 -21 -57 -60c0 -36 17 -52 57 -68l12 -6
c33 21 44 41 44 75c0 38 -20 59 -56 59zM172 316c44 0 70 25 70 67s-18 60 -69 80l-19 8c-36 -19 -51 -44 -51 -88s27 -67 69 -67z" />
    <glyph glyph-name="nine.numr" horiz-adv-x="345" 
d="M172 695c86 0 130 -61 130 -162c0 -171 -70 -235 -216 -277l-15 49c96 30 154 71 161 163c-21 -28 -48 -47 -84 -47c-57 0 -105 47 -105 135c0 89 57 139 129 139zM165 472c28 0 51 18 68 49c1 90 -17 123 -61 123c-38 0 -63 -28 -63 -87c0 -64 24 -85 56 -85z" />
    <glyph glyph-name="uni2080" unicode="&#x2080;" horiz-adv-x="343" 
d="M172 223c87 0 132 -68 132 -216c0 -147 -46 -216 -132 -216s-132 70 -132 217s46 215 132 215zM172 170c-42 0 -63 -35 -63 -162c0 -128 21 -163 63 -163s64 34 64 162c0 129 -22 163 -64 163z" />
    <glyph glyph-name="uni2081" unicode="&#x2081;" horiz-adv-x="344" 
d="M236 216v-416h-66v347l-83 -57l-31 44l121 82h59z" />
    <glyph glyph-name="uni2082" unicode="&#x2082;" horiz-adv-x="344" 
d="M169 222c72 0 119 -49 119 -117c0 -70 -39 -121 -158 -249h166l-7 -56h-231v52c130 145 162 186 162 250c0 41 -22 65 -57 65c-31 0 -52 -15 -76 -42l-40 31c34 44 72 66 122 66z" />
    <glyph glyph-name="uni2083" unicode="&#x2083;" horiz-adv-x="344" 
d="M170 223c76 0 117 -47 117 -107c0 -52 -29 -84 -79 -95c52 -5 92 -37 92 -103c0 -70 -50 -127 -135 -127c-52 0 -91 22 -121 59l38 34c25 -27 49 -39 80 -39c42 0 69 29 69 76c0 53 -27 72 -70 72h-29l7 50h20c36 0 63 22 63 67c0 39 -23 62 -58 62
c-29 0 -52 -12 -78 -35l-33 35c34 34 72 51 117 51z" />
    <glyph glyph-name="uni2084" unicode="&#x2084;" horiz-adv-x="344" 
d="M307 -48v-54h-46v-98h-64v98h-161v49l109 276l56 -22l-99 -249h96l8 109h55v-109h46z" />
    <glyph glyph-name="uni2085" unicode="&#x2085;" horiz-adv-x="344" 
d="M285 216l-9 -52h-143v-111c18 9 38 15 59 15c62 0 108 -49 108 -132c0 -86 -54 -145 -138 -145c-53 0 -88 23 -118 57l38 36c23 -24 45 -38 78 -38c43 0 71 32 71 90c0 60 -27 81 -60 81c-20 0 -35 -5 -54 -15h-47v214h215z" />
    <glyph glyph-name="uni2086" unicode="&#x2086;" horiz-adv-x="345" 
d="M199 76c56 0 103 -43 103 -135c0 -94 -51 -150 -126 -150c-94 0 -134 78 -134 200c0 149 59 232 152 232c34 0 59 -10 81 -25l-24 -43c-18 11 -35 17 -55 17c-51 0 -80 -50 -85 -146c25 34 54 50 88 50zM176 -157c39 0 59 33 59 97s-21 85 -52 85c-29 0 -53 -18 -71 -49
c1 -95 18 -133 64 -133z" />
    <glyph glyph-name="uni2087" unicode="&#x2087;" horiz-adv-x="344" 
d="M287 216v-49l-141 -374l-59 20l135 349h-165v54h230z" />
    <glyph glyph-name="uni2088" unicode="&#x2088;" horiz-adv-x="344" 
d="M226 23c56 -26 82 -61 82 -112c0 -69 -53 -120 -137 -120c-82 0 -135 51 -135 118c0 52 27 86 78 109c-44 23 -62 54 -62 97c0 65 54 108 121 108c65 0 120 -37 120 -105c0 -40 -20 -71 -67 -95zM173 174c-36 0 -57 -21 -57 -60c0 -36 17 -52 57 -68l12 -6
c33 21 44 41 44 75c0 38 -20 59 -56 59zM172 -157c44 0 70 26 70 68s-18 60 -69 80l-19 8c-36 -19 -51 -44 -51 -88s27 -68 69 -68z" />
    <glyph glyph-name="uni2089" unicode="&#x2089;" horiz-adv-x="345" 
d="M172 223c86 0 130 -61 130 -162c0 -171 -70 -235 -216 -277l-15 49c96 30 154 71 161 163c-21 -28 -48 -47 -84 -47c-57 0 -105 47 -105 135c0 89 57 139 129 139zM165 0c28 0 51 18 68 49c1 90 -17 123 -61 123c-38 0 -63 -28 -63 -87c0 -64 24 -85 56 -85z" />
    <glyph glyph-name="uni2070" unicode="&#x2070;" horiz-adv-x="343" 
d="M172 745c87 0 132 -68 132 -216c0 -147 -46 -216 -132 -216s-132 70 -132 217s46 215 132 215zM172 692c-42 0 -63 -35 -63 -162c0 -128 21 -163 63 -163s64 34 64 162c0 129 -22 163 -64 163z" />
    <glyph glyph-name="uni00B9" unicode="&#xb9;" horiz-adv-x="344" 
d="M236 738v-416h-66v347l-83 -57l-31 44l121 82h59z" />
    <glyph glyph-name="uni00B2" unicode="&#xb2;" horiz-adv-x="344" 
d="M169 744c72 0 119 -49 119 -117c0 -70 -39 -121 -158 -249h166l-7 -56h-231v53c130 144 162 185 162 249c0 41 -22 65 -57 65c-31 0 -52 -15 -76 -42l-40 31c34 44 72 66 122 66z" />
    <glyph glyph-name="uni00B3" unicode="&#xb3;" horiz-adv-x="344" 
d="M170 745c76 0 117 -47 117 -107c0 -52 -29 -84 -79 -95c52 -5 92 -37 92 -103c0 -70 -50 -127 -135 -127c-52 0 -91 22 -121 59l38 34c25 -27 49 -39 80 -39c42 0 69 29 69 76c0 53 -27 72 -70 72h-29l7 50h20c36 0 63 22 63 67c0 39 -23 62 -58 62
c-29 0 -52 -12 -78 -35l-33 35c34 34 72 51 117 51z" />
    <glyph glyph-name="uni2074" unicode="&#x2074;" horiz-adv-x="344" 
d="M307 474v-54h-46v-98h-64v98h-161v49l109 276l56 -22l-99 -249h96l8 109h55v-109h46z" />
    <glyph glyph-name="uni2075" unicode="&#x2075;" horiz-adv-x="344" 
d="M285 738l-9 -52h-143v-111c18 9 38 15 59 15c62 0 108 -49 108 -132c0 -86 -54 -145 -138 -145c-53 0 -88 23 -118 57l38 36c23 -24 45 -38 78 -38c43 0 71 32 71 90c0 60 -27 81 -60 81c-20 0 -35 -5 -54 -15h-47v214h215z" />
    <glyph glyph-name="uni2076" unicode="&#x2076;" horiz-adv-x="345" 
d="M199 598c56 0 103 -43 103 -135c0 -94 -51 -150 -126 -150c-94 0 -134 78 -134 200c0 149 59 232 152 232c34 0 59 -10 81 -25l-24 -43c-18 11 -35 17 -55 17c-51 0 -80 -50 -85 -146c25 34 54 50 88 50zM176 365c39 0 59 33 59 97s-21 85 -52 85c-29 0 -53 -18 -71 -49
c1 -95 18 -133 64 -133z" />
    <glyph glyph-name="uni2077" unicode="&#x2077;" horiz-adv-x="344" 
d="M287 738v-49l-141 -374l-59 20l135 349h-165v54h230z" />
    <glyph glyph-name="uni2078" unicode="&#x2078;" horiz-adv-x="344" 
d="M226 545c56 -26 82 -61 82 -112c0 -69 -53 -120 -137 -120c-82 0 -135 51 -135 118c0 52 27 86 78 109c-44 23 -62 54 -62 97c0 65 54 108 121 108c65 0 120 -37 120 -105c0 -40 -20 -71 -67 -95zM173 696c-36 0 -57 -21 -57 -60c0 -36 17 -52 57 -68l12 -6
c33 21 44 41 44 75c0 38 -20 59 -56 59zM172 366c44 0 70 25 70 67s-18 60 -69 80l-19 8c-36 -19 -51 -44 -51 -88s27 -67 69 -67z" />
    <glyph glyph-name="uni2079" unicode="&#x2079;" horiz-adv-x="345" 
d="M172 745c86 0 130 -61 130 -162c0 -171 -70 -235 -216 -277l-15 49c96 30 154 71 161 163c-21 -28 -48 -47 -84 -47c-57 0 -105 47 -105 135c0 89 57 139 129 139zM165 522c28 0 51 18 68 49c1 90 -17 123 -61 123c-38 0 -63 -28 -63 -87c0 -64 24 -85 56 -85z" />
    <glyph glyph-name="asterisk" unicode="*" horiz-adv-x="392" 
d="M367 567l-130 -34l91 -119l-65 -39l-67 130l-67 -130l-64 38l90 119l-129 35l23 65l122 -55l-13 161h76l-13 -161l122 56z" />
    <glyph glyph-name="backslash" unicode="\" horiz-adv-x="448" 
d="M156 803l203 -891l-68 -14l-202 892z" />
    <glyph glyph-name="periodcentered" unicode="&#xb7;" horiz-adv-x="210" 
d="M105 374c37 0 61 -29 61 -62s-24 -62 -61 -62s-61 29 -61 62s24 62 61 62z" />
    <glyph glyph-name="bullet" unicode="&#x2022;" horiz-adv-x="296" 
d="M148 443c58 0 99 -44 99 -100c0 -57 -41 -100 -99 -100c-57 0 -98 43 -98 100s41 100 98 100z" />
    <glyph glyph-name="exclamdown.case" horiz-adv-x="223" 
d="M112 576c-37 0 -61 29 -61 62s24 62 61 62c36 0 61 -29 61 -62s-25 -62 -61 -62zM69 0l9 462h68l11 -462h-88z" />
    <glyph glyph-name="questiondown.case" horiz-adv-x="405" 
d="M224 576c-37 0 -61 29 -61 62s24 62 61 62c36 0 60 -29 60 -62s-24 -62 -60 -62zM197 -11c-110 0 -166 73 -166 152c0 153 156 138 156 273v48h78v-53c0 -165 -152 -148 -152 -266c0 -55 34 -87 89 -87c45 0 83 21 120 70l52 -40c-48 -66 -106 -97 -177 -97z" />
    <glyph glyph-name="colon" unicode=":" horiz-adv-x="210" 
d="M105 485c37 0 61 -28 61 -61s-24 -62 -61 -62s-61 29 -61 62s24 61 61 61zM105 112c37 0 61 -29 61 -62s-24 -62 -61 -62s-61 29 -61 62s24 62 61 62z" />
    <glyph glyph-name="comma" unicode="," horiz-adv-x="208" 
d="M105 112c34 0 58 -27 58 -61c0 -20 -6 -37 -17 -66l-55 -146h-54l36 159c-17 12 -28 31 -28 53c0 34 25 61 60 61z" />
    <glyph glyph-name="uni2016" unicode="&#x2016;" horiz-adv-x="514" 
d="M209 806v-908h-74v908h74zM379 806v-908h-74v908h74z" />
    <glyph glyph-name="ellipsis" unicode="&#x2026;" horiz-adv-x="635" 
d="M317 112c37 0 61 -29 61 -62s-24 -62 -61 -62c-36 0 -60 29 -60 62s24 62 60 62zM529 112c37 0 61 -29 61 -62s-24 -62 -61 -62c-36 0 -60 29 -60 62s24 62 60 62zM105 112c37 0 61 -29 61 -62s-24 -62 -61 -62s-61 29 -61 62s24 62 61 62z" />
    <glyph glyph-name="exclam" unicode="!" horiz-adv-x="224" 
d="M155 688l-10 -462h-68l-10 462h88zM111 112c37 0 62 -29 62 -62s-25 -62 -62 -62c-36 0 -60 29 -60 62s24 62 60 62z" />
    <glyph glyph-name="exclamdown" unicode="&#xa1;" horiz-adv-x="224" 
d="M112 489c36 0 61 -29 61 -62s-25 -62 -61 -62c-37 0 -61 29 -61 62s24 62 61 62zM146 251l11 -452h-88l9 452h68z" />
    <glyph glyph-name="numbersign" unicode="#" horiz-adv-x="447" 
d="M435 449h-64l-29 -219h61v-61h-69l-23 -169h-67l22 169h-130l-23 -169h-67l22 169h-55v61h63l29 219h-61v62h69l21 157h67l-20 -157h130l21 157h67l-20 -157h56v-62zM274 230l29 219h-131l-28 -219h130z" />
    <glyph glyph-name="numbersign.osf" horiz-adv-x="447" 
d="M435 449h-64l-29 -219h61v-61h-69l-23 -169h-67l22 169h-130l-23 -169h-67l22 169h-55v61h63l29 219h-61v62h69l21 157h67l-20 -157h130l21 157h67l-20 -157h56v-62zM274 230l29 219h-131l-28 -219h130z" />
    <glyph glyph-name="period" unicode="." horiz-adv-x="210" 
d="M105 112c37 0 61 -29 61 -62s-24 -62 -61 -62s-61 29 -61 62s24 62 61 62z" />
    <glyph glyph-name="question" unicode="?" horiz-adv-x="405" 
d="M207 699c111 0 167 -73 167 -152c0 -153 -156 -138 -156 -273v-48h-78v53c0 165 152 148 152 267c0 54 -35 86 -89 86c-46 0 -83 -21 -121 -70l-51 40c48 66 106 97 176 97zM181 112c37 0 61 -29 61 -62s-24 -62 -61 -62c-36 0 -61 29 -61 62s25 62 61 62z" />
    <glyph glyph-name="questiondown" unicode="&#xbf;" horiz-adv-x="405" 
d="M224 365c-37 0 -61 28 -61 61s24 62 61 62c36 0 60 -29 60 -62s-24 -61 -60 -61zM197 -213c-110 0 -166 73 -166 152c0 153 156 137 156 271v38h78v-43c0 -163 -152 -146 -152 -265c0 -54 34 -87 89 -87c45 0 83 21 120 70l52 -40c-48 -66 -106 -96 -177 -96z" />
    <glyph glyph-name="quotedbl" unicode="&#x22;" horiz-adv-x="370" 
d="M68 429l-11 259h81l-11 -259h-59zM243 429l-12 259h82l-12 -259h-58z" />
    <glyph glyph-name="quotesingle" unicode="'" horiz-adv-x="195" 
d="M68 429l-11 259h81l-11 -259h-59z" />
    <glyph glyph-name="semicolon" unicode=";" horiz-adv-x="211" 
d="M105 485c37 0 61 -28 61 -61s-24 -62 -61 -62s-61 29 -61 62s24 61 61 61zM105 112c34 0 58 -27 58 -61c0 -20 -6 -37 -17 -66l-55 -146h-54l36 159c-17 12 -28 31 -28 53c0 34 25 61 60 61z" />
    <glyph glyph-name="slash" unicode="/" horiz-adv-x="448" 
d="M292 805l67 -14l-203 -893l-67 14z" />
    <glyph glyph-name="numbersign.tf" 
d="M454 459h-64l-30 -229h58v-61h-66l-22 -169h-67l22 169h-131l-22 -169h-68l22 169h-58v61h66l31 229h-61v62h69l22 167h67l-21 -167h130l23 167h67l-22 -167h55v-62zM293 230l30 229h-131l-30 -229h131z" />
    <glyph glyph-name="uni204A" unicode="&#x204a;" horiz-adv-x="456" 
d="M397 526v-64l-221 -671l-73 22l212 645h-272v68h354z" />
    <glyph glyph-name="numbersign.tosf" 
d="M454 459h-64l-30 -229h58v-61h-66l-22 -169h-67l22 169h-131l-22 -169h-68l22 169h-58v61h66l31 229h-61v62h69l22 167h67l-21 -167h130l23 167h67l-22 -167h55v-62zM293 230l30 229h-131l-30 -229h131z" />
    <glyph glyph-name="underscore" unicode="_" horiz-adv-x="450" 
d="M18 -136v70h415v-70h-415z" />
    <glyph glyph-name="uni203F" unicode="&#x203f;" horiz-adv-x="575" 
d="M575 -78c-73 -70 -164 -132 -287 -132c-124 0 -215 62 -288 133l38 43c74 -58 143 -94 250 -94s175 36 248 94z" />
    <glyph glyph-name="uni208D" unicode="&#x208d;" horiz-adv-x="340" 
d="M199 306l42 -27c-46 -85 -76 -158 -76 -292s30 -207 76 -292l-42 -27c-53 89 -100 170 -100 319s47 230 100 319z" />
    <glyph glyph-name="uni208E" unicode="&#x208e;" horiz-adv-x="340" 
d="M141 306c53 -89 100 -170 100 -319s-47 -230 -100 -319l-42 27c46 85 77 158 77 292s-31 207 -77 292z" />
    <glyph glyph-name="braceleft" unicode="{" horiz-adv-x="278" 
d="M238 833v-60c-58 0 -79 -20 -79 -73v-244c0 -72 -25 -92 -71 -107c46 -15 71 -33 71 -105v-245c0 -53 21 -72 79 -72v-61c-111 0 -153 43 -153 142v232c0 55 -16 76 -61 76v66c45 0 61 23 61 78v232c0 98 41 141 153 141z" />
    <glyph glyph-name="braceright" unicode="}" horiz-adv-x="278" 
d="M40 833c112 0 153 -43 153 -141v-232c0 -55 16 -78 61 -78v-66c-45 0 -61 -21 -61 -76v-232c0 -99 -41 -142 -153 -142v61c58 0 79 19 79 72v246c0 71 25 89 71 104c-47 15 -71 35 -71 105v246c0 53 -21 73 -77 73z" />
    <glyph glyph-name="bracketleft" unicode="[" horiz-adv-x="276" 
d="M233 813v-67h-101v-795h101v-66h-177v928h177z" />
    <glyph glyph-name="bracketright" unicode="]" horiz-adv-x="276" 
d="M220 813v-928h-177v66h101v795h-101v67h177z" />
    <glyph glyph-name="braceleft.case" horiz-adv-x="278" 
d="M238 823v-60c-58 0 -79 -20 -79 -73v-244c0 -72 -25 -92 -71 -107c46 -15 71 -33 71 -105v-245c0 -53 21 -72 79 -72v-61c-112 0 -153 43 -153 141v233c0 55 -16 76 -61 76v66c45 0 61 23 61 78v232c0 98 41 141 153 141z" />
    <glyph glyph-name="braceright.case" horiz-adv-x="278" 
d="M40 823c112 0 153 -43 153 -141v-232c0 -55 16 -78 61 -78v-66c-45 0 -61 -21 -61 -76v-233c0 -98 -41 -141 -153 -141v61c58 0 79 19 79 72v246c0 71 25 89 71 104c-47 15 -71 35 -71 105v246c0 53 -21 73 -77 73z" />
    <glyph glyph-name="bracketleft.case" horiz-adv-x="276" 
d="M233 803v-67h-101v-795h101v-66h-177v928h177z" />
    <glyph glyph-name="bracketright.case" horiz-adv-x="276" 
d="M220 803v-928h-177v66h101v795h-101v67h177z" />
    <glyph glyph-name="parenleft.case" horiz-adv-x="279" 
d="M194 832l51 -34c-78 -133 -129 -235 -129 -458c0 -222 51 -325 129 -458l-51 -34c-85 132 -160 258 -160 492s75 360 160 492z" />
    <glyph glyph-name="parenright.case" horiz-adv-x="279" 
d="M85 832c85 -132 160 -258 160 -492s-75 -360 -160 -492l-51 34c77 133 128 236 128 458c0 223 -51 325 -128 458z" />
    <glyph glyph-name="parenleft.dnom" horiz-adv-x="340" 
d="M199 513l42 -27c-46 -85 -76 -158 -76 -292s30 -207 76 -292l-42 -27c-53 89 -100 170 -100 319s47 230 100 319z" />
    <glyph glyph-name="parenright.dnom" horiz-adv-x="340" 
d="M141 513c53 -89 100 -170 100 -319s-47 -230 -100 -319l-42 27c46 85 77 158 77 292s-31 207 -77 292z" />
    <glyph glyph-name="parenleft.numr" horiz-adv-x="340" 
d="M199 790l42 -27c-46 -85 -76 -158 -76 -292s30 -207 76 -292l-42 -27c-53 89 -100 170 -100 319s47 230 100 319z" />
    <glyph glyph-name="parenright.numr" horiz-adv-x="340" 
d="M141 790c53 -89 100 -170 100 -319s-47 -230 -100 -319l-42 27c46 85 77 158 77 292s-31 207 -77 292z" />
    <glyph glyph-name="parenleft" unicode="(" horiz-adv-x="279" 
d="M194 842l51 -34c-78 -133 -129 -235 -129 -458c0 -222 51 -325 129 -458l-51 -34c-85 132 -160 258 -160 492s75 360 160 492z" />
    <glyph glyph-name="parenright" unicode=")" horiz-adv-x="279" 
d="M85 842c85 -132 160 -258 160 -492s-75 -360 -160 -492l-51 34c77 133 128 236 128 458c0 223 -51 325 -128 458z" />
    <glyph glyph-name="uni207D" unicode="&#x207d;" horiz-adv-x="340" 
d="M199 790l42 -27c-46 -85 -76 -158 -76 -292s30 -207 76 -292l-42 -27c-53 89 -100 170 -100 319s47 230 100 319z" />
    <glyph glyph-name="uni207E" unicode="&#x207e;" horiz-adv-x="340" 
d="M141 790c53 -89 100 -170 100 -319s-47 -230 -100 -319l-42 27c46 85 77 158 77 292s-31 207 -77 292z" />
    <glyph glyph-name="uni2015" unicode="&#x2015;" horiz-adv-x="454" 
d="M31 279v68h392v-68h-392z" />
    <glyph glyph-name="emdash.case" horiz-adv-x="686" 
d="M31 324v68h624v-68h-624z" />
    <glyph glyph-name="endash.case" horiz-adv-x="454" 
d="M31 324v68h392v-68h-392z" />
    <glyph glyph-name="hyphen.case" horiz-adv-x="352" 
d="M54 324v68h244v-68h-244z" />
    <glyph glyph-name="uni00AD.case" horiz-adv-x="352" 
d="M54 324v68h244v-68h-244z" />
    <glyph glyph-name="emdash" unicode="&#x2014;" horiz-adv-x="686" 
d="M31 279v68h624v-68h-624z" />
    <glyph glyph-name="endash" unicode="&#x2013;" horiz-adv-x="454" 
d="M31 279v68h392v-68h-392z" />
    <glyph glyph-name="figuredash" unicode="&#x2012;" 
d="M23 299v68h436v-68h-436z" />
    <glyph glyph-name="hyphen" unicode="-" horiz-adv-x="352" 
d="M54 279v68h244v-68h-244z" />
    <glyph glyph-name="figuredash.osf" 
d="M23 299v68h436v-68h-436z" />
    <glyph glyph-name="uni00AD" unicode="&#xad;" horiz-adv-x="352" 
d="M54 279v68h244v-68h-244z" />
    <glyph glyph-name="figuredash.tf" 
d="M23 299v68h436v-68h-436z" />
    <glyph glyph-name="figuredash.tosf" 
d="M23 299v68h436v-68h-436z" />
    <glyph glyph-name="guillemotleft.case" horiz-adv-x="513" 
d="M205 575l48 -32l-120 -211l120 -210l-48 -32l-150 214v56zM410 575l48 -32l-120 -211l120 -210l-48 -32l-150 214v56z" />
    <glyph glyph-name="guillemotright.case" horiz-adv-x="511" 
d="M103 575l150 -215v-56l-150 -214l-48 32l120 210l-120 211zM306 575l150 -215v-56l-150 -214l-48 32l120 210l-120 211z" />
    <glyph glyph-name="guilsinglleft.case" horiz-adv-x="308" 
d="M205 575l48 -32l-120 -211l120 -210l-48 -32l-150 214v56z" />
    <glyph glyph-name="guilsinglright.case" horiz-adv-x="308" 
d="M103 575l150 -215v-56l-150 -214l-48 32l120 210l-120 211z" />
    <glyph glyph-name="guillemotleft" unicode="&#xab;" horiz-adv-x="513" 
d="M410 530l48 -32l-120 -211l120 -210l-48 -32l-150 214v56zM205 530l48 -32l-120 -211l120 -210l-48 -32l-150 214v56z" />
    <glyph glyph-name="guillemotright" unicode="&#xbb;" horiz-adv-x="511" 
d="M306 530l150 -215v-56l-150 -214l-48 32l120 210l-120 211zM103 530l150 -215v-56l-150 -214l-48 32l120 210l-120 211z" />
    <glyph glyph-name="guilsinglleft" unicode="&#x2039;" horiz-adv-x="308" 
d="M205 530l48 -32l-120 -211l120 -210l-48 -32l-150 214v56z" />
    <glyph glyph-name="guilsinglright" unicode="&#x203a;" horiz-adv-x="308" 
d="M103 530l150 -215v-56l-150 -214l-48 32l120 210l-120 211z" />
    <glyph glyph-name="quotedblbase" unicode="&#x201e;" horiz-adv-x="376" 
d="M277 97c33 0 53 -26 53 -56c0 -16 -4 -30 -15 -57l-55 -135h-49l35 145c-15 11 -24 27 -24 45c0 32 22 58 55 58zM105 97c33 0 54 -26 54 -56c0 -16 -5 -30 -16 -57l-55 -135h-49l35 145c-15 11 -24 27 -24 45c0 32 22 58 55 58z" />
    <glyph glyph-name="quotedblleft" unicode="&#x201c;" horiz-adv-x="376" 
d="M99 502c-33 0 -53 26 -53 56c0 16 4 30 15 57l55 135h49l-35 -145c15 -11 24 -27 24 -45c0 -32 -22 -58 -55 -58zM270 502c-32 0 -53 26 -53 56c0 16 4 30 15 57l56 135h48l-35 -145c16 -11 24 -27 24 -45c0 -32 -21 -58 -55 -58z" />
    <glyph glyph-name="quotedblright" unicode="&#x201d;" horiz-adv-x="376" 
d="M105 749c33 0 54 -25 54 -55c0 -17 -5 -30 -16 -57l-55 -135h-49l35 144c-15 12 -24 27 -24 46c0 32 22 57 55 57zM277 749c33 0 53 -26 53 -56c0 -16 -4 -30 -15 -57l-55 -135h-49l35 145c-15 11 -24 27 -24 45c0 32 22 58 55 58z" />
    <glyph glyph-name="quoteleft" unicode="&#x2018;" horiz-adv-x="204" 
d="M99 502c-33 0 -54 26 -54 56c0 16 5 30 16 57l55 135h49l-35 -145c15 -11 24 -27 24 -45c0 -32 -22 -58 -55 -58z" />
    <glyph glyph-name="quoteright" unicode="&#x2019;" horiz-adv-x="204" 
d="M105 749c33 0 54 -25 54 -55c0 -17 -5 -30 -16 -57l-55 -135h-49l35 144c-15 12 -24 27 -24 46c0 32 22 57 55 57z" />
    <glyph glyph-name="quotesinglbase" unicode="&#x201a;" horiz-adv-x="204" 
d="M105 97c33 0 54 -26 54 -56c0 -16 -5 -30 -16 -57l-55 -135h-49l35 145c-15 11 -24 27 -24 45c0 32 22 58 55 58z" />
    <glyph glyph-name="anoteleia" unicode="&#x387;" horiz-adv-x="210" 
d="M105 374c37 0 61 -29 61 -62s-24 -62 -61 -62s-61 29 -61 62s24 62 61 62z" />
    <glyph glyph-name="uni037E" unicode="&#x37e;" horiz-adv-x="211" 
d="M105 485c37 0 61 -28 61 -61s-24 -62 -61 -62s-61 29 -61 62s24 61 61 61zM105 112c34 0 58 -27 58 -61c0 -20 -6 -37 -17 -66l-55 -146h-54l36 159c-17 12 -28 31 -28 53c0 34 25 61 60 61z" />
    <glyph glyph-name="uni2007" unicode="&#x2007;" 
 />
    <glyph glyph-name="space.frac" horiz-adv-x="35" 
 />
    <glyph glyph-name="uni2008" unicode="&#x2008;" horiz-adv-x="309" 
 />
    <glyph glyph-name="space" unicode=" " horiz-adv-x="227" 
 />
    <glyph glyph-name="uni00A0" unicode="&#xa0;" horiz-adv-x="227" 
 />
    <glyph glyph-name="uni200B" unicode="&#x200b;" horiz-adv-x="0" 
 />
    <glyph glyph-name="uni200E" unicode="&#x200e;" horiz-adv-x="0" 
d="M73 822l55 -72l-55 -72l-13 9l43 55h-95v-892h-16v908h111l-43 55z" />
    <glyph glyph-name="uni200F" unicode="&#x200f;" horiz-adv-x="0" 
d="M-73 822l13 -9l-43 -55h111v-908h-16v892h-95l43 -55l-13 -9l-55 72z" />
    <glyph glyph-name="uni200D" unicode="&#x200d;" horiz-adv-x="0" 
d="M54 815l11 -11l-54 -54l57 -57l-11 -11l-49 49v-881h-16v881l-49 -49l-11 11l57 57l-54 54l11 11l54 -54z" />
    <glyph glyph-name="uni200C" unicode="&#x200c;" horiz-adv-x="0" 
d="M8 750v-900h-16v900h16z" />
    <glyph glyph-name="CR" unicode="&#xd;" horiz-adv-x="227" 
 />
    <glyph glyph-name="uniFEFF" unicode="&#xfeff;" horiz-adv-x="0" 
 />
    <glyph glyph-name="cent" unicode="&#xa2;" horiz-adv-x="408" 
d="M389 46c-31 -29 -67 -49 -108 -55v-144h-67v144c-102 18 -165 110 -165 268s64 257 166 275v149h66v-148c40 -5 73 -22 107 -53l-38 -49c-30 24 -58 38 -96 38c-72 0 -118 -62 -118 -211s46 -203 117 -203c39 0 66 14 98 39z" />
    <glyph glyph-name="currency" unicode="&#xa4;" 
d="M460 136l-51 -43l-65 76c-29 -21 -64 -32 -105 -32c-39 0 -73 11 -101 32l-66 -76l-47 44l71 79c-21 34 -32 76 -32 125c0 47 11 89 30 122l-72 84l50 43l66 -78c28 21 62 32 101 32c40 0 75 -11 104 -31l66 77l48 -44l-71 -80c21 -33 33 -76 33 -125
c0 -48 -11 -90 -31 -123zM241 201c68 0 103 46 103 141c0 94 -35 141 -103 141s-105 -47 -105 -141c0 -95 37 -141 105 -141z" />
    <glyph glyph-name="dollar" unicode="$" horiz-adv-x="457" 
d="M422 184c0 -93 -59 -172 -157 -191v-146h-67v142c-75 4 -132 36 -178 85l45 48c42 -40 87 -66 150 -66c73 0 124 47 124 127c0 66 -28 100 -126 135c-115 41 -170 95 -170 190c0 86 65 155 155 169v145h67v-145c57 -8 100 -34 139 -74l-44 -49c-42 40 -81 58 -130 58
c-62 0 -104 -40 -104 -101c0 -57 26 -90 127 -127c99 -36 169 -82 169 -200z" />
    <glyph glyph-name="uni20AF" unicode="&#x20af;" horiz-adv-x="1026" 
d="M246 668c156 0 299 -55 299 -330c0 -273 -147 -338 -285 -338h-171v65c58 26 71 50 71 129v359h81v-360c0 -65 -14 -97 -66 -127l91 1c102 1 192 47 192 271c0 229 -95 263 -198 263h-101h-27c-34 0 -50 -20 -50 -54c0 -26 7 -48 17 -74l-56 -28c-17 28 -34 60 -34 104
c0 68 44 119 127 119h23h87zM781 538c125 0 191 -92 191 -274c0 -156 -66 -276 -180 -276c-49 0 -88 22 -116 64v-253l-81 -10v495c0 169 62 254 186 254zM777 54c69 0 109 70 109 210c0 154 -36 211 -104 211c-78 0 -106 -67 -106 -205v-141c24 -50 59 -75 101 -75z" />
    <glyph glyph-name="Euro" unicode="&#x20ac;" horiz-adv-x="497" 
d="M180 234c14 -130 64 -178 147 -178c50 0 86 19 122 40v-69c-40 -23 -80 -39 -133 -39c-120 0 -198 79 -221 246h-73l12 56h59v94h-71l12 56h62c29 160 115 238 224 238c60 0 109 -19 155 -55l-31 -55c-41 29 -74 43 -121 43c-68 0 -121 -46 -141 -171h223l-14 -56h-213
v-94h197l-11 -56h-184z" />
    <glyph glyph-name="florin" unicode="&#x192;" horiz-adv-x="297" 
d="M242 682c-47 0 -68 -22 -68 -72v-84h113l-9 -64h-104v-386v-49c0 -145 -50 -188 -144 -236l-25 59c59 32 88 60 88 173v439h-75v64h75v84c0 80 51 138 144 138c44 0 77 -10 111 -28l-25 -57c-28 14 -54 19 -81 19z" />
    <glyph glyph-name="uni20BA" unicode="&#x20ba;" horiz-adv-x="468" 
d="M405 191l59 -23c-35 -107 -103 -168 -236 -168h-124v205l-48 -25l-21 51l69 37v77l-47 -24l-22 51l69 36v260h80v-218l139 73l22 -51l-161 -84v-78l138 72l22 -50l-160 -84v-179h50c89 0 135 32 171 122z" />
    <glyph glyph-name="cent.osf" horiz-adv-x="408" 
d="M389 46c-31 -29 -67 -49 -108 -55v-144h-67v144c-102 18 -165 110 -165 268s64 257 166 275v149h66v-148c40 -5 73 -22 107 -53l-38 -49c-30 24 -58 38 -96 38c-72 0 -118 -62 -118 -211s46 -203 117 -203c39 0 66 14 98 39z" />
    <glyph glyph-name="currency.osf" horiz-adv-x="481" 
d="M460 136l-51 -43l-65 76c-29 -21 -64 -32 -105 -32c-39 0 -73 11 -101 32l-66 -76l-47 44l71 79c-21 34 -32 76 -32 125c0 47 11 89 30 122l-72 84l50 43l66 -78c28 21 62 32 101 32c40 0 75 -11 104 -31l66 77l48 -44l-71 -80c21 -33 33 -76 33 -125
c0 -48 -11 -90 -31 -123zM241 201c68 0 103 46 103 141c0 94 -35 141 -103 141s-105 -47 -105 -141c0 -95 37 -141 105 -141z" />
    <glyph glyph-name="dollar.osf" horiz-adv-x="457" 
d="M422 184c0 -93 -59 -172 -157 -191v-146h-67v142c-75 4 -132 36 -178 85l45 48c42 -40 87 -66 150 -66c73 0 124 47 124 127c0 66 -28 100 -126 135c-115 41 -170 95 -170 190c0 86 65 155 155 169v145h67v-145c57 -8 100 -34 139 -74l-44 -49c-42 40 -81 58 -130 58
c-62 0 -104 -40 -104 -101c0 -57 26 -90 127 -127c99 -36 169 -82 169 -200z" />
    <glyph glyph-name="uni20AF.osf" horiz-adv-x="1026" 
d="M246 668c156 0 299 -55 299 -330c0 -273 -147 -338 -285 -338h-171v65c58 26 71 50 71 129v359h81v-360c0 -65 -14 -97 -66 -127l91 1c102 1 192 47 192 271c0 229 -95 263 -198 263h-101h-27c-34 0 -50 -20 -50 -54c0 -26 7 -48 17 -74l-56 -28c-17 28 -34 60 -34 104
c0 68 44 119 127 119h23h87zM781 538c125 0 191 -92 191 -274c0 -156 -66 -276 -180 -276c-49 0 -88 22 -116 64v-253l-81 -10v495c0 169 62 254 186 254zM777 54c69 0 109 70 109 210c0 154 -36 211 -104 211c-78 0 -106 -67 -106 -205v-141c24 -50 59 -75 101 -75z" />
    <glyph glyph-name="Euro.osf" horiz-adv-x="497" 
d="M180 234c14 -130 64 -178 147 -178c50 0 86 19 122 40v-69c-40 -23 -80 -39 -133 -39c-120 0 -198 79 -221 246h-73l12 56h59v94h-71l12 56h62c29 160 115 238 224 238c60 0 109 -19 155 -55l-31 -55c-41 29 -74 43 -121 43c-68 0 -121 -46 -141 -171h223l-14 -56h-213
v-94h197l-11 -56h-184z" />
    <glyph glyph-name="uni20BA.osf" horiz-adv-x="468" 
d="M405 191l59 -23c-35 -107 -103 -168 -236 -168h-124v205l-48 -25l-21 51l69 37v77l-47 -24l-22 51l69 36v260h80v-218l139 73l22 -51l-161 -84v-78l138 72l22 -50l-160 -84v-179h50c89 0 135 32 171 122z" />
    <glyph glyph-name="uni20BD.osf" 
d="M179 250v-81h149v-55h-149v-114h-80v114h-64v55h64v81h-64v63h64v355h118c157 0 240 -68 240 -206c0 -149 -93 -212 -240 -212h-38zM216 604h-37v-291h37c101 0 158 32 158 148c0 105 -53 143 -158 143z" />
    <glyph glyph-name="uni20B9.osf" horiz-adv-x="456" 
d="M432 668v-56h-139c36 -18 59 -51 68 -94h71v-57h-66c-2 -99 -45 -155 -127 -183l160 -278h-93l-144 263h-111v64h98c81 0 129 37 131 134h-229v57h225c-14 60 -57 88 -136 88h-89v62h381z" />
    <glyph glyph-name="sterling.osf" horiz-adv-x="453" 
d="M186 193c0 -65 -12 -98 -61 -124h282l-9 -69h-363v65c59 26 71 50 71 129v131h-57v54h57v124c0 101 60 175 164 175c63 0 112 -26 152 -80l-51 -40c-28 36 -55 54 -97 54c-57 0 -88 -38 -88 -107v-126h177v-54h-177v-132z" />
    <glyph glyph-name="yen.osf" horiz-adv-x="460" 
d="M456 668l-165 -325h98v-56h-118v-93h118v-56h-118v-138h-82v138h-118v56h118v93h-118v56h98l-165 325h87l141 -302l141 302h83z" />
    <glyph glyph-name="uni20BD" unicode="&#x20bd;" 
d="M179 250v-81h149v-55h-149v-114h-80v114h-64v55h64v81h-64v63h64v355h118c157 0 240 -68 240 -206c0 -149 -93 -212 -240 -212h-38zM216 604h-37v-291h37c101 0 158 32 158 148c0 105 -53 143 -158 143z" />
    <glyph glyph-name="uni20B9" unicode="&#x20b9;" horiz-adv-x="456" 
d="M432 668v-56h-139c36 -18 59 -51 68 -94h71v-57h-66c-2 -99 -45 -155 -127 -183l160 -278h-93l-144 263h-111v64h98c81 0 129 37 131 134h-229v57h225c-14 60 -57 88 -136 88h-89v62h381z" />
    <glyph glyph-name="sterling" unicode="&#xa3;" horiz-adv-x="453" 
d="M186 193c0 -65 -12 -98 -61 -124h282l-9 -69h-363v65c59 26 71 50 71 129v131h-57v54h57v124c0 101 60 175 164 175c63 0 112 -26 152 -80l-51 -40c-28 36 -55 54 -97 54c-57 0 -88 -38 -88 -107v-126h177v-54h-177v-132z" />
    <glyph glyph-name="cent.tf" 
d="M373 96l38 -50c-31 -29 -66 -49 -107 -56v-143h-67v144c-102 18 -165 110 -165 268s63 257 166 275v149h66v-148c39 -5 73 -22 107 -53l-38 -49c-30 24 -59 38 -97 38c-72 0 -118 -62 -118 -211s46 -203 118 -203c38 0 66 14 97 39z" />
    <glyph glyph-name="currency.tf" 
d="M460 136l-51 -43l-65 76c-29 -21 -64 -32 -105 -32c-39 0 -73 11 -101 32l-66 -76l-47 44l71 79c-21 34 -32 76 -32 125c0 47 11 89 30 122l-72 84l50 43l66 -78c28 21 62 32 101 32c40 0 75 -11 104 -31l66 77l48 -44l-71 -80c21 -33 33 -76 33 -125
c0 -48 -11 -90 -31 -123zM241 201c68 0 103 46 103 141c0 94 -35 141 -103 141s-105 -47 -105 -141c0 -95 37 -141 105 -141z" />
    <glyph glyph-name="dollar.tf" 
d="M434 193c0 -99 -60 -176 -161 -194v-152h-67v149c-74 5 -133 36 -176 85l44 48c41 -39 88 -65 152 -65c71 0 124 43 124 127c0 71 -28 102 -127 138c-116 42 -170 91 -170 192c0 91 63 158 153 170v155h67v-155c61 -7 103 -33 143 -74l-44 -50c-43 42 -82 58 -132 58
c-61 0 -105 -35 -105 -101c0 -61 25 -91 128 -128c99 -36 171 -82 171 -203z" />
    <glyph glyph-name="uni20AF.tf" horiz-adv-x="964" 
d="M210 688c159 0 303 -57 303 -340c0 -278 -148 -348 -276 -348h-156v65c59 26 72 50 72 129v379h81v-380c0 -65 -14 -97 -66 -127l75 1c93 1 183 48 183 281c0 239 -95 273 -201 273h-66h-27c-34 0 -49 -20 -49 -54c0 -26 7 -48 16 -74l-55 -28c-17 28 -34 60 -34 104
c0 68 44 119 127 119h22h51zM745 537c125 0 189 -91 189 -273c0 -155 -61 -276 -173 -276c-49 0 -89 20 -118 63v-251l-81 -10v486c0 177 62 261 183 261zM741 55c69 0 107 71 107 209c0 154 -34 209 -101 209c-77 0 -104 -65 -104 -211v-135c23 -48 58 -72 98 -72z" />
    <glyph glyph-name="Euro.tf" 
d="M180 244c16 -134 62 -187 144 -187c51 0 86 16 122 37v-71c-39 -21 -75 -35 -128 -35c-121 0 -201 83 -223 256h-73l12 56h59v94h-71l12 56h62c28 166 111 249 224 249c60 0 107 -19 153 -55l-32 -54c-42 28 -72 41 -119 41c-69 0 -122 -51 -141 -181h224l-14 -56h-213
v-94h197l-11 -56h-184z" />
    <glyph glyph-name="uni20BA.tf" 
d="M403 191l59 -23c-34 -107 -101 -168 -226 -168h-117v226l-47 -25l-21 50l68 36v78l-47 -24l-21 50l68 36v261h80v-219l138 73l22 -50l-160 -84v-79l138 73l21 -50l-159 -84v-199h42c82 0 127 32 162 122z" />
    <glyph glyph-name="uni20BD.tf" 
d="M193 270v-81h131v-55h-131v-134h-80v134h-64v55h64v81h-64v63h64v355h116c140 0 223 -67 223 -206c0 -151 -93 -212 -223 -212h-36zM228 624h-35v-291h34c85 0 142 31 142 148c0 105 -53 143 -141 143z" />
    <glyph glyph-name="uni20B9.tf" 
d="M440 688v-56h-142c39 -18 62 -51 71 -94h71v-57h-66c-2 -100 -45 -155 -127 -183l160 -298h-96l-142 283h-92v65h81c81 0 127 36 130 133h-211v57h206c-13 60 -55 88 -133 88h-73v62h363z" />
    <glyph glyph-name="sterling.tf" 
d="M201 193c0 -65 -12 -98 -62 -124h291l-9 -69h-371v65c58 26 71 50 71 129v141h-57v54h57v128c0 104 59 182 170 182c64 0 114 -25 154 -80l-51 -40c-28 36 -56 53 -102 53c-60 0 -91 -41 -91 -115v-128h185v-54h-185v-142z" />
    <glyph glyph-name="yen.tf" 
d="M475 688l-174 -345h98v-56h-117v-93h117v-56h-117v-138h-82v138h-117v56h117v93h-117v56h97l-173 345h88l148 -322l146 322h86z" />
    <glyph glyph-name="cent.tosf" 
d="M373 96l38 -50c-31 -29 -66 -49 -107 -56v-143h-67v144c-102 18 -165 110 -165 268s63 257 166 275v149h66v-148c39 -5 73 -22 107 -53l-38 -49c-30 24 -59 38 -97 38c-72 0 -118 -62 -118 -211s46 -203 118 -203c38 0 66 14 97 39z" />
    <glyph glyph-name="currency.tosf" 
d="M460 136l-51 -43l-65 76c-29 -21 -64 -32 -105 -32c-39 0 -73 11 -101 32l-66 -76l-47 44l71 79c-21 34 -32 76 -32 125c0 47 11 89 30 122l-72 84l50 43l66 -78c28 21 62 32 101 32c40 0 75 -11 104 -31l66 77l48 -44l-71 -80c21 -33 33 -76 33 -125
c0 -48 -11 -90 -31 -123zM241 201c68 0 103 46 103 141c0 94 -35 141 -103 141s-105 -47 -105 -141c0 -95 37 -141 105 -141z" />
    <glyph glyph-name="dollar.tosf" 
d="M426 186c0 -100 -57 -175 -153 -193v-146h-67v143c-71 5 -129 36 -172 86l45 48c40 -40 87 -67 145 -67c68 0 120 42 120 127c0 70 -28 101 -122 137c-111 41 -164 87 -164 187c0 89 62 156 148 169v148h67v-148c56 -7 99 -33 137 -74l-44 -49c-39 41 -80 58 -124 58
c-60 0 -103 -35 -103 -101c0 -60 25 -88 123 -125c93 -35 164 -78 164 -200z" />
    <glyph glyph-name="uni20AF.tosf" horiz-adv-x="964" 
d="M210 668c159 0 303 -57 303 -330c0 -268 -148 -338 -276 -338h-156v65c59 26 72 50 72 129v359h81v-360c0 -65 -14 -97 -66 -127l75 1c93 1 183 48 183 271c0 229 -95 263 -201 263h-66h-27c-34 0 -49 -20 -49 -54c0 -26 7 -48 16 -74l-55 -28c-17 28 -34 60 -34 104
c0 68 44 119 127 119h22h51zM745 522c125 0 189 -92 189 -266c0 -147 -61 -268 -173 -268c-49 0 -89 20 -118 63v-251l-81 -10v478c0 169 62 254 183 254zM741 55c69 0 107 71 107 201c0 146 -34 201 -101 201c-77 0 -104 -64 -104 -202v-128c23 -48 58 -72 98 -72z" />
    <glyph glyph-name="Euro.tosf" 
d="M194 234c15 -126 61 -177 143 -177c50 0 84 16 121 37v-71c-39 -21 -75 -35 -128 -35c-120 0 -200 81 -221 246h-74l13 56h59v94h-72l13 56h62c27 156 110 239 223 239c59 0 105 -19 152 -55l-33 -54c-41 28 -71 41 -118 41c-68 0 -120 -50 -139 -171h217l-13 -56h-208
v-94h192l-12 -56h-177z" />
    <glyph glyph-name="uni20BA.tosf" 
d="M403 191l59 -23c-34 -107 -101 -168 -226 -168h-117v208l-47 -25l-21 50l68 36v78l-47 -24l-21 50l68 36v259h80v-217l138 73l22 -50l-160 -84v-79l138 73l21 -50l-159 -84v-181h42c82 0 127 32 162 122z" />
    <glyph glyph-name="uni20BD.tosf" 
d="M193 251v-80h131v-56h-131v-115h-80v115h-64v56h64v80h-64v63h64v354h116c140 0 223 -67 223 -205c0 -151 -93 -212 -223 -212h-36zM228 604h-35v-290h34c85 0 143 32 143 148c0 104 -54 142 -142 142z" />
    <glyph glyph-name="uni20B9.tosf" 
d="M440 668v-56h-142c39 -18 62 -51 71 -94h71v-57h-66c-2 -99 -45 -155 -126 -183l159 -278h-94l-142 263h-94v65h81c81 0 127 36 130 133h-211v57h206c-13 60 -55 88 -133 88h-73v62h363z" />
    <glyph glyph-name="sterling.tosf" 
d="M209 193c0 -65 -11 -98 -61 -124h277l-9 -69h-357v65c58 26 71 50 71 129v131h-57v54h57v116c0 105 57 183 160 183c61 0 106 -25 147 -80l-50 -40c-29 36 -56 54 -94 54c-52 0 -84 -43 -84 -116v-117h172v-54h-172v-132z" />
    <glyph glyph-name="yen.tosf" 
d="M473 668l-171 -325h97v-56h-117v-93h117v-56h-117v-138h-82v138h-117v56h117v93h-117v56h96l-170 325h88l146 -302l144 302h86z" />
    <glyph glyph-name="yen" unicode="&#xa5;" horiz-adv-x="460" 
d="M456 668l-165 -325h98v-56h-118v-93h118v-56h-118v-138h-82v138h-118v56h118v93h-118v56h98l-165 325h87l141 -302l141 302h83z" />
    <glyph glyph-name="uni2126" unicode="&#x2126;" horiz-adv-x="595" 
d="M298 699c153 0 250 -116 250 -348c0 -146 -32 -226 -120 -280h101v-71h-187v71c83 34 118 120 118 280c0 201 -61 279 -162 279c-100 0 -163 -78 -163 -280c0 -170 40 -245 117 -279v-71h-187v71h97c-81 49 -115 131 -115 279c0 227 101 349 251 349z" />
    <glyph glyph-name="approxequal" unicode="&#x2248;" horiz-adv-x="420" 
d="M278 354c-64 0 -99 59 -138 59c-29 0 -46 -26 -62 -51l-47 25c21 40 55 88 114 88c62 0 96 -58 137 -58c27 0 45 21 60 46l47 -26c-21 -40 -55 -83 -111 -83zM278 170c-64 0 -99 59 -138 59c-29 0 -46 -26 -62 -51l-47 26c21 40 55 88 114 88c62 0 96 -58 137 -58
c27 0 45 20 60 46l47 -26c-21 -40 -55 -84 -111 -84z" />
    <glyph glyph-name="asciitilde" unicode="~" horiz-adv-x="420" 
d="M278 256c-64 0 -99 59 -138 59c-29 0 -46 -26 -62 -51l-47 26c21 40 55 88 114 88c62 0 96 -58 137 -58c27 0 45 20 60 46l47 -26c-21 -40 -55 -84 -111 -84z" />
    <glyph glyph-name="uni2219" unicode="&#x2219;" horiz-adv-x="210" 
d="M105 374c37 0 61 -29 61 -62s-24 -62 -61 -62s-61 29 -61 62s24 62 61 62z" />
    <glyph glyph-name="infinity.case" horiz-adv-x="766" 
d="M553 560c109 0 165 -93 165 -202c0 -111 -54 -204 -168 -204c-72 0 -130 51 -168 127c-39 -75 -90 -127 -167 -127c-113 0 -167 94 -167 203c0 111 58 203 165 203c75 0 134 -51 170 -129c40 79 90 129 170 129zM219 221c64 0 99 59 132 138c-20 54 -61 135 -129 135
c-56 0 -94 -45 -94 -137c0 -89 37 -136 91 -136zM547 221c54 0 91 46 91 137c0 88 -37 135 -91 135c-64 0 -98 -58 -133 -139c22 -55 63 -133 133 -133z" />
    <glyph glyph-name="divide" unicode="&#xf7;" horiz-adv-x="431" 
d="M215 618c37 0 61 -28 61 -61c0 -34 -24 -62 -61 -62c-36 0 -60 28 -60 62c0 33 24 61 60 61zM53 299v67h325v-67h-325zM215 168c37 0 61 -29 61 -62s-24 -62 -61 -62c-36 0 -60 29 -60 62s24 62 60 62z" />
    <glyph glyph-name="uni2215" unicode="&#x2215;" horiz-adv-x="115" 
d="M206 749l52 -23l-348 -802l-54 24z" />
    <glyph glyph-name="equal.dnom" horiz-adv-x="343" 
d="M63 233v58h218v-58h-218zM63 117v57h218v-57h-218z" />
    <glyph glyph-name="minus.dnom" horiz-adv-x="343" 
d="M63 174v59h218v-59h-218z" />
    <glyph glyph-name="plus.dnom" horiz-adv-x="344" 
d="M202 321v-88h80v-59h-80v-86h-61v86h-78v59h78v88h61z" />
    <glyph glyph-name="dotmath" unicode="&#x22c5;" horiz-adv-x="210" 
d="M105 374c37 0 61 -29 61 -62s-24 -62 -61 -62s-61 29 -61 62s24 62 61 62z" />
    <glyph glyph-name="uni2999" unicode="&#x2999;" horiz-adv-x="248" 
d="M123 1119c-40 0 -73 32 -73 73c0 40 33 73 73 73c41 0 73 -33 73 -73c0 -41 -32 -73 -73 -73zM123 829c-40 0 -73 32 -73 73c0 40 33 73 73 73c41 0 73 -33 73 -73c0 -41 -32 -73 -73 -73zM123 533c-40 0 -73 32 -73 73c0 40 33 73 73 73c41 0 73 -33 73 -73
c0 -41 -32 -73 -73 -73zM123 237c-40 0 -73 32 -73 73c0 40 33 73 73 73c41 0 73 -33 73 -73c0 -41 -32 -73 -73 -73zM123 -59c-40 0 -73 32 -73 73c0 40 33 73 73 73c41 0 73 -33 73 -73c0 -41 -32 -73 -73 -73zM123 -355c-40 0 -73 32 -73 73c0 40 33 73 73 73
c41 0 73 -33 73 -73c0 -41 -32 -73 -73 -73z" />
    <glyph glyph-name="emptyset" unicode="&#x2205;" horiz-adv-x="900" 
d="M682 634c82 -67 134 -169 134 -285c0 -205 -162 -365 -365 -365c-75 0 -145 22 -203 60l-41 -56h-67l66 88c-75 67 -122 163 -122 273c0 205 164 367 367 367c69 0 133 -19 188 -51l34 47h67zM143 349c0 -90 37 -170 96 -227l366 498c-45 26 -97 41 -154 41
c-172 0 -308 -140 -308 -312zM451 39c172 0 306 138 306 310c0 96 -41 182 -108 240l-368 -500c49 -32 107 -50 170 -50z" />
    <glyph glyph-name="equal" unicode="=" horiz-adv-x="431" 
d="M53 391v67h325v-67h-325zM53 204v66h325v-66h-325z" />
    <glyph glyph-name="uni208C" unicode="&#x208c;" horiz-adv-x="343" 
d="M63 26v58h218v-58h-218zM63 -90v57h218v-57h-218z" />
    <glyph glyph-name="uni207C" unicode="&#x207c;" horiz-adv-x="343" 
d="M63 548v58h218v-58h-218zM63 432v57h218v-57h-218z" />
    <glyph glyph-name="greater" unicode="&#x3e;" horiz-adv-x="432" 
d="M74 540l316 -167v-80l-316 -168l-31 62l282 146l-282 144z" />
    <glyph glyph-name="greaterequal" unicode="&#x2265;" horiz-adv-x="432" 
d="M74 565l316 -167v-81l-316 -168l-31 62l282 147l-282 144zM54 0v66h325v-66h-325z" />
    <glyph glyph-name="uni2206" unicode="&#x2206;" horiz-adv-x="512" 
d="M309 688l194 -688h-493l194 688h105zM255 617l-144 -548h287z" />
    <glyph glyph-name="infinity" unicode="&#x221e;" horiz-adv-x="766" 
d="M553 520c109 0 165 -93 165 -202c0 -111 -54 -204 -168 -204c-72 0 -130 51 -168 127c-39 -75 -90 -127 -167 -127c-113 0 -167 94 -167 203c0 111 58 203 165 203c75 0 134 -51 170 -128c41 78 90 128 170 128zM219 181c64 0 99 60 133 139c-22 54 -62 134 -130 134
c-56 0 -94 -45 -94 -137c0 -89 37 -136 91 -136zM547 181c54 0 91 46 91 137c0 88 -37 135 -91 135c-63 0 -97 -58 -133 -139c22 -55 62 -133 133 -133z" />
    <glyph glyph-name="integral" unicode="&#x222b;" horiz-adv-x="322" 
d="M248 850c43 0 74 -9 110 -28l-25 -56c-29 13 -53 18 -77 18c-45 0 -61 -28 -61 -78v-778c0 -93 -52 -138 -129 -138c-43 0 -69 9 -102 26l25 57c26 -13 45 -17 68 -17c39 0 59 24 59 72v779c0 94 48 143 132 143z" />
    <glyph glyph-name="less" unicode="&#x3c;" horiz-adv-x="432" 
d="M358 540l32 -63l-282 -144l282 -146l-31 -62l-316 168v80z" />
    <glyph glyph-name="lessequal" unicode="&#x2264;" horiz-adv-x="432" 
d="M358 565l32 -63l-282 -144l282 -147l-31 -62l-316 168v81zM52 0v66h325v-66h-325z" />
    <glyph glyph-name="logicalnot" unicode="&#xac;" horiz-adv-x="434" 
d="M381 355v-205h-72v139h-256v66h328z" />
    <glyph glyph-name="uni00B5" unicode="&#xb5;" horiz-adv-x="505" 
d="M443 -1l-75 -10c-14 38 -18 63 -22 101c-25 -51 -65 -102 -121 -102c-37 0 -63 17 -82 55c11 -39 16 -73 16 -134v-110l-78 -9v736h81v-372c0 -71 29 -96 68 -96c41 0 79 30 109 101v367h81v-347c0 -79 11 -135 23 -180z" />
    <glyph glyph-name="minus" unicode="&#x2212;" horiz-adv-x="431" 
d="M53 299v67h325v-67h-325z" />
    <glyph glyph-name="uni208B" unicode="&#x208b;" horiz-adv-x="343" 
d="M63 -33v59h218v-59h-218z" />
    <glyph glyph-name="uni207B" unicode="&#x207b;" horiz-adv-x="343" 
d="M63 489v59h218v-59h-218z" />
    <glyph glyph-name="multiply" unicode="&#xd7;" horiz-adv-x="431" 
d="M321 481l51 -43l-109 -131l109 -131l-52 -42l-105 128l-105 -128l-51 42l108 131l-108 131l51 43l105 -129z" />
    <glyph glyph-name="notequal" unicode="&#x2260;" horiz-adv-x="431" 
d="M378 391h-101l-63 -121h164v-66h-198l-69 -134l-45 23l58 111h-71v66h105l63 121h-168v67h202l67 129l44 -23l-54 -106h66v-67z" />
    <glyph glyph-name="equal.numr" horiz-adv-x="343" 
d="M63 510v58h218v-58h-218zM63 394v57h218v-57h-218z" />
    <glyph glyph-name="minus.numr" horiz-adv-x="343" 
d="M63 451v59h218v-59h-218z" />
    <glyph glyph-name="plus.numr" horiz-adv-x="344" 
d="M202 598v-88h80v-59h-80v-86h-61v86h-78v59h78v88h61z" />
    <glyph glyph-name="approxequal.osf" horiz-adv-x="420" 
d="M278 354c-64 0 -99 59 -138 59c-29 0 -46 -26 -62 -51l-47 25c21 40 55 88 114 88c62 0 96 -58 137 -58c27 0 45 21 60 46l47 -26c-21 -40 -55 -83 -111 -83zM278 170c-64 0 -99 59 -138 59c-29 0 -46 -26 -62 -51l-47 26c21 40 55 88 114 88c62 0 96 -58 137 -58
c27 0 45 20 60 46l47 -26c-21 -40 -55 -84 -111 -84z" />
    <glyph glyph-name="asciitilde.osf" horiz-adv-x="420" 
d="M278 256c-64 0 -99 59 -138 59c-29 0 -46 -26 -62 -51l-47 26c21 40 55 88 114 88c62 0 96 -58 137 -58c27 0 45 20 60 46l47 -26c-21 -40 -55 -84 -111 -84z" />
    <glyph glyph-name="divide.osf" horiz-adv-x="431" 
d="M215 618c37 0 61 -28 61 -61c0 -34 -24 -62 -61 -62c-36 0 -60 28 -60 62c0 33 24 61 60 61zM53 299v67h325v-67h-325zM215 168c37 0 61 -29 61 -62s-24 -62 -61 -62c-36 0 -60 29 -60 62s24 62 60 62z" />
    <glyph glyph-name="equal.osf" horiz-adv-x="431" 
d="M53 391v67h325v-67h-325zM53 204v66h325v-66h-325z" />
    <glyph glyph-name="greater.osf" horiz-adv-x="433" 
d="M74 540l316 -167v-80l-316 -168l-31 62l282 146l-282 144z" />
    <glyph glyph-name="greaterequal.osf" horiz-adv-x="432" 
d="M74 565l316 -167v-81l-316 -168l-31 62l282 147l-282 144zM54 0v66h325v-66h-325z" />
    <glyph glyph-name="infinity.osf" horiz-adv-x="766" 
d="M553 520c109 0 165 -93 165 -202c0 -111 -54 -204 -168 -204c-72 0 -130 51 -168 127c-39 -75 -90 -127 -167 -127c-113 0 -167 94 -167 203c0 111 58 203 165 203c75 0 134 -51 170 -128c41 78 90 128 170 128zM219 181c64 0 99 60 133 139c-22 54 -62 134 -130 134
c-56 0 -94 -45 -94 -137c0 -89 37 -136 91 -136zM547 181c54 0 91 46 91 137c0 88 -37 135 -91 135c-63 0 -97 -58 -133 -139c22 -55 62 -133 133 -133z" />
    <glyph glyph-name="integral.osf" horiz-adv-x="322" 
d="M248 850c43 0 74 -9 110 -28l-25 -56c-29 13 -53 18 -77 18c-45 0 -61 -28 -61 -78v-778c0 -93 -52 -138 -129 -138c-43 0 -69 9 -102 26l25 57c26 -13 45 -17 68 -17c39 0 59 24 59 72v779c0 94 48 143 132 143z" />
    <glyph glyph-name="less.osf" horiz-adv-x="433" 
d="M358 540l32 -63l-282 -144l282 -146l-31 -62l-316 168v80z" />
    <glyph glyph-name="lessequal.osf" horiz-adv-x="432" 
d="M358 565l32 -63l-282 -144l282 -147l-31 -62l-316 168v81zM52 0v66h325v-66h-325z" />
    <glyph glyph-name="logicalnot.osf" horiz-adv-x="434" 
d="M381 355v-205h-72v139h-256v66h328z" />
    <glyph glyph-name="minus.osf" horiz-adv-x="431" 
d="M53 299v67h325v-67h-325z" />
    <glyph glyph-name="multiply.osf" horiz-adv-x="431" 
d="M321 481l51 -43l-109 -131l109 -131l-52 -42l-105 128l-105 -128l-51 42l108 131l-108 131l51 43l105 -129z" />
    <glyph glyph-name="notequal.osf" horiz-adv-x="431" 
d="M378 391h-101l-63 -121h164v-66h-198l-69 -134l-45 23l58 111h-71v66h105l63 121h-168v67h202l67 129l44 -23l-54 -106h66v-67z" />
    <glyph glyph-name="partialdiff.osf" horiz-adv-x="443" 
d="M106 699c203 -66 294 -186 294 -438c0 -166 -70 -273 -189 -273c-101 0 -184 73 -184 222c0 128 77 214 166 214c54 0 93 -30 123 -78c-12 156 -87 245 -231 297zM211 53c72 0 108 63 107 208c-28 63 -64 98 -114 98c-54 0 -95 -49 -95 -146c0 -108 41 -160 102 -160z
" />
    <glyph glyph-name="percent.osf" horiz-adv-x="717" 
d="M532 708l55 -32l-399 -705l-55 33zM182 678c80 0 139 -60 139 -166c0 -107 -59 -168 -139 -168s-139 61 -139 167s59 167 139 167zM182 623c-55 0 -71 -47 -71 -112c0 -63 16 -111 71 -111s70 47 70 112c0 62 -15 111 -70 111zM536 323c79 0 138 -61 138 -168
c0 -106 -58 -167 -138 -167c-81 0 -140 61 -140 167c0 107 59 168 140 168zM536 266c-56 0 -72 -46 -72 -111c0 -62 16 -111 72 -111c54 0 70 47 70 111c0 63 -16 111 -70 111z" />
    <glyph glyph-name="perthousand.osf" horiz-adv-x="1028" 
d="M532 708l55 -32l-399 -705l-55 33zM182 678c80 0 139 -60 139 -166c0 -107 -59 -168 -139 -168s-139 61 -139 167s59 167 139 167zM182 623c-55 0 -71 -47 -71 -112c0 -63 16 -111 71 -111s70 47 70 112c0 62 -15 111 -70 111zM536 323c79 0 138 -61 138 -168
c0 -106 -58 -167 -138 -167c-81 0 -140 61 -140 167c0 107 59 168 140 168zM847 323c79 0 138 -61 138 -168c0 -106 -58 -167 -138 -167c-81 0 -140 61 -140 167c0 107 59 168 140 168zM536 266c-56 0 -72 -46 -72 -111c0 -62 16 -111 72 -111c54 0 70 47 70 111
c0 63 -16 111 -70 111zM847 266c-56 0 -72 -46 -72 -111c0 -62 16 -111 72 -111c54 0 70 47 70 111c0 63 -16 111 -70 111z" />
    <glyph glyph-name="plus.osf" horiz-adv-x="432" 
d="M252 513v-149h128v-67h-128v-147h-72v147h-127v67h127v149h72z" />
    <glyph glyph-name="plusminus.osf" horiz-adv-x="432" 
d="M252 533v-149h128v-67h-128v-147h-72v147h-127v67h127v149h72zM54 0v67h325v-67h-325z" />
    <glyph glyph-name="product.osf" horiz-adv-x="516" 
d="M467 601h-59v-802l-77 -9v811h-143v-802l-78 -9v811h-62v67h419v-67z" />
    <glyph glyph-name="radical.osf" 
d="M616 846v-68h-155l-186 -778h-93l-146 457l73 20l116 -393l178 762h213z" />
    <glyph glyph-name="summation.osf" horiz-adv-x="431" 
d="M390 668v-69h-258l162 -245v-37l-162 -248h258v-69h-349v67l177 267l-177 267v67h349z" />
    <glyph glyph-name="partialdiff" unicode="&#x2202;" horiz-adv-x="443" 
d="M106 699c203 -66 294 -186 294 -438c0 -166 -70 -273 -189 -273c-101 0 -184 73 -184 222c0 128 77 214 166 214c54 0 93 -30 123 -78c-12 156 -87 245 -231 297zM211 53c72 0 108 63 107 208c-28 63 -64 98 -114 98c-54 0 -95 -49 -95 -146c0 -108 41 -160 102 -160z
" />
    <glyph glyph-name="percent" unicode="%" horiz-adv-x="717" 
d="M532 708l55 -32l-399 -705l-55 33zM182 678c80 0 139 -60 139 -166c0 -107 -59 -168 -139 -168s-139 61 -139 167s59 167 139 167zM182 623c-55 0 -71 -47 -71 -112c0 -63 16 -111 71 -111s70 47 70 112c0 62 -15 111 -70 111zM536 323c79 0 138 -61 138 -168
c0 -106 -58 -167 -138 -167c-81 0 -140 61 -140 167c0 107 59 168 140 168zM536 266c-56 0 -72 -46 -72 -111c0 -62 16 -111 72 -111c54 0 70 47 70 111c0 63 -16 111 -70 111z" />
    <glyph glyph-name="perthousand" unicode="&#x2030;" horiz-adv-x="1028" 
d="M532 708l55 -32l-399 -705l-55 33zM182 678c80 0 139 -60 139 -166c0 -107 -59 -168 -139 -168s-139 61 -139 167s59 167 139 167zM182 623c-55 0 -71 -47 -71 -112c0 -63 16 -111 71 -111s70 47 70 112c0 62 -15 111 -70 111zM536 323c79 0 138 -61 138 -168
c0 -106 -58 -167 -138 -167c-81 0 -140 61 -140 167c0 107 59 168 140 168zM847 323c79 0 138 -61 138 -168c0 -106 -58 -167 -138 -167c-81 0 -140 61 -140 167c0 107 59 168 140 168zM536 266c-56 0 -72 -46 -72 -111c0 -62 16 -111 72 -111c54 0 70 47 70 111
c0 63 -16 111 -70 111zM847 266c-56 0 -72 -46 -72 -111c0 -62 16 -111 72 -111c54 0 70 47 70 111c0 63 -16 111 -70 111z" />
    <glyph glyph-name="plus" unicode="+" horiz-adv-x="432" 
d="M252 513v-149h128v-67h-128v-147h-72v147h-127v67h127v149h72z" />
    <glyph glyph-name="uni208A" unicode="&#x208a;" horiz-adv-x="344" 
d="M202 114v-88h80v-59h-80v-86h-61v86h-78v59h78v88h61z" />
    <glyph glyph-name="plusminus" unicode="&#xb1;" horiz-adv-x="432" 
d="M252 533v-149h128v-67h-128v-147h-71v147h-128v67h128v149h71zM53 0v66h325v-66h-325z" />
    <glyph glyph-name="uni207A" unicode="&#x207a;" horiz-adv-x="344" 
d="M202 636v-88h80v-59h-80v-86h-61v86h-78v59h78v88h61z" />
    <glyph glyph-name="product" unicode="&#x220f;" horiz-adv-x="516" 
d="M467 601h-59v-802l-77 -9v811h-143v-802l-78 -9v811h-62v67h419v-67z" />
    <glyph glyph-name="radical" unicode="&#x221a;" 
d="M616 846v-68h-155l-186 -778h-93l-146 457l73 20l116 -393l178 762h213z" />
    <glyph glyph-name="summation" unicode="&#x2211;" horiz-adv-x="431" 
d="M390 668v-69h-258l162 -245v-37l-162 -248h258v-69h-349v67l177 267l-177 267v67h349z" />
    <glyph glyph-name="approxequal.tf" 
d="M309 354c-64 0 -99 59 -138 59c-29 0 -46 -26 -62 -51l-47 25c21 40 55 88 114 88c62 0 96 -58 137 -58c27 0 45 21 60 46l47 -26c-21 -40 -55 -83 -111 -83zM309 170c-64 0 -99 59 -138 59c-29 0 -46 -26 -62 -51l-47 26c21 40 55 88 114 88c62 0 96 -58 137 -58
c27 0 45 20 60 46l47 -26c-21 -40 -55 -84 -111 -84z" />
    <glyph glyph-name="asciitilde.tf" 
d="M309 256c-64 0 -99 59 -138 59c-29 0 -46 -26 -62 -51l-47 26c21 40 55 88 114 88c62 0 96 -58 137 -58c27 0 45 20 60 46l46 -26c-20 -40 -54 -84 -110 -84z" />
    <glyph glyph-name="divide.tf" 
d="M240 618c37 0 61 -28 61 -61c0 -34 -24 -62 -61 -62c-36 0 -60 28 -60 62c0 33 24 61 60 61zM78 299v67h325v-67h-325zM240 168c37 0 61 -29 61 -62s-24 -62 -61 -62c-36 0 -60 29 -60 62s24 62 60 62z" />
    <glyph glyph-name="equal.tf" 
d="M78 391v67h325v-67h-325zM78 204v66h325v-66h-325z" />
    <glyph glyph-name="greater.tf" 
d="M100 540l316 -167v-80l-316 -168l-31 62l282 146l-282 144z" />
    <glyph glyph-name="greaterequal.tf" 
d="M100 565l316 -167v-81l-316 -168l-31 62l282 147l-282 144zM80 0v66h325v-66h-325z" />
    <glyph glyph-name="infinity.tf" horiz-adv-x="774" 
d="M557 520c108 0 165 -93 165 -202c0 -111 -54 -204 -169 -204c-71 0 -130 51 -167 128c-39 -76 -90 -128 -168 -128c-112 0 -167 94 -167 203c0 111 59 203 166 203c74 0 133 -51 170 -128c40 78 89 128 170 128zM222 181c64 0 99 60 133 139c-22 54 -62 134 -129 134
c-57 0 -94 -45 -94 -137c0 -89 36 -136 90 -136zM550 181c54 0 92 46 92 137c0 88 -37 135 -91 135c-63 0 -98 -57 -133 -138c21 -55 61 -134 132 -134z" />
    <glyph glyph-name="integral.tf" 
d="M328 850c44 0 75 -9 110 -28l-25 -56c-29 13 -53 18 -77 18c-45 0 -61 -28 -61 -78v-778c0 -93 -52 -138 -129 -138c-43 0 -69 9 -102 26l25 57c26 -13 45 -17 69 -17c38 0 58 24 58 72v779c0 94 48 143 132 143z" />
    <glyph glyph-name="less.tf" 
d="M384 540l32 -63l-282 -144l282 -146l-31 -62l-316 168v80z" />
    <glyph glyph-name="lessequal.tf" 
d="M384 565l32 -63l-282 -144l282 -147l-31 -62l-316 168v81zM78 0v66h325v-66h-325z" />
    <glyph glyph-name="logicalnot.tf" 
d="M406 355v-205h-72v139h-257v66h329z" />
    <glyph glyph-name="minus.tf" 
d="M78 299v67h325v-67h-325z" />
    <glyph glyph-name="multiply.tf" 
d="M346 481l51 -43l-108 -131l108 -131l-51 -42l-105 128l-105 -128l-52 42l108 131l-108 131l52 43l104 -129z" />
    <glyph glyph-name="notequal.tf" 
d="M404 391h-102l-62 -121h164v-66h-199l-69 -134l-44 23l58 111h-71v66h105l62 121h-167v67h202l67 129l44 -23l-55 -106h67v-67z" />
    <glyph glyph-name="partialdiff.tf" 
d="M126 719c203 -66 294 -188 294 -458c0 -166 -70 -273 -189 -273c-101 0 -184 73 -184 222c0 128 77 214 166 214c54 0 93 -31 123 -78c-11 173 -87 265 -231 316zM231 53c72 0 108 63 107 208c-28 63 -64 98 -114 98c-54 0 -95 -49 -95 -146c0 -108 41 -160 102 -160z
" />
    <glyph glyph-name="percent.tf" horiz-adv-x="774" 
d="M562 728l55 -32l-401 -725l-55 33zM210 699c80 0 139 -61 139 -167c0 -107 -58 -167 -139 -167c-79 0 -138 60 -138 166c0 107 58 168 138 168zM210 643c-55 0 -71 -47 -71 -112c0 -62 16 -111 71 -111c56 0 71 47 71 112c0 62 -15 111 -71 111zM564 323
c80 0 138 -61 138 -168c0 -106 -57 -167 -138 -167c-80 0 -139 61 -139 167c0 107 58 168 139 168zM564 266c-55 0 -72 -46 -72 -111c0 -62 17 -111 72 -111s70 47 70 111c0 63 -15 111 -70 111z" />
    <glyph glyph-name="perthousand.tf" horiz-adv-x="982" 
d="M509 728l55 -32l-399 -725l-55 33zM165 699c80 0 139 -61 139 -167c0 -107 -58 -167 -139 -167c-79 0 -138 60 -138 166c0 107 58 168 138 168zM165 643c-55 0 -71 -47 -71 -112c0 -62 16 -111 71 -111c56 0 71 47 71 112c0 62 -15 111 -71 111zM506 323
c80 0 139 -61 139 -168c0 -106 -58 -167 -139 -167c-80 0 -139 61 -139 167c0 107 58 168 139 168zM817 323c80 0 139 -61 139 -168c0 -106 -58 -167 -139 -167c-80 0 -139 61 -139 167c0 107 58 168 139 168zM506 266c-55 0 -71 -46 -71 -111c0 -62 16 -111 71 -111
s70 47 70 111c0 63 -15 111 -70 111zM817 266c-55 0 -71 -46 -71 -111c0 -62 16 -111 71 -111s70 47 70 111c0 63 -15 111 -70 111z" />
    <glyph glyph-name="plus.tf" 
d="M277 513v-149h127v-67h-127v-147h-72v147h-127v67h127v149h72z" />
    <glyph glyph-name="plusminus.tf" 
d="M277 533v-149h128v-67h-128v-147h-71v147h-128v67h128v149h71zM78 0v66h325v-66h-325z" />
    <glyph glyph-name="product.tf" 
d="M448 688v-67h-60v-822l-78 -9v831h-136v-822l-78 -9v831h-62v67h414z" />
    <glyph glyph-name="radical.tf" 
d="M616 846v-68h-155l-186 -778h-93l-146 457l73 20l116 -393l178 762h213z" />
    <glyph glyph-name="summation.tf" 
d="M421 688v-69h-272l176 -255v-37l-176 -258h272v-69h-363v67l192 277l-192 277v67h363z" />
    <glyph glyph-name="approxequal.tosf" 
d="M310 354c-64 0 -99 59 -138 59c-29 0 -46 -26 -62 -51l-47 25c21 40 55 88 114 88c62 0 96 -58 137 -58c27 0 45 21 60 46l47 -26c-21 -40 -55 -83 -111 -83zM310 170c-64 0 -99 59 -138 59c-29 0 -46 -26 -62 -51l-47 26c21 40 55 88 114 88c62 0 96 -58 137 -58
c27 0 45 20 60 46l47 -26c-21 -40 -55 -84 -111 -84z" />
    <glyph glyph-name="asciitilde.tosf" 
d="M310 256c-65 0 -99 59 -139 59c-28 0 -46 -26 -61 -51l-47 26c20 40 55 88 113 88c63 0 97 -58 137 -58c27 0 45 20 61 46l46 -26c-20 -40 -54 -84 -110 -84z" />
    <glyph glyph-name="divide.tosf" 
d="M241 618c37 0 61 -28 61 -61c0 -34 -24 -62 -61 -62c-36 0 -60 28 -60 62c0 33 24 61 60 61zM79 299v67h325v-67h-325zM241 168c37 0 61 -29 61 -62s-24 -62 -61 -62c-36 0 -60 29 -60 62s24 62 60 62z" />
    <glyph glyph-name="equal.tosf" 
d="M79 391v67h325v-67h-325zM79 204v66h325v-66h-325z" />
    <glyph glyph-name="greater.tosf" 
d="M99 540l316 -167v-80l-316 -168l-31 62l282 146l-282 144z" />
    <glyph glyph-name="greaterequal.tosf" 
d="M99 565l316 -167v-81l-316 -168l-31 62l282 147l-282 144zM79 0v66h325v-66h-325z" />
    <glyph glyph-name="infinity.tosf" horiz-adv-x="774" 
d="M557 520c108 0 165 -93 165 -202c0 -111 -54 -204 -169 -204c-71 0 -130 51 -167 128c-39 -76 -90 -128 -168 -128c-112 0 -167 94 -167 203c0 111 59 203 166 203c74 0 133 -51 170 -128c40 78 89 128 170 128zM222 181c64 0 99 60 133 139c-22 54 -62 134 -129 134
c-57 0 -94 -45 -94 -137c0 -89 36 -136 90 -136zM550 181c54 0 92 46 92 137c0 88 -37 135 -91 135c-63 0 -98 -57 -133 -138c21 -55 61 -134 132 -134z" />
    <glyph glyph-name="integral.tosf" 
d="M328 850c43 0 74 -9 109 -28l-24 -56c-29 13 -54 18 -77 18c-45 0 -61 -28 -61 -78v-778c0 -93 -52 -138 -129 -138c-43 0 -70 9 -102 26l24 57c27 -13 46 -17 69 -17c38 0 59 24 59 72v779c0 94 48 143 132 143z" />
    <glyph glyph-name="less.tosf" 
d="M384 540l31 -63l-282 -144l282 -146l-31 -62l-316 168v80z" />
    <glyph glyph-name="lessequal.tosf" 
d="M383 565l32 -63l-282 -144l282 -147l-31 -62l-316 168v81zM77 0v66h325v-66h-325z" />
    <glyph glyph-name="logicalnot.tosf" 
d="M406 355v-205h-72v139h-257v66h329z" />
    <glyph glyph-name="minus.tosf" 
d="M79 299v67h325v-67h-325z" />
    <glyph glyph-name="multiply.tosf" 
d="M347 481l51 -43l-109 -131l109 -131l-51 -42l-105 128l-106 -128l-51 42l108 131l-108 131l51 43l105 -129z" />
    <glyph glyph-name="notequal.tosf" 
d="M404 391h-101l-63 -121h164v-66h-198l-69 -134l-45 23l58 111h-71v66h105l62 121h-167v67h202l67 129l44 -23l-55 -106h67v-67z" />
    <glyph glyph-name="partialdiff.tosf" 
d="M132 699c203 -66 294 -186 294 -438c0 -166 -69 -273 -189 -273c-101 0 -184 73 -184 222c0 128 77 214 166 214c54 0 93 -30 123 -77c-13 156 -87 244 -231 296zM238 53c70 0 106 62 106 208c-28 63 -64 98 -114 98c-54 0 -95 -49 -95 -146c0 -108 41 -160 103 -160z
" />
    <glyph glyph-name="percent.tosf" horiz-adv-x="774" 
d="M560 708l56 -32l-400 -705l-55 33zM210 678c80 0 139 -60 139 -166c0 -107 -58 -168 -139 -168c-79 0 -138 61 -138 167s58 167 138 167zM210 623c-55 0 -71 -47 -71 -112c0 -63 16 -111 71 -111c56 0 71 47 71 112c0 62 -15 111 -71 111zM564 323c80 0 138 -61 138 -168
c0 -106 -57 -167 -138 -167c-80 0 -139 61 -139 167c0 107 58 168 139 168zM564 266c-55 0 -72 -46 -72 -111c0 -62 17 -111 72 -111s70 47 70 111c0 63 -15 111 -70 111z" />
    <glyph glyph-name="perthousand.tosf" horiz-adv-x="995" 
d="M515 708l56 -32l-400 -705l-55 33zM165 678c80 0 139 -60 139 -166c0 -107 -58 -168 -139 -168c-79 0 -138 61 -138 167s58 167 138 167zM165 623c-55 0 -71 -47 -71 -112c0 -63 16 -111 71 -111s71 47 71 112c0 62 -16 111 -71 111zM519 323c80 0 138 -61 138 -168
c0 -106 -57 -167 -138 -167c-80 0 -139 61 -139 167c0 107 58 168 139 168zM830 323c80 0 138 -61 138 -168c0 -106 -57 -167 -138 -167c-80 0 -139 61 -139 167c0 107 58 168 139 168zM519 266c-55 0 -72 -46 -72 -111c0 -62 17 -111 72 -111s70 47 70 111
c0 63 -15 111 -70 111zM830 266c-55 0 -72 -46 -72 -111c0 -62 17 -111 72 -111s70 47 70 111c0 63 -15 111 -70 111z" />
    <glyph glyph-name="plus.tosf" 
d="M277 513v-149h127v-67h-127v-147h-72v147h-127v67h127v149h72z" />
    <glyph glyph-name="plusminus.tosf" 
d="M277 533v-149h128v-67h-128v-147h-71v147h-128v67h128v149h71zM78 0v66h325v-66h-325z" />
    <glyph glyph-name="product.tosf" horiz-adv-x="460" 
d="M437 601h-60v-802l-77 -9v811h-137v-802l-78 -9v811h-62v67h414v-67z" />
    <glyph glyph-name="radical.tosf" 
d="M616 846v-68h-155l-186 -778h-93l-146 457l73 20l116 -393l178 762h213z" />
    <glyph glyph-name="summation.tosf" 
d="M415 668v-69h-258l162 -245v-37l-162 -248h258v-69h-349v67l177 267l-177 267v67h349z" />
    <glyph glyph-name="arrowup" unicode="&#x2191;" horiz-adv-x="900" 
d="M409 0v547c-17 -28 -38 -52 -64 -74l-154 -141l-50 55l309 277l309 -277l-50 -55l-154 141c-26 22 -47 46 -64 74v-547h-82z" />
    <glyph glyph-name="arrowright" unicode="&#x2192;" horiz-adv-x="900" 
d="M511 632l271 -303l-271 -303l-61 52l136 150c23 25 46 48 71 65h-530v72h530c-28 19 -42 33 -71 65l-136 150z" />
    <glyph glyph-name="arrowdown" unicode="&#x2193;" horiz-adv-x="900" 
d="M491 632v-547c17 28 38 52 64 74l154 141l50 -55l-309 -277l-309 277l50 55l154 -141c26 -22 47 -46 64 -74v547h82z" />
    <glyph glyph-name="arrowleft" unicode="&#x2190;" horiz-adv-x="900" 
d="M389 632l61 -52l-136 -150c-29 -32 -43 -46 -71 -65h530v-72h-530c25 -17 48 -40 71 -65l136 -150l-61 -52l-271 303z" />
    <glyph glyph-name="uni21E7" unicode="&#x21e7;" horiz-adv-x="720" 
d="M279 -12c-30 0 -50 20 -50 50v496h-169l300 298l300 -298h-169v-496c0 -30 -20 -50 -50 -50h-162zM444 32v547h107l-191 189l-191 -189h107v-547h168z" />
    <glyph glyph-name="uni21E8" unicode="&#x21e8;" horiz-adv-x="960" 
d="M40 239v148c0 30 20 50 50 50h532v176l298 -300l-298 -300v176h-532c-30 0 -50 20 -50 50zM84 393v-160h583v-111l189 191l-189 191v-111h-583z" />
    <glyph glyph-name="uni21E9" unicode="&#x21e9;" horiz-adv-x="720" 
d="M441 750c30 0 50 -20 50 -50v-496h169l-300 -298l-300 298h169v496c0 30 20 50 50 50h162zM276 706v-547h-107l191 -189l191 189h-107v547h-168z" />
    <glyph glyph-name="uni21E6" unicode="&#x21e6;" horiz-adv-x="960" 
d="M920 239c0 -30 -20 -50 -50 -50h-532v-176l-298 300l298 300v-176h532c30 0 50 -20 50 -50v-148zM876 393h-583v111l-189 -191l189 -191v111h583v160z" />
    <glyph glyph-name="lozenge" unicode="&#x25ca;" horiz-adv-x="459" 
d="M275 668l156 -332l-156 -336h-92l-155 336l155 332h92zM229 608l-121 -272l121 -276l122 276z" />
    <glyph glyph-name="uni25AF" unicode="&#x25af;" horiz-adv-x="507" 
d="M425 689v-689h-342v689h342zM338 597h-169v-505h169v505z" />
    <glyph glyph-name="lozenge.osf" horiz-adv-x="459" 
d="M275 668l156 -332l-156 -336h-92l-155 336l155 332h92zM229 608l-121 -272l121 -276l122 276z" />
    <glyph glyph-name="lozenge.tf" 
d="M287 688l159 -342l-159 -346h-92l-160 346l160 342h92zM240 628l-124 -282l124 -286l126 286z" />
    <glyph glyph-name="lozenge.tosf" 
d="M287 668l156 -332l-156 -336h-92l-155 336l155 332h92zM241 608l-121 -272l121 -276l122 276z" />
    <glyph glyph-name="bar" unicode="|" horiz-adv-x="344" 
d="M209 806v-908h-74v908h74z" />
    <glyph glyph-name="brokenbar" unicode="&#xa6;" horiz-adv-x="344" 
d="M209 806v-363h-74v363h74zM209 262v-364h-74v364h74z" />
    <glyph glyph-name="at" unicode="@" horiz-adv-x="885" 
d="M457 699c238 0 364 -173 364 -392c0 -174 -61 -297 -169 -297c-66 0 -98 52 -108 97c-20 -48 -59 -95 -123 -95c-96 0 -152 81 -152 219c0 179 78 258 188 258c45 0 89 -12 134 -39v-258c0 -88 20 -119 59 -119c55 0 92 67 92 232c0 202 -97 327 -285 327
c-194 0 -313 -161 -313 -391c0 -240 114 -384 313 -384c63 0 118 15 164 34l22 -63c-55 -23 -110 -38 -187 -38c-232 0 -391 165 -391 451c0 264 157 458 392 458zM428 72c44 0 73 38 91 73v273c-18 7 -37 13 -62 13c-71 0 -110 -63 -110 -200c0 -111 28 -159 81 -159z" />
    <glyph glyph-name="ampersand" unicode="&#x26;" horiz-adv-x="663" 
d="M501 143l101 -107l-60 -48l-86 100c-49 -64 -109 -100 -191 -100c-113 0 -193 74 -193 186c0 87 46 142 122 198c-55 59 -86 104 -86 173c0 89 56 154 157 154c96 0 158 -62 158 -150c0 -85 -53 -137 -124 -184l154 -175c20 51 38 105 52 174l72 -19
c-21 -83 -47 -148 -76 -202zM187 546c0 -51 21 -85 67 -139c57 41 90 78 90 137c0 66 -31 95 -78 95c-50 0 -79 -34 -79 -93zM271 53c59 0 102 29 140 79l-172 197c-56 -44 -83 -87 -83 -153c0 -80 48 -123 115 -123z" />
    <glyph glyph-name="paragraph" unicode="&#xb6;" horiz-adv-x="634" 
d="M288 688h226v-888l-72 -12v835h-99v-823l-73 -12v498c-136 7 -194 92 -194 202c0 128 80 200 212 200z" />
    <glyph glyph-name="copyright" unicode="&#xa9;" horiz-adv-x="696" 
d="M349 744c150 0 268 -119 268 -310c0 -190 -118 -309 -268 -309c-151 0 -270 119 -270 309c0 191 119 310 270 310zM349 696c-124 0 -216 -98 -216 -262s92 -260 216 -260c123 0 216 97 216 260c0 165 -93 262 -216 262zM352 622c40 0 70 -14 97 -38l-29 -41
c-21 16 -41 25 -67 25c-41 0 -76 -33 -76 -133c0 -94 32 -130 78 -130c30 0 50 12 70 28l28 -41c-24 -24 -55 -44 -102 -44c-78 0 -139 62 -139 187c0 128 63 187 140 187z" />
    <glyph glyph-name="registered" unicode="&#xae;" horiz-adv-x="551" 
d="M275 745c124 0 218 -102 218 -250s-94 -251 -218 -251c-122 0 -218 101 -218 250c0 147 96 251 218 251zM275 289c100 0 171 79 171 206c0 126 -71 206 -171 206c-98 0 -171 -81 -171 -207c0 -127 73 -205 171 -205zM366 552c0 -40 -22 -65 -54 -75l63 -116h-55l-52 107
h-24v-107h-48v274h66c70 0 104 -30 104 -83zM244 594v-85h28c27 0 46 12 46 43c0 30 -17 42 -49 42h-25z" />
    <glyph glyph-name="section" unicode="&#xa7;" horiz-adv-x="462" 
d="M333 170c32 -25 48 -55 48 -97c0 -88 -70 -143 -164 -143c-65 0 -113 20 -150 49l33 52c33 -24 69 -37 114 -37c51 0 87 26 87 74c0 45 -17 63 -106 97c-89 35 -134 68 -134 148c0 49 27 93 69 122c-32 26 -48 56 -48 100c0 89 71 141 160 141c65 0 109 -21 148 -52
l-33 -50c-34 25 -68 39 -111 39c-53 0 -84 -28 -84 -73s16 -67 105 -103c90 -35 133 -71 133 -142c0 -54 -27 -94 -67 -125zM138 323c0 -50 17 -70 90 -99c23 -8 42 -17 60 -26c24 25 37 53 37 86c0 44 -19 66 -95 97c-21 9 -40 18 -57 26c-23 -25 -35 -54 -35 -84z" />
    <glyph glyph-name="trademark" unicode="&#x2122;" horiz-adv-x="758" 
d="M317 688l-10 -57h-103v-333h-66v333h-107v57h286zM683 688l14 -390h-64l-7 207c-1 53 -1 83 1 121h-1l-79 -286h-56l-85 287h-1c2 -39 2 -79 1 -122l-7 -207h-61l15 390h88l78 -278l73 278h91z" />
    <glyph glyph-name="degree" unicode="&#xb0;" horiz-adv-x="447" 
d="M188 386c-71 0 -140 52 -140 157c0 103 69 156 140 156c73 0 140 -53 140 -157s-67 -156 -140 -156zM188 440c42 0 75 30 75 102s-33 102 -75 102c-40 0 -75 -28 -75 -101s35 -103 75 -103z" />
    <glyph glyph-name="estimated" unicode="&#x212e;" horiz-adv-x="946" 
d="M472 716c214 0 402 -154 403 -376h-656l-1 -225c42 -60 158 -95 255 -95c102 0 208 35 265 101h52c-74 -86 -179 -137 -318 -137c-228 0 -401 154 -401 363c0 210 180 369 401 369zM473 680c-117 0 -204 -39 -255 -99l1 -204h508v203c-56 59 -137 100 -254 100z" />
    <glyph glyph-name="uni2113" unicode="&#x2113;" horiz-adv-x="351" 
d="M202 56c11 0 20 3 28 6l20 -57c-16 -10 -39 -17 -63 -17c-58 0 -95 35 -95 104v135l-46 -39l-29 37l75 66v294c0 114 54 163 128 163c73 0 113 -50 113 -128c0 -116 -54 -222 -160 -325v-201c0 -25 8 -38 29 -38zM221 691c-29 0 -48 -23 -48 -90v-225
c65 83 91 156 91 244c0 51 -16 71 -43 71z" />
    <glyph glyph-name="uni2116" unicode="&#x2116;" horiz-adv-x="962" 
d="M499 688v-688h-111l-237 595c4 -54 12 -131 12 -257v-338h-79v688h111l238 -595c-3 20 -12 120 -12 206v389h78zM746 688c105 0 166 -72 166 -208c0 -131 -62 -208 -166 -208c-105 0 -167 73 -167 208c0 132 63 208 167 208zM746 627c-57 0 -87 -39 -87 -147
s30 -147 87 -147c56 0 86 39 86 147c0 109 -29 147 -86 147zM583 0v66h325v-66h-325z" />
    <glyph glyph-name="asciicircum" unicode="^" horiz-adv-x="465" 
d="M268 837l162 -310h-86l-113 238l-112 -238h-84l161 310h72z" />
    <glyph glyph-name="dagger" unicode="&#x2020;" horiz-adv-x="440" 
d="M259 668v-149h146v-69h-146v-450h-78v450h-146v69h146v149h78z" />
    <glyph glyph-name="daggerdbl" unicode="&#x2021;" horiz-adv-x="441" 
d="M405 232v-68h-146v-164h-78v164h-146v68h146v218h-145v69h145v149h78v-149h146v-69h-146v-218h146z" />
    <glyph glyph-name="uni21EA" unicode="&#x21ea;" horiz-adv-x="720" 
d="M229 255v279h-169l300 298l300 -298h-169v-279h-262zM444 297v282h107l-191 189l-191 -189h107v-282h168zM491 155v-117c0 -30 -20 -50 -50 -50h-162c-30 0 -50 20 -50 50v117h262zM276 113v-81h168v81h-168z" />
    <glyph glyph-name="uni2327" unicode="&#x2327;" horiz-adv-x="1240" 
d="M150 -12c-30 0 -50 20 -50 50v625c0 30 20 50 50 50h940c30 0 50 -20 50 -50v-625c0 -30 -20 -50 -50 -50h-940zM399 201l67 -67l154 154l154 -154l67 67l-154 154l154 153l-67 69l-154 -155l-154 155l-67 -69l154 -153z" />
    <glyph glyph-name="uni232B" unicode="&#x232b;" horiz-adv-x="1460" 
d="M480 -12l-380 364l380 361h830c30 0 50 -20 50 -50v-625c0 -30 -20 -50 -50 -50h-830zM669 201l67 -67l154 154l154 -154l67 67l-154 154l154 153l-67 69l-154 -155l-154 155l-67 -69l154 -153z" />
    <glyph glyph-name="uni2326" unicode="&#x2326;" horiz-adv-x="1447" 
d="M150 -12c-30 0 -50 20 -50 50v625c0 30 20 50 50 50h830l380 -361l-380 -364h-830zM349 201l67 -67l154 154l154 -154l67 67l-154 154l154 153l-67 69l-154 -155l-154 155l-67 -69l154 -153z" />
    <glyph glyph-name="uni2328" unicode="&#x2328;" horiz-adv-x="1460" 
d="M170 -12c-30 0 -50 20 -50 50v625c0 30 20 50 50 50h1120c30 0 50 -20 50 -50v-625c0 -30 -20 -50 -50 -50h-1120zM205 658c-11 0 -20 -9 -20 -20v-74c0 -11 9 -20 20 -20h74c11 0 20 9 20 20v74c0 11 -9 20 -20 20h-74zM385 658c-11 0 -20 -9 -20 -20v-74
c0 -11 9 -20 20 -20h74c11 0 20 9 20 20v74c0 11 -9 20 -20 20h-74zM565 658c-11 0 -20 -9 -20 -20v-74c0 -11 9 -20 20 -20h74c11 0 20 9 20 20v74c0 11 -9 20 -20 20h-74zM745 658c-11 0 -20 -9 -20 -20v-74c0 -11 9 -20 20 -20h74c11 0 20 9 20 20v74c0 11 -9 20 -20 20
h-74zM925 658c-11 0 -20 -9 -20 -20v-74c0 -11 9 -20 20 -20h74c11 0 20 9 20 20v74c0 11 -9 20 -20 20h-74zM1105 658c-11 0 -20 -9 -20 -20v-74c0 -11 9 -20 20 -20h134c11 0 20 9 20 20v74c0 11 -9 20 -20 20h-134zM245 493c-11 0 -20 -9 -20 -20v-74c0 -11 9 -20 20 -20
h74c11 0 20 9 20 20v74c0 11 -9 20 -20 20h-74zM425 493c-11 0 -20 -9 -20 -20v-74c0 -11 9 -20 20 -20h74c11 0 20 9 20 20v74c0 11 -9 20 -20 20h-74zM605 493c-11 0 -20 -9 -20 -20v-74c0 -11 9 -20 20 -20h74c11 0 20 9 20 20v74c0 11 -9 20 -20 20h-74zM785 493
c-11 0 -20 -9 -20 -20v-74c0 -11 9 -20 20 -20h74c11 0 20 9 20 20v74c0 11 -9 20 -20 20h-74zM965 493c-11 0 -20 -9 -20 -20v-74c0 -11 9 -20 20 -20h74c11 0 20 9 20 20v74c0 11 -9 20 -20 20h-74zM1165 229c0 -11 9 -20 20 -20h54c11 0 20 9 20 20v244
c0 11 -9 20 -20 20h-94c-11 0 -20 -9 -20 -20v-74c0 -11 9 -20 20 -20s20 -9 20 -20v-130zM285 323c-11 0 -20 -9 -20 -20v-74c0 -11 9 -20 20 -20h74c11 0 20 9 20 20v74c0 11 -9 20 -20 20h-74zM465 323c-11 0 -20 -9 -20 -20v-74c0 -11 9 -20 20 -20h74c11 0 20 9 20 20
v74c0 11 -9 20 -20 20h-74zM645 323c-11 0 -20 -9 -20 -20v-74c0 -11 9 -20 20 -20h74c11 0 20 9 20 20v74c0 11 -9 20 -20 20h-74zM825 323c-11 0 -20 -9 -20 -20v-74c0 -11 9 -20 20 -20h74c11 0 20 9 20 20v74c0 11 -9 20 -20 20h-74zM1005 323c-11 0 -20 -9 -20 -20v-74
c0 -11 9 -20 20 -20h74c11 0 20 9 20 20v74c0 11 -9 20 -20 20h-74zM425 158c-11 0 -20 -9 -20 -20v-74c0 -11 9 -20 20 -20h614c11 0 20 9 20 20v74c0 11 -9 20 -20 20h-614z" />
    <glyph glyph-name="uni23CE" unicode="&#x23ce;" horiz-adv-x="1000" 
d="M631 700c0 30 20 50 50 50h159c30 0 50 -20 50 -50v-461c0 -30 -20 -50 -50 -50h-512v-174l-298 298l298 299v-174h303v262zM844 706h-168v-313h-393v111l-189 -191l189 -191v111h561v473z" />
    <glyph glyph-name="section.osf" horiz-adv-x="462" 
d="M333 170c32 -25 48 -55 48 -97c0 -88 -70 -143 -164 -143c-65 0 -113 20 -150 49l33 52c33 -24 69 -37 114 -37c51 0 87 26 87 74c0 45 -17 63 -106 97c-89 35 -134 68 -134 148c0 49 27 93 69 122c-32 26 -48 56 -48 100c0 89 71 141 160 141c65 0 109 -21 148 -52
l-33 -50c-34 25 -68 39 -111 39c-53 0 -84 -28 -84 -73s16 -67 105 -103c90 -35 133 -71 133 -142c0 -54 -27 -94 -67 -125zM138 323c0 -50 17 -70 90 -99c23 -8 42 -17 60 -26c24 25 37 53 37 86c0 44 -19 66 -95 97c-21 9 -40 18 -57 26c-23 -25 -35 -54 -35 -84z" />
    <glyph glyph-name="degree.osf" horiz-adv-x="447" 
d="M188 386c-71 0 -140 52 -140 157c0 103 69 156 140 156c73 0 140 -53 140 -157s-67 -156 -140 -156zM188 440c42 0 75 30 75 102s-33 102 -75 102c-40 0 -75 -28 -75 -101s35 -103 75 -103z" />
    <glyph glyph-name="dagger.osf" horiz-adv-x="440" 
d="M259 668v-149h146v-69h-146v-450h-78v450h-146v69h146v149h78z" />
    <glyph glyph-name="daggerdbl.osf" horiz-adv-x="441" 
d="M405 232v-68h-146v-164h-78v164h-146v68h146v218h-145v69h145v149h78v-149h146v-69h-146v-218h146z" />
    <glyph glyph-name="ampersand.ss03" horiz-adv-x="775" 
d="M506 471h253v-68h-92c-18 -227 -139 -415 -357 -415c-175 0 -271 118 -271 325c0 192 95 304 223 304c102 0 163 -68 163 -158c0 -129 -105 -205 -298 -217c15 -127 74 -184 184 -184c157 0 262 127 281 345h-86v68zM262 551c-85 0 -139 -89 -139 -236c0 -4 0 -8 1 -12
c161 14 217 70 217 158c0 56 -27 90 -79 90z" />
    <glyph glyph-name="section.tf" 
d="M347 181c33 -26 49 -58 49 -104c0 -92 -69 -147 -172 -147c-66 0 -114 20 -151 49l33 51c34 -23 69 -36 119 -36c55 0 92 27 92 79c0 51 -19 69 -112 102c-92 34 -138 70 -138 148c0 51 27 95 68 124c-32 26 -47 58 -47 107c0 87 70 146 164 146c66 0 113 -21 153 -52
l-33 -49c-36 24 -69 38 -119 38c-53 0 -86 -31 -86 -80c0 -51 17 -74 110 -108c95 -35 138 -71 138 -145c0 -53 -28 -93 -68 -123zM144 332c0 -47 18 -69 89 -95c26 -9 48 -19 68 -28c25 24 38 50 38 86c0 45 -18 65 -98 96c-23 10 -44 18 -62 28c-22 -25 -35 -52 -35 -87z
" />
    <glyph glyph-name="degree.tf" 
d="M205 406c-71 0 -140 52 -140 157c0 103 69 156 140 156c73 0 140 -53 140 -157s-67 -156 -140 -156zM205 460c42 0 75 30 75 102s-33 102 -75 102c-40 0 -75 -28 -75 -101s35 -103 75 -103z" />
    <glyph glyph-name="dagger.tf" 
d="M280 688v-149h154v-69h-154v-470h-77v470h-154v69h154v149h77z" />
    <glyph glyph-name="daggerdbl.tf" 
d="M434 470h-154v-206h154v-69h-154v-195h-77v195h-154v69h154v206h-154v69h154v149h77v-149h154v-69z" />
    <glyph glyph-name="section.tosf" 
d="M344 170c31 -25 47 -55 47 -97c0 -88 -69 -143 -164 -143c-64 0 -112 20 -150 49l33 52c33 -24 70 -37 115 -37c51 0 86 26 86 74c0 45 -17 63 -106 97c-89 35 -133 68 -133 148c0 49 26 92 68 122c-32 26 -47 56 -47 100c0 89 70 141 160 141c64 0 109 -21 147 -52
l-32 -50c-35 25 -69 39 -112 39c-53 0 -84 -28 -84 -73s16 -67 106 -103c89 -35 133 -71 133 -142c0 -54 -28 -95 -67 -125zM148 323c0 -50 18 -70 91 -99c22 -9 42 -17 59 -26c24 25 37 53 37 86c0 44 -18 66 -94 97c-22 9 -41 18 -57 26c-24 -26 -36 -54 -36 -84z" />
    <glyph glyph-name="degree.tosf" 
d="M205 386c-71 0 -140 52 -140 157c0 103 69 156 140 156c73 0 140 -53 140 -157s-67 -156 -140 -156zM205 440c42 0 75 30 75 102s-33 102 -75 102c-40 0 -75 -28 -75 -101s35 -103 75 -103z" />
    <glyph glyph-name="dagger.tosf" 
d="M280 668v-149h146v-69h-146v-450h-78v450h-146v69h146v149h78z" />
    <glyph glyph-name="daggerdbl.tosf" 
d="M426 450h-146v-218h146v-68h-146v-164h-78v164h-146v68h146v218h-145v69h145v149h78v-149h146v-69z" />
    <glyph glyph-name="uniA789" unicode="&#xa789;" horiz-adv-x="198" 
d="M99 436c33 0 55 -25 55 -54c0 -30 -22 -56 -55 -56s-55 26 -55 56c0 29 22 54 55 54zM99 101c33 0 55 -26 55 -56s-22 -56 -55 -56s-55 26 -55 56s22 56 55 56z" />
    <glyph glyph-name="uni02EE" unicode="&#x2ee;" horiz-adv-x="347" 
d="M99 744c29 0 48 -22 48 -49c0 -16 -4 -27 -14 -52l-50 -121h-44l32 129c-14 11 -22 25 -22 42c0 29 20 51 50 51zM253 744c30 0 48 -23 48 -50c0 -15 -3 -27 -13 -52l-50 -121h-44l32 130c-14 10 -22 25 -22 41c0 29 20 52 49 52z" />
    <glyph glyph-name="uni02D7" unicode="&#x2d7;" horiz-adv-x="398" 
d="M53 269v60h292v-60h-292z" />
    <glyph glyph-name="uni02D6" unicode="&#x2d6;" horiz-adv-x="399" 
d="M232 461v-133h115v-61h-115v-132h-64v132h-115v61h115v133h64z" />
    <glyph glyph-name="uni02DE" unicode="&#x2de;" horiz-adv-x="429" 
d="M246 216c-74 0 -118 48 -118 129v14l-102 -62v68l99 61h74v-71c0 -54 22 -73 55 -73c28 0 43 9 62 23l29 -52c-21 -18 -53 -37 -99 -37z" />
    <glyph glyph-name="uniA78A" unicode="&#xa78a;" horiz-adv-x="398" 
d="M53 352v60h293v-60h-293zM53 184v59h293v-59h-293z" />
    <glyph glyph-name="uni02E4" unicode="&#x2e4;" horiz-adv-x="281" 
d="M182 400h-62v146l-13 5c-47 16 -78 42 -78 108c0 72 53 118 124 118c38 0 67 -13 99 -43l-32 -37c-21 17 -41 27 -65 27c-37 0 -62 -22 -62 -66c0 -46 23 -60 64 -73l24 -8z" />
    <glyph glyph-name="uni02E5" unicode="&#x2e5;" horiz-adv-x="296" 
d="M206 0v628h-180v60h244v-688h-64z" />
    <glyph glyph-name="uni02E9" unicode="&#x2e9;" horiz-adv-x="296" 
d="M206 688h64v-688h-244v60h180v628z" />
    <glyph glyph-name="uni02E6" unicode="&#x2e6;" horiz-adv-x="296" 
d="M206 688h64v-688h-64v464h-180v61h180v163z" />
    <glyph glyph-name="uni02E8" unicode="&#x2e8;" horiz-adv-x="296" 
d="M206 688h64v-688h-64v164h-180v61h180v463z" />
    <glyph glyph-name="uni02E7" unicode="&#x2e7;" horiz-adv-x="296" 
d="M206 688h64v-688h-64v314h-180v61h180v313z" />
    <glyph glyph-name="uni02D4" unicode="&#x2d4;" horiz-adv-x="363" 
d="M310 246v-54h-257v54h100v155h56v-155h101z" />
    <glyph glyph-name="uni03F6" unicode="&#x3f6;" horiz-adv-x="417" 
d="M177 537c119 0 190 -86 190 -273c0 -182 -68 -276 -197 -276c-60 0 -107 23 -145 58l39 49c32 -25 60 -40 105 -40c65 0 110 45 115 183h-186v63h185c-6 127 -42 171 -109 171c-40 0 -72 -13 -108 -41l-36 50c41 36 88 56 147 56z" />
    <glyph glyph-name="uni0374" unicode="&#x374;" horiz-adv-x="268" 
d="M57 429l71 259h83l-97 -259h-57z" />
    <glyph glyph-name="uni0375" unicode="&#x375;" horiz-adv-x="268" 
d="M211 124l-71 -259h-83l96 259h58z" />
    <glyph glyph-name="uni02E0" unicode="&#x2e0;" horiz-adv-x="299" 
d="M270 664l-90 -229c20 -33 30 -59 30 -86c0 -34 -20 -57 -60 -57c-37 0 -60 21 -60 57c0 26 10 54 31 87l-92 228h65l56 -189l57 189h63zM163 352c0 18 -4 29 -13 49c-9 -21 -13 -32 -13 -49c0 -10 5 -15 13 -15s13 5 13 15z" />
    <glyph glyph-name="uni0308" unicode="&#x308;" horiz-adv-x="0" 
d="M-259 760c29 0 50 -23 50 -52s-21 -51 -50 -51s-50 22 -50 51s21 52 50 52zM-80 760c29 0 50 -23 50 -52s-21 -51 -50 -51s-50 22 -50 51s21 52 50 52z" />
    <glyph glyph-name="uni0307" unicode="&#x307;" horiz-adv-x="0" 
d="M-86 771c34 0 56 -24 56 -56c0 -31 -22 -55 -56 -55c-32 0 -55 24 -55 55c0 32 23 56 55 56z" />
    <glyph glyph-name="gravecomb" unicode="&#x300;" horiz-adv-x="0" 
d="M-199 792l170 -110l-25 -42l-182 86z" />
    <glyph glyph-name="acutecomb" unicode="&#x301;" horiz-adv-x="0" 
d="M-66 792l36 -66l-182 -86l-24 42z" />
    <glyph glyph-name="uni030B" unicode="&#x30b;" horiz-adv-x="0" 
d="M-95 824l65 -35l-90 -152l-47 21zM-223 823l65 -34l-83 -147l-47 20z" />
    <glyph glyph-name="uni0302" unicode="&#x302;" horiz-adv-x="0" 
d="M-281 639l-33 36l116 113h52l116 -113l-34 -36l-108 84z" />
    <glyph glyph-name="uni030C" unicode="&#x30c;" horiz-adv-x="0" 
d="M-63 779l33 -37l-116 -113h-52l-116 113l33 37l109 -87z" />
    <glyph glyph-name="uni0306" unicode="&#x306;" horiz-adv-x="0" 
d="M-159 646c-69 0 -120 43 -127 126l51 12c12 -51 36 -76 76 -76s67 25 78 76l51 -12c-7 -83 -58 -126 -129 -126z" />
    <glyph glyph-name="uni030A" unicode="&#x30a;" horiz-adv-x="0" 
d="M-128 831c59 0 98 -39 98 -102s-39 -102 -98 -102c-58 0 -98 39 -98 102s40 102 98 102zM-128 787c-28 0 -45 -16 -45 -58s17 -58 45 -58c27 0 46 16 46 58s-18 58 -46 58z" />
    <glyph glyph-name="tildecomb" unicode="&#x303;" horiz-adv-x="0" 
d="M-121 662c-46 0 -72 45 -102 45c-20 0 -32 -16 -47 -44l-46 22c20 48 51 81 91 81c46 0 70 -45 102 -45c17 0 30 14 46 44l47 -22c-22 -57 -55 -81 -91 -81z" />
    <glyph glyph-name="uni0304" unicode="&#x304;" horiz-adv-x="0" 
d="M-30 671h-232v60h232v-60z" />
    <glyph glyph-name="uni0312" unicode="&#x312;" horiz-adv-x="0" 
d="M-88 585c-29 0 -49 22 -49 51c0 17 4 32 21 74l36 86h46l-29 -116c17 -10 26 -25 26 -44c0 -29 -21 -51 -51 -51z" />
    <glyph glyph-name="uni0326" unicode="&#x326;" horiz-adv-x="0" 
d="M-80 -80c29 0 50 -21 50 -51c0 -17 -5 -32 -22 -74l-36 -86h-45l28 116c-16 10 -25 26 -25 44c0 29 21 51 50 51z" />
    <glyph glyph-name="uni0327" unicode="&#x327;" horiz-adv-x="0" 
d="M-110 16v-77c56 -7 80 -38 80 -82c0 -61 -46 -93 -105 -93c-33 0 -60 9 -79 22l24 44c15 -7 29 -13 51 -13c25 0 44 12 44 40c0 30 -22 45 -77 45l11 114h51z" />
    <glyph glyph-name="uni0328" unicode="&#x328;" horiz-adv-x="0" 
d="M-43 30l13 -30c-84 -42 -104 -76 -104 -117c0 -30 14 -48 50 -48c17 0 30 2 51 7l-8 -62c-17 -4 -32 -7 -54 -7c-66 0 -107 40 -107 98c0 72 54 121 159 159z" />
    <glyph glyph-name="uni0308.case" horiz-adv-x="0" 
d="M-259 886c29 0 50 -23 50 -52s-21 -51 -50 -51s-50 22 -50 51s21 52 50 52zM-81 886c30 0 51 -23 51 -52s-21 -51 -51 -51c-28 0 -50 22 -50 51s22 52 50 52z" />
    <glyph glyph-name="uni0307.case" horiz-adv-x="0" 
d="M-86 897c34 0 56 -24 56 -56c0 -31 -22 -55 -56 -55c-32 0 -55 24 -55 55c0 32 23 56 55 56z" />
    <glyph glyph-name="gravecomb.case" horiz-adv-x="0" 
d="M-202 903l172 -103l-21 -44l-185 78z" />
    <glyph glyph-name="acutecomb.case" horiz-adv-x="0" 
d="M-64 903l34 -69l-185 -78l-21 44z" />
    <glyph glyph-name="uni030B.case" horiz-adv-x="0" 
d="M-95 950l65 -35l-90 -152l-47 21zM-223 949l65 -34l-83 -147l-47 20z" />
    <glyph glyph-name="uni0302.case" horiz-adv-x="0" 
d="M-281 761l-33 37l116 109h52l116 -109l-34 -37l-108 80z" />
    <glyph glyph-name="uni030C.case" horiz-adv-x="0" 
d="M-63 900l33 -36l-116 -109h-52l-116 109l34 36l108 -80z" />
    <glyph glyph-name="uni0306.case" horiz-adv-x="0" 
d="M-159 760c-69 0 -120 47 -127 116l51 12c12 -39 36 -65 76 -65s67 26 78 65l51 -12c-7 -69 -58 -116 -129 -116z" />
    <glyph glyph-name="uni030A.case" horiz-adv-x="0" 
d="M-128 957c59 0 98 -39 98 -102s-39 -102 -98 -102c-58 0 -98 39 -98 102s40 102 98 102zM-128 913c-28 0 -45 -16 -45 -58s17 -58 45 -58c27 0 46 16 46 58s-18 58 -46 58z" />
    <glyph glyph-name="tildecomb.case" horiz-adv-x="0" 
d="M-121 788c-46 0 -72 45 -102 45c-20 0 -32 -16 -47 -44l-46 22c20 48 51 81 91 81c46 0 70 -45 102 -45c17 0 30 14 46 44l47 -22c-22 -57 -55 -81 -91 -81z" />
    <glyph glyph-name="uni0304.case" horiz-adv-x="0" 
d="M-30 797h-232v60h232v-60z" />
    <glyph glyph-name="uni0326.case" horiz-adv-x="0" 
d="M-80 -80c29 0 50 -21 50 -51c0 -17 -5 -32 -22 -74l-36 -86h-45l28 116c-16 10 -25 26 -25 44c0 29 21 51 50 51z" />
    <glyph glyph-name="uni0327.case" horiz-adv-x="0" 
d="M-110 16v-77c56 -7 80 -38 80 -82c0 -61 -46 -93 -105 -93c-33 0 -60 9 -79 22l24 44c15 -7 29 -13 51 -13c25 0 44 12 44 40c0 30 -22 45 -77 45l11 114h51z" />
    <glyph glyph-name="acute" unicode="&#xb4;" horiz-adv-x="266" 
d="M204 792l36 -66l-182 -86l-24 42z" />
    <glyph glyph-name="caron.alt" horiz-adv-x="98" 
d="M55 696l47 -48l-18 -138l-23 47z" />
    <glyph glyph-name="breve" unicode="&#x2d8;" horiz-adv-x="316" 
d="M161 646c-69 0 -120 43 -127 126l51 12c11 -51 36 -76 76 -76s67 25 78 76l51 -12c-7 -83 -58 -126 -129 -126z" />
    <glyph glyph-name="caron" unicode="&#x2c7;" horiz-adv-x="344" 
d="M285 779l33 -37l-116 -113h-52l-116 113l33 37l109 -87z" />
    <glyph glyph-name="acute.case" horiz-adv-x="266" 
d="M202 903l34 -69l-185 -78l-21 44z" />
    <glyph glyph-name="breve.case" horiz-adv-x="316" 
d="M157 760c-69 0 -120 47 -127 116l51 12c12 -39 36 -65 76 -65s67 26 78 65l51 -12c-7 -69 -58 -116 -129 -116z" />
    <glyph glyph-name="caron.case" horiz-adv-x="344" 
d="M281 900l33 -36l-116 -109h-52l-116 109l34 36l108 -80z" />
    <glyph glyph-name="cedilla.case" horiz-adv-x="244" 
d="M137 16v-77c57 -7 81 -38 81 -82c0 -61 -46 -93 -105 -93c-33 0 -60 9 -79 22l23 44c16 -7 30 -13 52 -13c25 0 44 12 44 40c0 30 -22 45 -77 45l11 114h50z" />
    <glyph glyph-name="circumflex.case" horiz-adv-x="344" 
d="M63 761l-33 37l116 109h52l116 -109l-34 -37l-108 80z" />
    <glyph glyph-name="dieresis.case" horiz-adv-x="339" 
d="M85 886c30 0 51 -23 51 -52s-21 -51 -51 -51c-29 0 -50 22 -50 51s21 52 50 52zM264 886c29 0 50 -23 50 -52s-21 -51 -50 -51c-28 0 -50 22 -50 51s22 52 50 52z" />
    <glyph glyph-name="dotaccent.case" horiz-adv-x="171" 
d="M91 897c33 0 55 -24 55 -56c0 -31 -22 -55 -55 -55s-56 24 -56 55c0 32 23 56 56 56z" />
    <glyph glyph-name="grave.case" horiz-adv-x="266" 
d="M64 903l172 -103l-21 -44l-185 78z" />
    <glyph glyph-name="hungarumlaut.case" horiz-adv-x="318" 
d="M225 950l66 -35l-91 -152l-47 21zM97 949l65 -34l-82 -147l-48 20z" />
    </font>
</defs>
</svg>
